#TITLE:Disconnected;
#SUBTITLE:-Mobius-;
#ARTIST:Inspector K;
#TITLETRANSLIT:;
#SUBTITLETRANSLIT:;
#ARTISTTRANSLIT:;
#CREDIT:;
#BANNER:Disconnected -Mobius--bn.png;
#BACKGROUND:Disconnected -Mobius--bg.png;
#LYRICSPATH:;
#CDTITLE:;
#MUSIC:Disconnected -Mobius-.ogg;
#OFFSET:-0.042;
#SAMPLESTART:82.320;
#SAMPLELENGTH:15.860;
#SELECTABLE:YES;
#BPMS:0.000=175.000,205.000=87.500,221.000=175.000;
#STOPS:44.000=1.020
;
#BGCHANGES:;

//---------------dance-single - K. Ward----------------
#NOTES:
     dance-single:
     K. Ward:
     Hard:
     8:
     0.567,0.533,0.185,0.294,0.109:
0000
0000
0000
0000
,
0000
0000
0000
0000
,
0000
0000
0000
0000
,
0000
0000
0000
0000
,
0001
0100
0100
0000
1000
0100
0100
0000
,
0001
0010
0100
1000
0100
0010
0001
0000
,
1000
0100
0100
0000
0001
0100
0100
0000
,
1000
0100
1000
0100
0010
0100
0010
0000
,
0001
0100
0100
0000
1000
0100
0100
0000
,
0001
0100
0010
1000
0100
0010
0100
0000
,
1000
0100
0100
0000
0001
0100
0100
0000
,
1001
0000
0010
0100
0001
0000
0010
0001
,
1000
0000
0100
0001
0100
0010
0100
1000
,
0100
0000
0010
0001
0100
0000
0010
1000
,
0001
0010
0002
0000
1000
0000
0100
0000
,
0013
0000
0001
0010
0001
0000
0100
0010
,
1000
0000
0100
0010
0001
0010
0100
0010
,
0001
0000
0010
0100
1000
0100
0010
0000
,
0100
2002
0000
0000
,
3003
0000
0001
0100
0000
0100
0001
1000
,
0100
0010
0200
0000
0000
0000
0010
0000
,
1300
0000
1000
0100
0000
0100
0001
0100
,
1000
0100
0020
0000
0001
0000
0100
0000
,
0031
0000
0002
0000
1000
0003
2000
0000
,
0001
3000
0002
0000
0100
0003
0010
1000
,
0100
0000
0010
0001
0100
0001
0010
0100
,
1000
0100
0020
0000
0100
0000
0031
0000
,
0000
0000
0110
0000
1001
0000
0001
0100
,
0001
1000
0100
0000
0110
0000
0010
0100
,
0010
0100
0010
0000
0011
0000
0001
0010
,
0001
1000
0001
0000
1100
0000
0010
0000
,
1001
0000
0110
0000
1001
0000
0001
0100
,
0001
1000
0100
0000
0110
0000
0010
0100
,
0010
0100
0010
0000
0011
0000
0001
0010
,
0001
0100
0010
0000
1100
0000
0010
0000
,
1001
0000
0001
0000
1000
0000
0002
1000
,
0003
2000
0010
3000
0020
0100
0030
0200
,
0001
0310
0001
0000
0001
0000
2000
0100
,
3000
0200
0010
0300
0020
0100
0030
0100
,
0010
0000
1001
0000
1000
0000
0001
0100
,
0000
0200
0010
0300
0020
1000
0030
1000
,
0100
0010
0001
0000
0010
0000
0001
0010
,
0100
0010
0100
1100
,
0000
0000
0000
000M
0010
0000
0100
M000
0001
0000
0000
M000
0010
0000
0100
0000
,
1000
0000
0000
000M
0100
0000
0010
0000
0M01
0000
0000
0000
0100
M000
0001
0000
,
0010
0000
0000
0000
00M1
0000
1000
0000
0100
0000
0000
0000
0100
M000
0010
0000
,
0001
0000
0000
0000
0100
000M
0010
0000
1000
0M00
0000
0000
0100
0000
0010
0000
,
0100
0000
0001
0000
0100
0000
0010
0000
0100
000M
M000
0000
0100
0000
1000
0000
,
0010
0000
0000
0000
M100
000M
0010
0000
1000
0000
00M0
0000
0100
0000
0010
M000
,
0001
0000
00M0
0000
0100
0000
0010
000M
1M00
0000
0000
0000
0100
0000
0010
0000
,
0001
0M00
0010
0100
100M
0100
0010
0000
,
0110
0000
0000
0000
0001
0000
0001
0000
0010
0000
0000
0100
1000
0001
0100
0000
,
0010
0000
0000
0000
1000
0000
1000
0000
0100
0000
0000
0010
0001
1000
0010
0000
,
0100
0000
0010
0000
0100
0000
1000
0100
,
0011
0000
0010
0000
0101
0000
1000
0100
,
0010
0100
1000
0000
1000
0000
0002
1000
,
0003
2000
0010
3000
0020
0100
0030
0200
,
0001
0300
0001
0000
0001
0000
2000
0001
,
3000
0002
0100
0003
0200
0010
0300
0010
,
1000
0000
0010
0000
1000
0000
0100
1000
,
0000
2000
0010
3000
0020
0100
0030
0100
,
0002
0000
0013
0000
0100
0000
0100
0010
,
0000
0000
2002
0000
0000
3003
0100
0010
,
0100
0000
0000
0000
0001
0000
0010
0001
0010
0000
0000
0000
0001
0000
0100
0000
,
0001
0010
0000
0010
0001
1000
0100
0010
,
0100
0000
0000
0000
1000
0000
0100
1000
0100
0000
0000
0000
0010
0000
0100
0000
,
1000
0100
0000
0100
0010
0001
0010
0100
,
0010
0000
0000
0000
0001
0000
0010
0001
0010
0000
0000
0000
0001
0000
0100
0000
,
0001
0010
0000
0010
0100
1000
0100
0010
,
0100
0000
0000
0000
1000
0000
0100
1000
0100
0000
0000
0000
0010
0000
0100
0000
,
0010
0001
0000
0100
0010
0100
0001
0000
,
0100
2000
0000
3100
,
M001
0002
0000
0103
,
100M
2000
0000
3100
,
M001
0000
0000
0000
0001
0000
M000
0000
0010
0000
0000
0000
1001
00M0
0000
0000
,
0000
0M00
0000
0000
0001
0000
0000
0000
0100
000M
0000
0000
1000
0000
0100
0000
,
0000
0000
0100
0000
0020
0000
0000
0000
0000
0000
0000
0000
1030
000M
1000
0000
,
0100
0000
0010
0000
M001
0000
0010
0100
,
0000
000M
0100
0000
2000
0000
0000
0000
0000
0000
0000
0000
3100
0000
0100
M000
,
0010
1001
0000
0000
;

//---------------dance-single - K. Ward----------------
#NOTES:
     dance-single:
     K. Ward:
     Medium:
     5:
     0.375,0.400,0.252,0.118,0.000:
0000
0000
0000
0000
,
0000
0000
0000
0000
,
0000
0000
0000
0000
,
0000
0000
0000
0000
,
0001
1000
0001
1000
,
1000
0000
0100
0010
0001
0000
0000
0000
,
0010
0100
0010
0100
,
0100
0000
0010
0100
1000
0000
0000
0000
,
0100
0001
0010
0001
,
0100
0000
0010
0100
1000
0000
0000
0000
,
0100
0000
0001
0000
0010
0100
0000
0000
,
1001
0000
1000
0100
,
0010
0020
0000
0030
,
0000
0000
0001
0100
,
0010
0020
0000
0030
,
0000
1000
1000
0001
,
0001
1000
1000
1000
,
0000
0000
0100
0010
0100
0010
0100
0000
,
0010
2002
0000
0000
,
3003
0000
0001
1000
0100
0000
0010
0100
,
0010
1001
0000
0110
,
0000
0000
1000
0100
0010
0000
0001
0100
,
0010
1001
0000
0110
,
0000
0001
0001
1000
,
1000
0001
0001
0001
,
0000
0010
0100
0010
,
0100
2002
0000
3003
,
0000
0000
1000
0000
0100
0000
0010
0001
,
0001
0000
0100
0000
0010
0000
1000
0100
,
0100
0000
0010
0000
0100
0000
1000
0001
,
0001
0010
0100
1000
,
0100
0000
0010
0000
0001
0000
0100
0010
,
0010
0000
0100
0000
0001
0000
0010
0001
,
0001
0000
0010
0000
0100
0000
1000
0100
,
0100
0010
0100
0110
,
0000
1001
0001
1001
,
0001
1001
1000
1001
,
0000
0110
0010
0110
,
0100
0110
0010
0110
,
0000
1001
0001
1001
,
1000
1001
0001
1001
,
0000
0110
0100
0110
,
0010
0220
0000
0330
,
0000
1000
0100
0001
,
0100
1000
0010
0001
,
0010
1000
0100
0001
,
0100
0000
1000
0000
0001
0000
1000
0001
,
1000
0001
0100
1000
,
0100
0001
0010
1000
,
0010
0001
0100
1000
,
0100
0000
0001
0000
0010
0000
0100
0010
,
0100
1001
0100
0100
,
0000
1001
0010
0010
,
0000
0001
1000
0100
,
0000
0100
0010
0100
,
1001
0010
0100
1000
,
0100
0010
0100
1000
,
0000
0100
0001
0010
,
0100
0010
0001
0010
,
0000
1000
0100
0010
,
0001
0010
0100
0010
,
0000
0001
1000
0001
,
0010
0000
0001
0000
0000
0000
0100
0010
,
0100
0001
0001
1000
,
1000
0000
0100
0000
0100
0000
0010
0100
,
1000
0001
0001
0100
,
0100
0000
0010
0000
0010
0000
0100
0001
,
0010
0001
0001
1000
,
1000
0000
0100
0000
0100
0000
0010
0100
,
1000
0000
0100
0000
0010
0000
0100
0010
,
0000
0010
0100
0000
0000
0000
1001
0000
,
0000
0020
0000
0000
,
0000
0030
0000
0000
,
0000
1000
1000
0100
,
0001
0200
0000
0300
,
0000
0010
0100
2002
,
0000
3003
0000
0000
,
0000
0100
0010
2002
,
0000
0000
3003
0000
0000
0000
1000
0100
,
0010
0110
0000
0000
;

//---------------dance-single - K. Ward----------------
#NOTES:
     dance-single:
     K. Ward:
     Easy:
     3:
     0.208,0.300,0.059,0.025,0.000:
0000
0000
0000
0000
,
0000
0000
0000
0000
,
0000
0000
0000
0000
,
0000
0000
0000
0000
,
1000
0000
0001
0000
,
0010
0100
0010
0000
,
0001
0000
1000
0000
,
0100
0010
0100
0000
,
1000
0000
0001
0000
,
0100
0010
0100
0000
,
0001
0000
0100
0000
,
0010
0000
0000
1000
,
1000
1000
0000
0000
,
0000
0000
0000
0001
,
0001
0001
0000
0000
,
0000
0100
0000
1000
,
0000
0010
0000
0001
,
0000
1001
0000
0110
,
0000
1001
0000
0000
,
0000
0100
0100
0100
,
0100
0100
0000
0000
,
0000
0010
0010
0010
,
0010
0010
0000
0000
,
0000
1000
0000
0001
,
0000
1000
0000
0001
,
0000
0020
0000
0000
,
0000
0030
0000
0000
,
0000
1000
0010
0100
,
0010
1000
0010
0100
,
0010
1000
0010
0100
,
0010
1000
0100
0010
,
0100
0010
0001
0010
,
0001
1000
0001
0010
,
0001
1000
0001
0010
,
0001
0100
0010
0100
,
0000
0001
0000
0001
,
0001
0001
0000
0000
,
0000
0100
0000
0100
,
0100
0100
0000
0000
,
0000
1000
0000
0100
,
0100
0100
0000
0000
,
0000
0010
0000
0100
,
0100
1001
0000
0000
,
0000
1000
0000
0010
,
0000
0100
0000
0001
,
0000
0010
0000
0100
,
0000
0010
0000
0001
,
0000
1000
0000
0001
,
0000
0100
0000
0010
,
0000
0100
0000
0001
,
0000
0010
0000
0100
,
0000
1001
0000
0000
,
0000
0010
0000
0000
,
0000
0100
0100
0100
,
0000
0010
0100
0001
,
0000
1000
0000
1000
,
1000
1000
0000
0000
,
0000
0100
0000
0100
,
0100
0100
0000
0000
,
0000
0010
0000
0100
,
0100
0100
0000
0000
,
0000
1000
0000
0001
,
0000
0100
0010
0100
,
0000
0001
0000
1000
,
0000
0001
0000
1000
,
0000
0100
0000
0010
,
0000
0100
0000
0010
,
0000
0001
0000
1000
,
0000
0001
0000
1000
,
0000
0100
0100
0100
,
0000
0010
0100
0100
,
0000
1001
0000
0000
,
0000
0010
0000
0000
,
0000
0100
0000
0000
,
0000
0010
0000
0000
,
0000
1000
1000
2000
,
0000
3000
0000
0000
,
0000
0001
0001
0002
,
0000
0003
0000
0000
,
0000
0110
0000
0000
;

//---------------dance-single - C. Foy----------------
#NOTES:
     dance-single:
     C. Foy:
     Challenge:
     9:
     0.674,0.735,0.067,1.000,0.387:
0000
0000
0000
0000
,
0000
0000
0000
0000
,
1000
0000
1000
0000
1000
1000
0000
1000
,
1000
1000
1000
1000
,
2000
0000
0000
0000
0020
0000
3000
0000
0002
0030
2000
0000
0003
0000
0002
3000
,
0020
0003
2000
0030
0200
3000
0002
0300
,
2000
0000
0003
0000
0002
0000
3000
0000
2000
0003
0020
0000
0000
3000
0002
0030
,
2000
0003
0020
3000
0002
0030
2000
0003
,
0002
0000
3000
0000
0020
0000
0003
0000
2000
0030
0200
0000
3000
0000
0002
0300
,
2000
0003
0002
3000
0200
0003
2000
0300
,
0020
0000
3000
0000
0002
0000
0030
0000
0020
0003
2000
0000
0030
3000
0001
0000
,
M1M2
MMM3
0000
0000
0000
0000
0000
0000
1000
0000
0000
0000
0010
0000
0000
0000
0100
0000
0000
0000
0001
0000
0000
0000
0010
0000
0000
0000
0100
0000
0000
0000
,
0000
1000
0010
0000
0000
0010
1000
0100
,
1000
0000
1001
0000
0001
1000
0100
0010
,
0000
0001
0000
1000
0100
0000
1000
0000
,
0010
0000
0010
1000
0100
0000
0010
0001
,
0100
0000
0010
1000
0001
0100
0000
0001
,
0000
0000
2000
0000
0200
3000
0002
0300
2000
0003
0002
3000
0200
0003
0000
0000
,
2000
0300
0000
3000
0002
0000
0000
0000
0000
0000
0000
0000
0000
0000
0000
0000
,
0000
0003
1000
0100
0001
0100
0001
0100
,
1000
0010
0100
0000
0000
0100
0001
0100
,
1000
0000
0100
0000
0001
0010
0100
0010
,
0000
0000
0000
0000
M1MM
0000
0000
0000
0000
0000
0000
00M0
1M0M
0000
0000
0000
0M1M
M000
0000
0000
0000
0000
0000
0000
M1MM
0000
0000
0000
0000
0000
0000
0000
,
MMM1
0000
1000
0100
0010
0000
0001
0100
,
0010
0000
1000
0100
0010
0001
0000
0100
,
0000
0000
0000
0000
0010
0000
0000
0000
0100
0000
0000
0000
0010
0000
0000
0000
0001
0000
0000
0000
0010
0000
0000
0000
0000
0000
0000
0000
0000
0000
0000
000M
,
M1M0
0000
0000
0000
0000
0000
0000
0000
M0M1
0M00
0000
0000
0000
0000
0000
0000
0100
0000
0000
0000
0010
0000
0000
0000
1000
0000
0000
0000
0100
0000
0000
0000
,
0000
0000
2000
0000
0200
3000
0002
0300
,
2000
0000
0000
0000
0000
0000
0003
0000
0000
3000
0002
0000
0200
0000
0000
0000
0000
0000
0000
0000
0000
0000
0003
0000
2000
0000
0000
0300
0000
0000
0000
0000
0000
3000
0020
0000
0200
0000
0000
0000
0030
0000
0000
0000
0000
0000
0000
0000
,
2000
0000
0000
0300
0000
3200
2000
0000
0000
0300
0000
0000
0002
0000
0000
3000
0000
0000
2000
0000
0000
0003
0000
0000
,
0200
0000
0000
0000
0000
0000
3000
0000
0000
0300
0002
0000
2000
0000
0000
0000
0000
0000
0003
0000
0000
0000
0000
0000
0200
0000
0000
0000
0000
0000
3000
0000
0000
0000
0000
0000
0020
0000
0000
0000
0000
0000
0300
0000
0000
0000
0000
0000
,
2000
0000
0000
0000
0000
0000
0030
0000
0000
3000
0002
0000
2000
0000
0000
0000
0000
0000
0003
0000
0000
0000
0000
0000
0020
0000
0000
0000
0000
0000
3000
0000
0000
0000
0000
0000
0002
0000
0000
0000
0000
0000
0030
0000
0000
0000
0000
0000
,
2000
0000
0000
0003
0000
0000
0000
0000
0000
3000
0020
0000
0200
0000
0000
0000
0000
0000
0030
0000
0000
0000
0000
0000
2000
0000
0000
0000
0000
0000
0300
0000
0000
0000
0000
0000
0002
0000
0000
0000
0000
0000
3000
0000
0000
0000
0000
0000
,
2000
0000
0000
0000
0000
0000
0003
0000
0000
3000
0002
0000
2000
0000
0000
0000
0000
0000
0003
0000
0000
3000
0000
0000
0200
0000
0000
0000
0000
0000
0000
0000
0000
0000
0000
0000
0002
0000
0000
0000
0000
0000
0300
0000
0000
0000
0000
0000
,
2000
0000
0000
0000
0000
0000
0003
0000
0000
3000
0200
0000
0020
0000
0000
0000
0000
0000
0300
0000
0000
0000
0000
0000
2000
0000
0000
0000
0000
0000
0030
0000
0000
0000
0000
0000
0002
0000
0000
0000
0000
0000
3000
0000
0000
0000
0000
0000
,
0200
0000
0000
0000
0000
0000
0003
0000
0000
0300
2000
0000
0020
0000
0000
0000
0000
0000
3000
0000
0000
0000
0000
0000
0100
0000
0000
0000
0000
0000
0030
0000
0000
0000
0000
0000
0001
0000
0000
0000
0000
0000
1000
0000
0000
0000
0000
0000
,
0000
0002
0100
0003
0200
0010
0300
0020
,
1000
0030
0100
0000
1000
0000
0000
0000
1000
0000
0000
0000
0002
0000
1000
0000
,
0003
2000
0010
3000
0020
0100
0030
0100
,
0001
0100
0001
0000
0001
0000
0010
0001
,
0000
0002
0100
0003
0200
0010
0300
0010
,
1000
0010
1000
0000
0100
0000
1000
0010
,
1000
0010
0100
0000
MM1M
0000
M1MM
0000
,
MMM1
0000
2MMM
0000
0000
0000
0020
3000
,
M10M
0000
0002
0030
0000
0000
2MM0
0003
,
0200
3000
00M2
0300
0000
0000
0020
0003
,
M10M
0000
2000
0030
0000
0000
0MM2
3000
,
M1M0
0000
M2M0
0003
0000
0000
2000
0300
,
0MM1
0000
0020
3000
0000
0000
MM02
0030
,
2000
0003
02MM
3000
0000
0000
0002
0300
,
1MM0
0000
0020
0003
0000
0000
MM02
0030
,
2000
3003
0000
0000
1000
0010
0100
0001
0010
0100
0000
1000
0010
0000
0000
1000
,
0100
0010
0001
0000
0100
0000
0010
0100
0010
1000
0000
0001
0000
0010
0100
0000
,
1000
0000
0000
0000
0010
0100
0010
0100
0000
0001
0010
0000
0100
0000
0000
1000
,
0100
1000
0100
0000
0010
0000
0001
0100
0001
0100
0000
0010
0000
1000
0100
0010
,
0100
0001
0100
1000
0010
0000
0000
0000
1000
0000
0000
0000
0002
0000
1000
0000
,
0003
2000
0010
3000
0020
0100
0030
0200
,
0001
0300
0001
0000
0001
0000
2000
0001
,
3000
0002
0100
0003
0200
0010
0300
0010
,
1000
0000
0010
1000
0010
0000
0000
0000
1000
0000
0000
0000
0100
0000
1000
0000
,
0000
2000
0010
3000
0020
0100
0030
0100
,
0002
0000
1003
0000
1000
0000
0001
0100
,
0001
0100
0002
0000
0000
0003
1000
0100
,
1000
1000
1002
0000
1000
0003
2000
0002
,
0000
3003
0000
0000
1000
0100
0010
0100
,
1000
0010
0210
0000
0020
0300
2030
0200
,
0000
3300
0000
0000
1000
0100
0010
0001
,
1000
0010
2001
0000
0010
0000
3020
2000
,
0000
3030
0000
0000
0100
0001
1000
0100
,
1000
0010
0102
0000
0010
0000
0203
0020
,
0000
0330
0000
0000
0000
0000
0000
0000
,
0000
0000
0000
0000
0000
0000
0000
0000
1MM1
0000
0000
0000
0000
0000
0000
0000
0000
0000
0000
0000
0000
0000
0000
M000
00M1
0000
0000
0M00
1000
000M
0000
0000
,
02M0
M000
0000
0000
0300
0000
0000
000M
10M0
0000
0000
0000
0M01
0000
0000
0000
M020
000M
0000
0000
0030
0000
0000
0M00
0001
0000
0000
00M0
M100
000M
0000
0000
,
0020
0M00
0000
0000
0030
0000
0000
000M
M100
0000
0000
00M0
0001
0M00
0000
0000
M020
000M
0000
0000
0030
0000
0000
M000
0100
0000
0000
000M
10M0
0M00
0000
0000
,
0002
0000
0M00
0000
0003
0000
0000
0000
M100
0000
0000
00M0
0001
0M00
0000
0000
0020
000M
M000
0000
0030
0000
0000
M000
0001
0000
0000
0M00
10M0
0000
000M
0000
,
02M0
M000
0000
0000
0300
0000
0000
00M0
100M
0000
0000
0M00
0010
0000
M00M
0000
0200
00M0
0000
0000
0300
0000
0000
0000
00M1
0000
0000
0000
M100
000M
0000
0000
,
0020
0M00
000M
0000
0030
0000
0000
0M00
100M
0000
0000
00M0
0100
M000
0000
0000
002M
0M00
0000
0000
0030
0000
0000
0000
M001
0000
0000
0M00
0010
000M
0000
0000
,
M200
00M0
0000
0000
0300
0000
0000
000M
M010
0000
0000
0000
0M01
0000
00M0
0000
M200
000M
0000
0000
0300
0000
0000
M000
001M
0000
0000
0000
1M00
00M0
0000
0000
,
020M
M000
0000
0000
0300
0000
0000
000M
10M0
0000
0000
0000
0M01
M000
0000
0000
0200
000M
M000
0000
0300
0000
0000
0000
M01M
0000
0000
0000
M100
00M0
0000
0000
,
0002
0M00
0003
M000
00M0
0000
0000
0000
1001
0000
0000
0000
0000
M00M
0MM0
0000
0000
0000
0000
0000
0000
0000
0000
0000
0000
0000
0000
0000
0000
0000
0000
0000
;

//---------------dance-double - M. Emirzian----------------
#NOTES:
     dance-double:
     M. Emirzian:
     Easy:
     4:
     0.255,0.336,0.017,0.025,0.000:
00000000
00000000
00000000
00000000
,
00000000
00000000
00000000
00000000
,
00000000
00000000
00000000
00000000
,
00000000
00000000
00000000
00000000
,
10000000
00000000
01000000
00000000
,
00010000
00010000
00010000
00000000
,
00001000
00000000
00000100
00000000
,
00000001
00000001
00000001
00000000
,
00000001
00000000
00000010
00000000
,
00001000
00001000
00001000
00000000
,
00010000
00000000
00100000
00000000
,
10000000
01000000
00100000
00010000
,
00000000
01000000
00100000
00010000
,
00000000
00001000
00000010
00000100
,
00000000
00001000
00000010
00000100
,
00000000
00001000
00000100
00000001
,
00000000
00001000
00000100
00000001
,
00000000
00000200
00000000
00000000
,
00000000
00000300
00000000
00000000
,
00000000
00000010
00000100
00001000
,
00000000
00010000
00000000
00001000
,
00000000
00010000
01000000
10000000
,
00000000
00010000
01000000
10000000
,
00000000
00010000
00100000
01000000
,
00000000
00010000
00100000
01000000
,
00000000
00010000
00001000
00000010
,
00000001
00000100
00001000
00010000
,
01000000
10000000
00000000
10000000
,
01000000
00010000
00001000
00000010
,
00000000
00000001
00000000
00000100
,
00001000
00010000
01000000
10000000
,
00000000
01000000
00000000
00010000
,
00001000
00000010
00000001
00000100
,
00000000
00000010
00000000
00000100
,
00001000
00010000
01000000
10000000
,
00000000
00100000
00000000
01000000
,
00000000
01000000
01000000
00000000
,
00001000
00001000
00010000
00001000
,
00001000
00000000
00010000
00000000
,
00000100
00000000
00000100
00000100
,
00000000
00001000
00001000
00000000
,
00000010
00000010
00000100
00000001
,
00001000
00000000
00000100
00000100
,
00000000
00011000
00000000
00100000
,
00000000
01000000
00000000
10000000
,
00000000
00100000
00000000
01000000
,
00000000
10000000
00000000
00010000
,
00000000
00100000
00000000
01000000
,
00000000
00010000
00000000
00100000
,
00000000
01000000
00000000
00010000
,
00000000
00001000
00000000
00010000
,
00000000
00001000
00001000
00010000
,
00010000
00000000
00000100
00000000
00000100
00000000
00001000
00000010
,
00001000
00000100
00000100
00000010
,
00000010
00000000
00000001
00000000
00000001
00000000
00000100
00000010
,
00000100
00000100
00000000
00000100
,
00000100
00000000
00000000
00000100
,
00000000
00001000
00000000
00010000
,
00010000
00000000
00001000
00001000
,
00000000
00010000
00000000
01000000
,
01000000
00000000
01000000
10000000
,
00000000
00100000
00000000
01000000
,
01000000
00000000
00010000
00010000
,
00000000
00100000
00100000
00000000
,
00001000
00000000
00010000
00010000
,
00000000
00000100
00000100
00000000
,
00001000
00000000
00000010
00000100
,
00000001
00000000
00000100
00000100
,
00000000
00000100
00000000
00000100
,
00000100
00000000
00001000
00001000
,
00000000
00001000
00001000
00010000
,
00000000
00010000
00000000
00001000
,
00010000
00000000
01000000
10000000
,
00010000
10000000
00000000
01000000
,
00010000
00000000
00001000
00000100
,
00000001
00000100
00000000
00001000
,
00010000
00000000
01000000
10000000
,
00010000
10000000
00000000
00100000
,
00010000
00000000
00001000
00010000
,
00000010
00000000
00002002
00000000
00000000
00000000
00000000
00003003
;

//---------------dance-double - M. Emirzian----------------
#NOTES:
     dance-double:
     M. Emirzian:
     Medium:
     6:
     0.356,0.437,0.177,0.101,0.000:
00000000
00000000
00000000
00000000
,
00000000
00000000
00000000
00000000
,
00000000
00000000
00000000
00000000
,
00000000
00000000
00000000
00000000
,
00001000
00010000
00001000
00001000
,
00010000
00000010
00001000
00000000
00000001
00000000
00000001
00000000
,
00000100
00000010
00000100
00000100
,
00000010
00010000
00001000
00000000
01000000
00000000
00010000
00000000
,
10000000
10000000
01000000
01000000
,
00100000
00001000
00010000
00000000
00000100
00000000
00000100
00000000
,
00000010
00000010
00000100
00000100
,
00010000
00001000
00001000
00000100
,
00000001
00000100
00001000
00010000
,
00010000
00100000
10000000
00100000
,
00010000
00000000
00001000
00010000
00001000
00000000
00000000
00000000
,
00000000
00010000
00010000
00001000
,
00000100
00000001
00000100
00001000
,
00010000
00002000
00000000
00000000
,
00000000
00003000
00000000
00000000
,
00000000
00001000
00010000
00100000
,
10000000
01000000
00010000
00000000
,
00000000
00010000
01000000
10000000
,
00100000
00010000
00001000
00000000
,
00000000
00010000
00001000
00000010
,
00000001
00000100
00001000
00000000
,
00000000
00001000
00000100
00000001
,
00000010
00001000
00010000
00001000
,
00010000
00002000
00000000
00013000
,
00200000
00000000
01300000
00020000
,
00000000
10030000
02000000
00000000
,
03010000
00002000
00000000
00103000
,
00020000
00000000
01030000
00002000
,
00000000
00013000
00000020
00000000
,
00000130
00000002
00000000
00000100
,
00001000
00000103
00000010
00000010
,
00000000
00001000
00000100
00000010
,
00000001
00000100
00001000
00010000
,
00100000
01000000
00010000
00100000
,
01000000
00010000
00001000
00000010
,
00000100
00001000
00000010
00000100
,
00001000
00010000
01000000
10000000
,
00010000
01000000
10000000
00010000
,
00100000
01000000
00010000
00100000
,
01000000
00010000
00000000
00010100
,
00000000
00001010
00000000
00000101
,
00000000
00001010
00000000
00010100
,
00000000
00011000
00000000
01001000
,
00000000
00110000
00000000
11000000
,
00000000
00110000
00000000
01001000
,
00000000
00011000
00000000
00010010
,
00000000
00001100
00001001
00000110
,
00000100
00000000
00000100
00000001
00000100
00000000
00001000
00000000
,
00010000
00000000
00001000
01000000
00100000
00000000
10000000
01000000
,
00010000
00000000
01000000
10000000
00010000
00000000
01000000
00001000
,
00010000
00000000
00000100
00001000
00000010
00000000
00000100
00000100
,
00000100
00000100
00000100
00000000
00000001
00000000
00000010
00000000
,
00001000
00010000
00100000
01000000
,
00010000
00100000
01000000
00010000
,
01000000
10000000
00010000
01000000
,
10000000
00010000
00100000
01000000
,
00010000
00100000
01000000
00010000
,
00001000
00000010
00000100
00001000
,
00000010
00000000
00000100
00000000
00000010
00000000
00000100
00000001
,
00000100
00000010
00010000
00001000
,
01000000
00100000
10000000
01000000
,
00000000
00010000
00001000
00000010
,
00001000
00010000
00001000
00001000
,
00000100
00000001
00000100
00001000
,
00001000
00010000
00100000
01000000
,
00010000
00100000
01000000
00010000
,
01000000
10000000
00010000
01000000
,
10000000
01000000
00000000
01000000
,
00010000
00100000
00001000
00010000
,
00000100
00000010
00000000
00000001
,
00000100
00000010
00001000
00000100
,
00000000
00011000
00000000
00000000
,
00000000
01001000
00000000
00000000
,
00000000
01010000
00000000
00000000
,
00000000
00000000
10100000
00000000
00000000
00000000
10000000
01000000
,
00100000
00000000
00220000
00000000
00000000
00000000
00000000
00330000
;

//---------------dance-double - M. Emirzian----------------
#NOTES:
     dance-double:
     M. Emirzian:
     Hard:
     8:
     0.523,0.605,0.236,0.025,0.025:
00000000
00000000
00000000
00000000
,
00000000
00000000
00000000
00000000
,
00000000
00000000
00000000
00000000
,
00000000
00000000
00000000
00000000
,
00100000
00000000
10000000
00000000
01000000
00100000
00000000
00010000
,
01000000
10000000
01000000
00000000
00100000
00000000
00010000
00000000
,
00001000
00000000
00100000
00000000
00001000
00010000
00000000
00000010
,
00000100
00000001
00000010
00000000
00001000
00000000
00000010
00000000
,
00000001
00000010
00000100
00000000
00001000
00000010
00000000
00010000
,
00001000
00100000
01000000
00000000
10000000
01000000
00010000
00000000
,
01000000
00100000
00001000
00000000
00010000
00001000
00000000
00000010
,
00000001
00000M00
00000100
00000000
00000010
00001000
00000100
00000010
,
00000000
00000100
00010000
00001000
01000000
00000000
00110000
00000000
,
01000000
00000000
10000000
00000000
00100000
01000000
00010000
10000000
,
00000000
01000000
00010000
00001000
00000100
00000000
00001010
00000000
,
00000000
00000100
00000011
00000100
,
00001010
00000100
00011000
10010000
,
01100000
20000000
00000000
00000000
,
00000000
30000000
00000000
00000000
,
M0000000
00000000
10000000
01000000
00100000
00000000
01000000
00100000
,
00010000
00000000
01000000
00100000
00010000
00000000
00001000
00010000
,
00100000
00000000
00010000
00001000
00000100
00000000
00001000
00000100
,
00000010
00000000
00001000
00000100
00000010
00000000
00000011
00000000
,
00000101
00000000
00001000
00000100
00000001
00000000
00001000
00000100
,
00000001
00000000
00001000
00000010
00000100
00000000
00001000
00000010
,
00000100
00001000
00010000
00100000
,
10000000
01000000
00010000
01000000
10000000
00100000
01000000
00010000
,
00010000
00010000
M0000000
10000000
,
00100000
00000000
01000000
00000000
00001000
00000000
00100000
01000000
,
00010000
00000000
00001000
00000000
00000010
00000000
00000001
00000100
,
00001000
00000000
00000100
00000000
00000001
00000000
00000010
00001000
,
00010000
00001000
00000100
00000000
00001000
00010000
01000000
00000000
,
10000000
10010000
11000000
01010000
,
00101000
00011000
00010100
00001010
,
00000011
00000000
00000010
00001000
00000100
00000010
00000001
00000100
,
00000010
00000000
00000010
00001000
00000100
00001000
00000010
00000000
,
00000010
00001000
00000100
00001000
00000010
00000000
00000100
00001000
,
00010000
00001000
00000100
00000000
00000100
00001000
00010000
00001000
,
00000100
00000000
00001000
00010000
00100000
10000000
01000000
00100000
,
01000000
00000000
10000000
01000000
00010000
01000000
10000000
00000000
,
10000000
01000000
00010000
01000000
10000000
00000000
00100000
00010000
,
00001000
00010000
00100000
00000000
00100000
00010000
00001000
00010000
,
00100000
00000000
00010000
00001000
01000000
00000000
00011000
00000000
,
00010100
00000000
00001000
00000000
00000000
00000010
00000100
00000000
,
00000000
00000001
00001000
00000000
00000000
00001000
00010000
00000000
,
00010000
00000000
10000000
00000000
01000000
00000000
00100000
00010000
,
01000000
00000000
00100000
00010000
00001000
00000000
00010010
00000000
,
00001010
00000000
00000100
00000000
00000000
00000001
00000010
00000000
,
00000000
00000001
00001000
00000000
00000000
00001000
00010000
00000000
,
00010000
00000000
10000000
00000000
01000000
00000000
10000000
01000000
,
00010000
00000000
00001000
00010000
01000000
00000000
00011000
00000000
,
00010100
00000000
00000000
00000000
00001000
00000000
00000010
00000000
00000100
00000000
00000001
00000000
00001000
00000010
00001000
00000000
,
00000100
00000000
00000000
00000000
00010000
00000000
00001000
00000000
01000000
00100000
01000000
00010000
00000000
01000000
00100000
00000000
,
10000000
10100000
11000000
00011000
,
00001001
00000000
00001000
00000100
00000010
00000001
00000100
00001000
,
00010000
00100000
10000000
00010000
01000000
00000000
00000000
00000000
01000000
00000000
00000000
00000000
00100000
00000000
10000000
00000000
,
01000000
00010000
00000000
01000000
10000000
00100000
00010000
00000000
,
00001000
00000000
00010000
00000000
00000100
00000000
00001000
00000010
,
00000001
00000010
00000000
00001000
00000100
00000001
00000100
00000000
,
00001000
00000000
00000010
00000000
00000100
00000000
00001000
00000100
,
00000001
00000010
00000000
00000010
00000001
00000100
00001000
00000000
,
00010000
00000000
00001000
00000000
01000000
00000000
00010000
00100000
,
10000000
00100000
00000000
00010000
01000000
10000000
01000000
00000000
,
00010000
00000000
00100000
00001000
00010000
00001000
00100000
00000000
,
00100000
00001000
00010000
00001000
00100000
00000000
00001000
00010000
,
01000000
00010000
00001000
00000000
00001000
00010000
01000000
00010000
,
00001000
00000000
00010000
00000100
00001000
00000010
00001000
00000100
,
00000001
00000000
00000100
00001000
00000010
00001000
00000100
00000000
,
00000100
00001000
00000010
00001000
00000100
00000000
00000001
00000100
,
00001000
00000100
00000001
00000000
00000001
00000100
00001000
00000100
,
00000001
00000000
00000100
00001000
00000010
00010000
00001000
00100000
,
01000000
10000000
00100000
00000000
00100000
00000000
00100000
00000000
,
00100000
01000000
01000000
01000000
,
01000000
00010000
00010000
00010000
,
00010000
00100000
01000000
00010000
,
00001000
00000010
00000010
00000010
,
00000010
00000001
00000001
00000001
,
00000001
00000100
00000100
00000100
,
00000100
00000000
00000010
00000000
,
00010000
00000000
00022000
00000000
00000000
00000000
00000000
00033000
;

//---------------dance-double - M. Emirzian----------------
#NOTES:
     dance-double:
     M. Emirzian:
     Challenge:
     9:
     0.629,0.840,0.303,0.177,0.072:
00000000
00000000
00000000
00000000
,
00000000
00000000
00000000
00000000
,
00000000
00000000
00000000
00000000
,
00000000
00000000
00000000
00000000
,
00100000
00020000
01000000
00000000
00130000
00002000
00010000
00000000
,
00003010
00001000
00010000
00001000
00000100
00000000
00000101
00000000
,
00000010
00002000
00000100
00000000
00003010
00020000
00001000
00000000
,
00130000
00010000
00001000
00010000
01000000
00000000
11000000
00000000
,
01000000
00020000
00001000
00000000
00130000
00020000
00001000
00000000
,
00030100
00010000
00001000
00000010
00000001
00000000
00000101
00000000
,
00000100
00002000
00010000
00000000
00103000
01000000
00010000
00001000
,
00010000
0M000000
01000000
10000000
00100000
00010000
00001000
00010000
,
00100000
00000000
00010000
00001000
00000010
00001000
00010000
00000000
,
00001100
00000000
00000010
00000001
00000100
00000010
00000100
00001000
,
00000001
00000010
00000100
00001000
00010000
00100000
10000000
00000000
,
10010000
00100000
01001000
00010000
,
00101000
00010000
00010100
00001000
,
00010010
00000200
00000000
00000000
,
00000000
00000300
00000000
00000000
,
0000000M
00000000
00000001
00000100
00001000
00000001
00000010
00001000
,
00000100
00000000
00010000
00001000
00100000
01000000
00010000
00000000
,
11000000
00000000
00100000
00010000
10000000
01000000
00010000
01000000
,
10000000
01000000
00000000
00100000
00010000
00001000
00000010
00000000
,
00000011
00000000
00000100
00001000
00000100
00000010
00010000
00001000
,
00100000
00000000
00010000
01000000
00100000
00010000
00100000
00000000
,
10100000
00000000
01000000
00000000
00100000
00000000
00001000
00000100
,
00000001
00000100
00001000
00000001
00000010
00001000
00010000
00010000
,
00010000
00010000
00010000
00000000
00M00000
00000000
00100000
00000000
,
10000000
00000000
00100000
00010000
00001000
00000000
01000000
00000000
,
00001000
00000000
00010000
00000100
00001000
00000000
00000010
00000100
,
00001000
00000000
00010000
00001000
00000010
00000000
00000011
00000000
,
00000101
00000000
00000100
00001000
00010000
00000000
00100000
01000000
,
00001000
00000000
00000100
00001000
00010000
00000000
00110000
00000000
,
10000000
00000000
00000000
00000000
00000000
01000000
00010000
00000000
00000000
00100000
00000000
00000000
00001000
00000000
00000000
00010000
00000000
00000000
01000000
00000000
00000000
00000000
00000000
00000000
,
00110000
00000000
00000000
00000000
00000000
01000000
10000000
00000000
00000000
01000000
00000000
00000000
00010000
00000000
00000000
10000000
00000000
00000000
00100000
00000000
00000000
00010000
00000000
00000000
,
00100000
00000000
00100000
00010000
00001000
00020000
00100000
00000000
,
00031000
00010000
01000000
00010000
00001000
00000000
00002010
00000000
,
000130M0
00000000
00001000
00010000
01000000
00020000
00001000
00000000
,
0013M000
00010000
00001000
00010000
00100000
00000000
01020000
00000000
,
0M130000
00000000
01000000
00010000
00001000
00020000
01000000
00000000
,
0013M000
00010000
00001000
00010000
00100000
00000000
00021000
00000000
,
0013M000
00000000
00010000
00001000
00000010
00002000
00010000
00000000
,
000M3100
00001000
00010000
00001000
00000100
00000000
00001000
00000000
,
00011000
00000000
01000000
00000000
00010000
00100000
10000000
00000000
,
10000000
00100000
00010000
00000000
01000000
00100000
00010000
00001000
,
00000010
00000000
00000001
00000000
00000100
00001000
00010000
00000000
,
00010000
00001000
00000100
00000000
00000001
00000010
00001000
00010000
,
00000100
00000000
00010000
00000000
01000000
10000000
00100000
00000000
,
00100000
10000000
01000000
00000000
00010000
00001000
00000100
00000001
,
00000010
00000000
00000100
00000000
00001000
00000100
00000010
00001000
,
00000001
00000100
00000010
00001000
00010000
00100000
10000000
00010000
,
01000000
00000000
00000000
00000000
00100000
00000000
10000000
01000000
00010000
01000000
10000000
01000000
00010000
00000000
01000000
00000000
,
00110000
00000000
00000000
00000000
01000000
00000000
00001000
00010000
00100000
00010000
00001000
00010000
00000000
00000100
00010100
00000000
,
00001100
00000000
00000000
00000000
00000010
00000000
00000001
00000100
00001000
00000100
00000001
00000000
00000010
00000100
00001000
00000000
,
00001100
00000000
00011000
00000000
00110000
00000000
10100000
00000000
10000000
00000000
01000000
10000000
00000000
01000000
00010000
01000000
,
10000000
01000000
00010000
00001000
00010000
00000000
00000000
00000000
00011000
00000000
00000000
00000000
00010010
00000000
00000000
00000000
,
00000100
00000001
00000010
00000000
00001000
00000000
00010000
00000000
,
00100000
10000000
01000000
00010000
,
00001000
00000100
00001000
00000000
00010000
00000000
00021000
00000000
,
0013M000
00000000
00010000
00001000
00000100
00002000
00010000
00000000
,
000M3010
00001000
00010000
00001000
00000010
00000000
00012000
00000000
,
000M3010
00000000
00001000
00010000
00100000
00020000
00001000
00000000
,
0103M000
00000000
10000000
00100000
00010000
00001000
00000100
00000000
,
00000101
00000000
00001000
00000100
00000001
00000100
00001000
00010000
,
00001000
00000010
00001000
00010000
00100000
01000000
10000000
01000000
,
00010000
10000000
01000000
00010000
10000000
00100000
01000000
00010000
,
00001000
00010000
00100000
00010000
00001000
00000010
00000001
00001000
,
00000100
00000001
00001000
00000010
00001000
00010000
01000000
00100000
,
00001000
01000000
00100000
00010000
01000000
00010000
00001000
00100000
,
01000000
10000000
00010000
00100000
10000000
00010000
01000000
00010000
,
00001000
00000100
00000001
00001000
00000010
00000001
00000010
00000100
,
00001001
00000000
00001010
00000000
00000001
00000000
00000010
00001000
,
00010000
00001000
00000000
00000000
00010000
00000000
00100000
00010000
,
00100000
10000000
00000000
00000000
01000000
00000000
00010000
01000000
,
00010000
00001000
00000000
00000000
00000100
00000000
00000001
00000100
,
00001000
00000100
00000000
00000000
00001000
00000000
00010000
00001000
,
00010000
00100000
00000000
00000000
10000000
00000000
01000000
00010000
,
00001000
00010000
00000000
00000000
00001000
00000000
00000100
00000000
,
00001000
00000000
00010000
00100000
10000000
01000000
00100000
00010000
,
01010000
M00M0000
20020000
00000000
00000000
00000000
00000000
30030000
;

//---------------lights-cabinet - ----------------
#NOTES:
     lights-cabinet:
     :
     Easy:
     1:
     0.769,1.000,1.000,0.336,0.000:
000000
000000
000000
000000
,
000000
000000
000000
000000
,
101000
010100
101000
010100
,
101000
101000
010100
010100
,
100000
000100
000100
000000
100000
001000
000100
000000
,
100000
000000
100100
010100
000100
000000
101000
000000
,
100100
110000
100100
110000
,
001100
000000
100100
011000
100100
000000
001100
000000
,
101000
110000
001100
010000
,
100100
000000
100000
010000
100000
000000
101000
000000
,
000100
100000
000100
100000
,
222200
333300
000000
000000
101000
000000
000000
000000
101000
000000
000000
000000
010000
000000
000000
000000
,
100100
001100
110000
010100
,
110000
001100
110000
001100
,
100100
000000
010000
111100
000000
111100
000000
111100
,
000000
111100
000000
000000
100100
000000
100100
000000
,
011000
000000
110000
000000
001100
000000
110000
100100
,
000000
000000
100000
011100
100000
011100
100000
000000
,
101100
000000
200000
000000
000000
300000
000000
000000
,
000000
100100
110000
011000
,
100100
110000
001100
101000
,
010100
101000
110000
011000
,
100100
000000
100000
110000
000000
001100
000000
101000
,
000000
010100
000000
000000
101000
000000
100100
000000
,
011000
000000
100000
000000
100100
000000
100000
000100
,
110000
011000
111000
100100
,
110000
101100
000000
111100
,
000000
100000
011000
000100
,
011000
100000
011000
000100
,
011000
100000
011000
000100
,
011000
100000
110000
001100
,
001100
100000
011000
000100
,
011000
100000
011000
000100
,
011000
100000
011000
000100
,
011000
100100
100100
011000
,
022000
133100
100000
100100
,
000100
100100
100000
200200
,
311300
011000
001000
011000
,
010000
011000
001000
022000
,
033000
100100
000100
100100
,
100000
100100
000100
200200
,
311300
101000
010100
110000
,
001100
011000
100100
110000
,
000000
000200
020300
032000
,
103000
200000
300200
002300
,
003100
000200
020300
032000
,
003000
210000
302000
023000
,
030200
102300
023000
032000
,
003100
100200
210300
302000
,
103000
020100
132000
203000
,
300000
000100
001000
011000
,
100100
000000
101000
010100
101000
010100
101000
010100
,
101000
010100
101000
010100
101000
010100
110000
011000
,
001100
000000
010100
101000
010100
101000
011100
011100
,
011100
000000
101000
010100
101000
010100
111100
011000
,
100100
111100
100000
000000
010100
000000
101000
000000
,
110000
001100
110100
100100
,
020000
031000
100100
110000
,
001100
110000
010100
110000
,
100100
000100
100000
000100
,
010000
000100
010000
001000
,
110000
001100
110000
000100
,
002000
000000
003100
000000
000000
000000
110000
001100
,
110000
001100
100100
000000
000100
000000
100000
000000
,
002000
103000
000100
100000
,
110000
100100
110000
100100
,
110000
001000
100100
000000
000000
000000
001100
000000
,
010100
110000
100100
110000
,
001100
010000
100100
000000
000000
000000
110000
000000
,
010100
110100
110000
001100
,
110000
011000
100100
000000
000000
000000
100100
000000
,
110000
000000
001100
110000
110000
000000
100200
001000
,
001300
000000
100100
110000
110000
000000
210000
001100
,
301100
000000
000100
000100
100000
000000
001100
010000
,
011000
000000
010000
100000
110000
000000
111100
000000
,
111100
000000
000100
110000
110000
000000
001000
011000
,
010100
000000
100000
110000
110000
000000
001100
011000
,
010100
000000
100000
010000
100100
000000
000100
100000
,
100100
100100
110000
001100
,
011000
111100
000000
000000
;

//---------------dance-single - M. Puls----------------
#NOTES:
     dance-single:
     M. Puls:
     Beginner:
     1:
     0.084,0.100,0.025,0.000,0.000:
0000
0000
0000
0000
,
0000
0000
0000
0000
,
0000
0000
0000
0000
,
0000
0000
0000
0000
,
1000
0000
0000
0000
,
0000
0000
0000
0000
,
1000
0000
0000
0000
,
0000
0000
0000
0000
,
0001
0000
0000
0000
,
0000
0000
0000
0000
,
0001
0000
0000
0000
,
0000
0000
0000
0000
,
0100
0000
0000
0000
,
0100
0000
0000
0000
,
0010
0000
0000
0000
,
0000
1000
0000
0000
,
0000
0001
0000
0000
,
0000
1000
0000
0000
,
0000
1001
0000
0000
,
0000
0001
0000
0000
,
0000
1000
0000
0000
,
0000
0001
0000
0000
,
0000
0010
0000
0000
,
0000
1000
0000
0000
,
0000
1000
0000
0000
,
0000
0001
0000
0000
,
0000
1001
0000
0000
,
0000
0000
0000
0000
,
0000
0100
0000
0000
,
0000
1000
0000
0000
,
0000
0001
0000
0000
,
0000
0010
0000
0000
,
0000
0001
0000
0000
,
0000
0100
0000
0000
,
0000
0100
0000
0000
,
0000
0010
0000
0000
,
0000
0100
0000
0100
,
0000
0100
0000
0000
,
0000
0010
0000
0010
,
0000
0010
0000
0000
,
0000
0001
0000
0000
,
0000
0100
0000
0000
,
0000
0010
0000
0000
,
0000
1000
0000
0000
,
0000
1000
0000
0000
,
0000
1000
0000
0000
,
0000
0001
0000
0000
,
0000
0100
0000
0000
,
0000
0100
0000
0000
,
0000
0100
0000
0000
,
0000
0001
0000
0000
,
0000
1000
0000
0000
,
0000
0001
0000
0000
,
0000
0010
0000
0001
,
0000
0010
0000
0001
,
0000
1000
0000
0000
,
0000
0000
0000
0000
,
0000
1000
0000
0000
,
0000
0000
0000
0000
,
0000
0001
0000
0000
,
0000
0000
0000
0000
,
0000
0100
0000
0000
,
0000
0000
0000
0000
,
0000
0001
0000
0000
,
0000
1000
0000
0000
,
0000
0001
0000
0000
,
0000
1000
0000
0000
,
0000
0010
0000
0000
,
0000
0100
0000
0000
,
0000
0010
0000
0000
,
0000
1000
0000
0000
,
0000
1000
0000
0000
,
0000
0000
0000
0000
,
0000
0010
0000
0000
,
0000
0000
0000
0000
,
0000
1000
0000
0000
,
0000
0000
0000
0000
,
0000
1000
0000
0000
,
0000
0000
0000
0000
,
0000
1001
0000
0000
;

//---------------dance-double - ----------------
#NOTES:
     dance-double:
     :
     Edit:
     9:
     0.728,1.000,0.370,0.252,0.555: // measure 1
00000000
00000000
00000000
00000000
,  // measure 2
00000000
00000000
00000000
00000000
,  // measure 3
00000000
00000000
00000000
00000000
,  // measure 4
00000000
00000000
00000000
00000000
,  // measure 5
00000000
00000000
00100000
10000000
00000000
00000000
01000000
00100000
00000000
00000000
00001000
01000000
00000000
00000000
00100000
10000000
,  // measure 6
00000000
00000000
01000000
00010000
00000000
00000000
00001000
00000010
00000000
00000000
00000001
00000100
00000000
00000000
00000010
00010000
,  // measure 7
00000000
00000000
00000100
00000010
00000000
00000000
00000001
00000100
00000000
00000000
00001000
00010000
00000000
00000000
00100000
01000000
,  // measure 8
00000000
00000000
00010000
00100000
00000000
00000000
10000000
00100000
00000000
00000000
01000000
00010000
00000000
00000000
00001000
00000010
,  // measure 9
00000000
00000000
00000100
00001000
00000000
00000000
00000010
00000001
00000000
00000000
00000010
00000100
00000000
00000000
00001000
00000100
,  // measure 10
00000000
00000000
00000001
00000010
00000000
00000000
00000100
00010000
00000000
00000000
00001000
00000100
00000000
00000000
00001000
00010000
,  // measure 11
00000000
00000000
00100000
10000000
00000000
00000000
00010000
00100000
00000000
00000000
01000000
10000000
00000000
00000000
00010000
01000000
,  // measure 12
00010000
00000000
10000000
10000000
10000000
00100000
00100000
00100000
,  // measure 13
00010000
00001000
00000100
00000000
00000100
00000001
00000010
00000001
,  // measure 14
00001000
00000000
00001001
00000000
00000001
00000010
00001000
00010000
,  // measure 15
00000000
00011000
00000000
00010000
01000000
00000000
01100000
00000000
,  // measure 16
1MM10000
00000000
10000000
00100000
00010000
00000000
10000000
00100000
,  // measure 17
00010000
00000000
10000000
00100000
00010000
00100000
10000000
01000000
,  // measure 18
01000000
00010000
00001000
00001000
00000100
00000100
00000010
00000000
,  // measure 19
00000010
00002MM2
00000000
00000000
,  // measure 20
00003003
00000000
00000001
00000001
00000001
00000010
00000010
00000010
,  // measure 21
00001000
00010000
00100000
00000000
00100000
10000000
01000000
10000000
,  // measure 22
00010000
00000000
10010000
00000000
10000000
00100000
00010000
00001000
,  // measure 23
00000000
00011000
00000000
00001000
00000010
00000000
00000110
00000000
,  // measure 24
00001MM1
00000000
00000001
00000010
00001000
00000000
00000001
00000010
,  // measure 25
00001000
00000000
00000001
00000010
00001000
00000010
00000001
00000100
,  // measure 26
00000100
00001000
00010000
00010000
00100000
00100000
00000000
00000000
,  // measure 27
01000000
00000000
M21M0000
00000000
00100000
00000000
10000000
10000000
,  // measure 28
03010000
00000000
00010000
00000000
10000000
00000000
00000000
01000000
00010000
00000000
00000000
01000000
00100000
00000000
00000000
00000000
,  // measure 29
00011000
00000000
00000000
00000100
00001000
00000000
00000000
00000100
00000010
00000000
00000000
00000001
00001000
00000000
00000000
00000000
,  // measure 30
00000110
00000000
00000000
00001000
00010000
00000000
00000000
01000000
00010000
00000000
00000000
00001000
00100000
00000000
00000000
00000000
,  // measure 31
00001100
00000000
00000000
00001000
00010000
00000000
00000000
00100000
10000000
00000000
00000000
01000000
00010000
00000000
00000000
00000000
,  // measure 32
00001010
00000000
00000000
00000001
00000100
00000000
00000000
00001000
00010000
00000000
00000000
00001000
00000100
00000000
00000000
00000001
,  // measure 33
00000010
00000000
00000000
00001000
00010000
00000000
00000000
01000000
10000000
00000000
00000000
00100000
00010000
00000000
00000000
00001000
,  // measure 34
00010000
00000000
00000000
00001000
00000100
00000000
00000000
00000010
00001000
00000000
00000000
00000001
00000010
00000000
00000000
00001000
,  // measure 35
00000001
00000000
00000000
00000100
00000010
00000000
00000000
00000001
00000100
00000000
00000000
00000010
00010000
00000000
00000000
00000000
,  // measure 36
00001100
00000000
00000010
00000001
00000010
00002000
00000000
00100000
,  // measure 37
00000000
00010000
00000000
00000100
00000000
00013000
00000000
00100000
,  // measure 38
00000000
10000000
00100000
01000000
00100000
00020000
00000000
00000010
,  // measure 39
00000000
00001000
00000000
01000000
00000000
00031000
00000000
00000010
,  // measure 40
00000001
00000100
00001000
00010000
00100000
02000000
00000000
00001000
,  // measure 41
00000000
00010000
00000000
00100000
00000000
13000000
00000000
01000000
,  // measure 42
00010000
00000000
10000000
00100000
00010000
00002000
00000000
00100000
,  // measure 43
00000000
00000100
00000000
00010000
00000000
00003100
00000000
00000000
,  // measure 44
00000000
00000000
00002MM2
00000000
00000000
00003003
0000M22M
00000000
,  // measure 45
00000000
00000330
00022000
00000000
00000000
00033000
02100000
00000000
,  // measure 46
00M10000
03000000
2MM20000
00000000
00000000
30030000
M22M0000
00000000
,  // measure 47
00000000
03300000
00022000
00000000
00000000
00033000
00000210
00000000
,  // measure 48
000000M1
00000000
00000300
00000000
00000101
00000000
00000001
00000100
00001000
00000000
00000000
00000000
00001100
00000000
00001000
00010000
,  // measure 49
00001000
00000000
00000000
00000000
00011000
00000000
00010000
01000000
10000000
00000000
00000000
00000000
11000000
00000000
01000000
10000000
,  // measure 50
00100000
00000000
00000000
00000000
10100000
00000000
00100000
00010000
00001000
00000000
00000000
00000000
00011000
00000000
00001000
00000100
,  // measure 51
00001000
00000000
00000000
00000000
00001100
00000000
00000100
00000001
00000010
00000000
00000000
00000000
00000011
00000000
00000001
00001000
,  // measure 52
00000001
00000000
00000000
00000000
00000000
00000000
00000000
00000000
00000000
00000000
00000100
00000001
00000000
00000000
00001000
00000010
00000000
00000000
00000100
00000001
00000000
00000000
00000010
00000001
00000000
00000000
00001000
00000100
00000000
00000000
00000010
00000100
,  // measure 53
00000000
00000000
00010000
00000100
00000000
00000000
00010000
00001000
00000000
00000000
00100000
00010000
00000000
00000000
01000000
00001000
00000000
00000000
00010000
00001000
00000000
00000000
00100000
00010000
00000000
00000000
00100000
01000000
00000000
00000000
10000000
01000000
,  // measure 54
00000000
00000000
10000000
00010000
00000000
00000000
01000000
00001000
00000000
00000000
00100000
00001000
00000000
00000000
00010000
00000010
00000000
00000000
00010000
00000100
00000000
00000000
00001000
00000100
00000000
00000000
00000010
00000001
00000000
00000000
00001000
00000001
,  // measure 55
00000000
00000000
00000100
00000001
00000000
00000000
00010000
00000010
00000000
00000000
00001000
00000010
00000000
00000000
00010000
00001000
00000000
00000000
00100000
00010000
00000000
00000000
10000000
00010000
01000000
00000000
00000000
00000000
00100000
00000000
00000000
00000000
,  // measure 56
01000000
00000000
01000000
00000000
00010000
10000000
00010000
10000000
00010000
00000000
00000000
00000000
01000000
00000000
00000000
00000000
00100000
00000000
00000000
00000000
10000000
00000000
00000000
00000000
00100000
00000000
00000000
00000000
01000000
00000000
00000000
00000000
,  // measure 57
00001000
00000000
01000000
00000000
00010000
00000000
10000000
00000000
01000000
00000000
00100000
00000000
00010000
00000000
01000000
00001000
,  // measure 58
00010000
00001000
00000100
00000010
00010000
00000100
00001000
00000100
,  // measure 59
00010000
00000000
00000010
00000000
00000100
00000000
00000001
00000000
00001000
00000000
00000010
00000000
00000100
00000000
00001000
00010000
,  // measure 60
00001000
00000100
00001000
00010000
00100000
00010000
10000000
01000000
,  // measure 61
00010000
00000000
10000000
00000000
00100000
00000000
00010000
00000000
10000000
00000000
01000000
00000000
00010000
00000000
10000000
01000000
,  // measure 62
00010000
00001000
00000010
00000001
00001000
00000100
00000001
00001000
,  // measure 63
00000010
00000001
00000200
00000000
00000000
00000000
00000000
00000010
,  // measure 64
00000010
00000310
00000100
00000001
00000100
00001000
00010000
00001000
,  // measure 65
00000100
00000010
00001000
00000100
00001100
00001000
00000001
00000101
,  // measure 66
00000100
00000101
00000001
00000100
00001000
00010000
00100000
01000000
,  // measure 67
00100000
10000000
01000000
00100000
01100000
01000000
10000000
10100000
,  // measure 68
01000000
01010000
00100000
10000000
01000000
00010000
00001000
00010000
,  // measure 69
01000000
10000000
00100000
00010000
00011000
00001000
00000100
00000101
,  // measure 70
00001000
00001010
00000001
00000100
00001000
00010000
01000000
10000000
,  // measure 71
00100000
00010000
00002000
00000000
00003020
00000000
00000032
00000000
,  // measure 72
00002003
00000000
00003001
00001000
00000110
00000000
00000001
00000100
,  // measure 73
00001000
00000000
00000000
00001000
00010000
00000000
10000000
00000000
01100000
00000000
00000000
00000000
10000000
00000000
01000000
00000000
,  // measure 74
00010000
00000000
00000000
00010000
00001000
00000000
00000001
00000000
00000110
00000000
00000000
00000000
00000001
00000000
00000100
00000000
,  // measure 75
00001000
00000000
00000000
00001000
00010000
00000000
10000000
00000000
01100000
00000000
00000000
00000000
10000000
00000000
01000000
00000000
,  // measure 76
00010000
00000000
00000000
00010000
00002000
00000000
00000010
00000000
00003010
00000000
00000000
00000000
00000001
00000000
00000010
00000000
,  // measure 77
00001000
00000000
00000000
00001000
00020000
00000000
00100000
00000000
00130000
00000000
00000000
00000000
10000000
00000000
00100000
00000000
,  // measure 78
00010000
00000000
00000000
00010000
00002000
00000000
00000010
00000000
00003010
00000000
00000000
00000000
00000001
00000000
00000010
00000000
,  // measure 79
00001000
00000000
00000000
00001000
00020000
00000000
00100000
00000000
00130000
00000000
00000000
00000000
10000000
00000000
00100000
00000000
,  // measure 80
00010000
MMMMMMMM
00000000
00000000
;
