#TITLE:Disconnected;
#SUBTITLE:-Hyper-;
#ARTIST:Inspector K;
#TITLETRANSLIT:;
#SUBTITLETRANSLIT:;
#ARTISTTRANSLIT:;
#CREDIT:;
#BANNER:Disconnected -Hyper--bn.png;
#BACKGROUND:Disconnected -Hyper--bg.png;
#LYRICSPATH:;
#CDTITLE:;
#MUSIC:Disconnected -Hyper-.ogg;
#OFFSET:-0.028;
#SAMPLESTART:68.945;
#SAMPLELENGTH:9.620;
#SELECTABLE:YES;
#BPMS:0.000=195.000;
#STOPS:236.000=0.923
,249.000=0.923
,262.000=0.923
,279.000=2.153
;
#BGCHANGES:;

//---------------dance-single - K. Ward----------------
#NOTES:
     dance-single:
     K. Ward:
     Hard:
     9:
     0.651,0.640,0.264,0.216,0.000:
0000
0000
0000
0000
,
0000
0000
0000
0000
,
0000
0000
0000
0000
,
0000
0000
0000
0000
,
1000
0100
0001
0100
,
1000
1000
0001
0001
,
0100
0000
0010
0000
1000
0100
0000
0100
,
0010
0000
0100
0000
0220
0000
0000
0330
,
1001
0000
0001
1000
0010
1000
0100
0010
,
0002
0000
0013
0000
,
0100
0000
0100
0010
1000
0100
0010
0100
,
2000
0000
3100
0000
,
0010
0100
0001
0000
0010
0100
1000
0000
,
0100
0010
0001
0010
0100
1000
0100
0000
,
1000
0000
0010
0100
0001
0010
0000
0100
,
0010
0001
0010
0100
1000
0000
0100
0000
,
0011
0000
0001
1000
0010
1000
0100
1000
,
0002
0000
0013
0000
,
1001
0000
0100
0010
0100
1000
0100
0010
,
2000
0000
3100
0100
,
0010
0001
0100
0000
0010
1000
0100
0000
,
0010
0001
0010
0001
0100
1000
0100
0000
,
0010
0000
1000
0100
0001
0100
0000
0100
,
1000
0100
0010
0100
1000
0100
0010
0000
,
0011
0100
1100
0010
,
0011
0100
1100
0010
,
0022
0000
0033
2200
,
0000
3300
0000
0010
,
1100
0010
0011
0100
,
1100
0010
0011
0100
,
2002
0000
3003
0220
,
0000
0000
0330
0000
0010
1000
0100
0000
,
0010
0100
0010
0100
0010
0001
1000
0001
,
1000
0010
0100
0001
1000
0100
0010
0000
,
0001
0100
0010
1000
0010
0100
0001
1000
,
0001
0010
0100
1000
0100
0010
0001
0000
,
0010
0100
1000
0000
0100
0001
0100
0000
,
0010
0001
0100
0010
1000
0100
0010
0000
,
0001
1000
0100
1000
0010
0100
0001
0010
,
0100
0010
0100
0000
0100
1000
1000
0000
,
0100
0010
0001
0100
0010
1000
0100
0010
,
0001
1000
0100
0010
0100
0010
0001
0000
,
0001
0010
0100
1000
0010
0100
0001
1000
,
0001
0010
0100
1000
0100
0010
0001
0000
,
1000
0100
1000
0000
0010
0100
0001
0000
,
0010
0100
0010
0100
1000
0100
0010
0000
,
0001
1000
0100
1000
0010
0100
0001
0010
,
0100
1000
0100
0010
0100
0000
1001
0000
,
1000
0010
0100
0001
2000
0000
0000
0000
,
0100
0010
3100
0000
,
0001
0010
0100
1000
0100
0020
0000
0000
,
0100
0001
0100
0031
,
0100
0010
0100
0010
2000
0000
0000
0000
,
0010
0100
3010
0000
,
1000
0010
0100
0001
0010
0200
0000
0000
,
0010
1000
0010
1300
,
0001
1000
0100
0000
0010
0001
0100
0000
,
0010
1000
0010
0100
0001
0010
0001
0000
,
0100
0010
1000
0100
0010
0001
0010
0100
,
1000
0000
0010
0100
0001
0000
0010
0001
,
1000
0000
0100
0010
0001
0010
0100
1000
,
0100
0000
0010
0100
1000
0000
0100
0010
,
0100
0000
1010
0000
0010
0100
1000
0000
,
0100
0010
1000
0000
0100
0010
0001
1000
,
0100
0010
0001
0000
0010
0001
1000
0000
,
0100
0010
0100
0000
0101
0000
0100
0010
,
1000
0001
0100
0010
1000
0001
0010
0100
,
0010
0001
1000
0100
0010
0000
0001
0100
,
0010
0100
0001
0010
0100
1000
0200
0000
,
0010
1000
0310
1001
,
0001
0100
0010
1000
0010
0100
0001
0000
,
0010
0100
1000
0100
0010
0001
0010
0000
,
0100
0010
0001
0100
0010
0100
0001
0010
,
0100
1000
0100
0010
0001
0000
0000
0000
,
1000
0010
0100
0001
0010
0100
1000
0000
,
0100
0010
0001
0100
0010
1000
0100
0000
,
0010
0100
1000
0100
0010
0100
1000
0001
,
1000
0010
0100
0001
0010
0001
0001
0000
,
1000
0100
0010
0100
1000
0010
0100
0001
,
0010
0100
1000
0100
0010
0001
1000
0000
,
1000
0100
0010
0001
0100
0010
1000
0010
,
0100
0001
0100
0010
0100
0001
1000
0000
,
0100
0010
0100
0001
0100
0010
0100
1000
,
0100
0010
0100
1000
0100
0010
0001
0000
,
0010
0001
0100
0010
1000
0100
0010
0001
,
0010
0100
1000
0100
0010
0100
0100
0000
,
1100
0010
0011
0100
,
1100
0010
0011
0100
,
2200
0000
3300
0022
,
0000
0033
0000
0100
,
0011
0100
1100
0010
,
0011
0100
1100
0010
,
0022
0000
0033
2200
,
0000
0000
3300
0000
0010
0100
0010
0000
,
1001
0000
0000
0000
;

//---------------dance-single - K. Ward----------------
#NOTES:
     dance-single:
     K. Ward:
     Easy:
     4:
     0.307,0.489,0.320,0.056,0.000:
0000
0000
0000
0000
,
0000
0000
0000
0000
,
0000
0000
0000
0000
,
0000
0000
0000
0000
,
1000
0000
0001
0000
,
1000
0000
0000
0000
,
0100
0000
0010
0000
,
0100
0000
0000
0000
,
1001
0000
0010
0000
,
0010
0000
0000
0000
,
1001
0000
0100
0000
,
0100
0000
0000
0000
,
1000
1000
1000
0000
,
0000
0000
0000
0000
,
0001
0001
0001
0000
,
0000
0000
0000
0000
,
1001
0000
0100
0010
,
0100
0000
0010
0000
,
1001
0000
0010
0100
,
0010
0000
0100
0000
,
1000
1000
1000
0000
,
0110
0000
1001
0000
,
0001
0001
0001
0000
,
0110
0000
1001
0000
,
0100
0000
0010
0000
,
0100
0000
0010
0000
,
0200
0000
0300
0011
,
0000
0000
0000
0000
,
0001
0000
1000
0000
,
0001
0000
1000
0000
,
0200
0000
0300
1001
,
0000
0000
0000
0000
,
0001
0001
0100
0100
,
0010
0010
1000
1000
,
0100
0100
0010
0010
,
0100
0010
0100
1000
,
1000
0001
0001
1000
,
1000
0001
0001
0100
,
0010
0000
0100
0000
,
0010
0000
0110
0000
,
1001
0001
0100
0100
,
0010
0010
1000
1000
,
0001
0001
1000
1000
,
0100
0010
0100
1000
,
1000
0001
0001
1000
,
1000
0001
0001
1000
,
1001
0000
0110
0000
,
0110
0000
1001
0000
,
0020
0000
0030
0000
,
0100
0100
0100
0000
,
2000
0000
3000
0000
,
0100
0100
0100
0000
,
0002
0000
0003
0000
,
0010
0010
0010
0000
,
1000
0000
0010
0000
,
0100
0010
0100
0000
,
1001
0000
0010
0000
,
1001
0000
0100
0000
,
0010
0100
0001
0000
,
0011
0000
0000
0010
,
0000
1001
0000
0100
,
0000
0010
0100
1000
,
0000
0110
0000
0000
,
1001
0000
0110
0000
,
1001
0000
0010
0100
,
0010
0000
0011
0000
,
0000
0100
0000
1001
,
0000
0010
0000
0100
,
0010
1000
0000
0100
,
0010
1001
0000
0010
,
0000
1000
1000
0001
,
0001
1000
1000
0000
,
0000
0100
0100
0010
,
0010
0100
0010
0000
,
0000
0001
0001
1000
,
1000
0001
0001
0000
,
1000
1001
0001
1001
,
1000
1001
1001
0000
,
1001
0001
0100
0100
,
0010
0010
1000
1000
,
0100
0100
0010
0010
,
0100
0010
0011
0000
,
0100
0100
0010
0010
,
1000
1000
0100
0010
,
1001
0000
0110
0000
,
1001
0000
1001
0000
,
0010
0000
0100
0000
,
0010
0000
0100
0000
,
0020
0000
0030
1001
,
0000
0000
0000
0000
,
0001
0000
1000
0000
,
0001
0000
1000
0000
,
0200
0000
0300
0110
,
0000
0000
0010
0000
,
1001
0000
0000
0000
;

//---------------dance-single - K. Ward----------------
#NOTES:
     dance-single:
     K. Ward:
     Medium:
     6:
     0.405,0.527,0.272,0.088,0.000:
0000
0000
0000
0000
,
0000
0000
0000
0000
,
0000
0000
0000
0000
,
0000
0000
0000
0000
,
1000
0100
0010
0000
,
0001
0100
0010
0000
,
0010
0100
0100
0001
,
0010
0000
0100
0000
0100
0010
0100
0000
,
1001
0100
0100
0010
,
2000
0000
3100
0000
,
1001
0010
0010
0100
,
0002
0000
0013
0000
,
1000
0100
0001
0100
,
1000
0010
0001
0010
,
1000
0100
0001
0100
,
1000
0010
0001
0010
,
1001
0100
0100
0010
,
2000
0000
3100
0000
,
1001
0000
0010
0100
,
0002
0000
0013
0000
,
1001
0100
1001
0010
,
1001
0110
1001
0000
,
1001
0010
1001
0100
,
1001
0110
1001
0000
,
0001
0000
1000
0000
,
0001
0000
1000
0000
,
0200
0000
0000
0310
,
0000
0000
1001
0000
,
0100
0000
0010
0000
,
0100
0000
0010
0000
,
2000
0000
0000
3100
,
0000
0000
0010
0100
,
1001
0000
0010
0000
0100
0001
0010
0000
,
0100
0010
0001
1000
,
1001
0000
0010
0000
0100
0001
0010
0000
,
0001
1000
0100
0010
,
0100
0000
1000
0000
0010
1000
0100
0000
,
0010
0100
0010
0001
,
1001
0000
0100
0000
,
1001
0000
0010
0000
,
1001
0000
0010
0000
0100
0001
0010
0000
,
0100
0010
0100
1000
,
1100
0000
0010
0000
0100
0001
0010
0000
,
0001
0100
0010
1000
,
0100
0000
0010
0000
0100
0010
0001
0000
,
0100
0010
0100
1000
,
0100
0000
0011
0000
,
0010
0000
1001
0000
,
0100
0100
0200
0000
,
0010
0010
0310
0000
,
1000
0100
0020
0000
,
0100
0001
0130
0000
,
0001
0001
0002
0000
,
1000
0100
0013
0000
,
0100
0010
0200
0000
,
0010
1000
0310
1001
,
0000
0100
0000
0010
,
0000
0000
1000
0000
0001
1000
0001
0000
,
0000
0010
0000
0100
,
1001
0000
0100
0000
,
0010
0000
0000
0000
1000
0000
0100
0010
,
0001
0000
0010
0100
,
0010
1001
0000
0100
,
0000
0010
0000
1000
,
0100
0010
0100
0000
0000
0000
0010
0000
,
0000
0100
0011
0000
,
0100
0000
0010
0000
,
1000
0000
0001
1000
0001
0000
0000
0000
,
0010
0100
1000
0100
,
0001
0100
0010
1001
,
0001
0000
0100
0000
0010
1000
0100
0000
,
0010
0000
0100
0000
0010
0100
1000
0000
,
1001
0000
0100
0000
0010
1000
0100
0000
,
0010
0001
0100
0000
0010
1000
0100
0000
,
0010
0000
0001
0000
0100
0001
0010
0000
,
0100
0000
0010
0000
0100
1000
0010
0000
,
0100
0100
0010
0010
,
1000
1000
0001
0001
,
1001
0000
0100
0000
0010
1000
0100
0000
,
0010
0000
0100
0000
0010
0001
0100
0000
,
0011
0000
0100
0000
0010
1000
0100
0000
,
0010
0000
0100
0000
1000
0100
0010
0000
,
0001
0000
0100
0000
0010
1000
0100
0000
,
0010
0100
0010
0001
,
0010
0100
1000
0100
,
0001
0100
1001
0000
,
0010
0000
0100
0000
,
0010
0000
1000
0000
,
0200
0000
0000
0310
,
0000
0000
1001
0000
,
0100
0100
0010
0000
,
0010
0010
0100
0000
,
0001
1000
0001
1000
,
0100
0001
0100
0010
,
1001
0000
0000
0000
;

//---------------dance-single - C. Foy----------------
#NOTES:
     dance-single:
     C. Foy:
     Challenge:
     10:
     0.803,0.943,0.304,0.561,0.401:
0000
0000
0000
0000
,
1000
0000
0010
0000
0100
0001
0000
1000
,
0M1M
M000
0000
0000
0000
0000
0000
0000
0000
0000
0000
0000
0000
0000
0000
0000
0000
0000
0000
0000
0000
0000
0000
0000
,
0000
0000
0000
0000
,
0100
0000
0000
0001
0000
0000
0010
0000
0000
0001
0000
0000
1MM0
000M
0000
0000
0000
0000
0000
0000
0000
0000
0000
0000
,
0010
0100
0001
0010
0000
0001
0000
0100
,
M01M
0M00
0000
0000
0000
0000
0000
0000
0000
0000
0000
0000
0000
0000
0000
0000
0000
0000
0000
0000
0000
0000
0000
0000
,
0000
0000
0000
0000
,
0100
0010
1000
0001
0010
0001
0000
0100
,
0010
0000
1000
0010
0100
0001
0100
0000
,
0010
0000
1000
0000
0100
1000
0000
0010
,
0000
1000
0100
1000
0010
0000
0100
0000
,
0001
0010
0100
1000
0001
0100
0000
0000
,
0010
0000
0000
1000
0010
1000
0100
0000
,
1000
0000
0010
1000
0100
0010
0000
0001
,
0000
0100
0010
0000
1000
0000
0000
0000
,
0001
0100
1000
0100
0001
0100
0000
0000
,
0001
0000
0000
1000
0100
0001
0100
0000
,
1000
0000
0010
1000
0001
0100
0000
0001
,
0000
0100
0010
1000
0100
0000
1000
0000
,
0010
1000
0100
1000
0100
0001
0100
0000
,
1000
0000
0010
1000
0010
0001
0010
0000
,
1000
0000
0010
0100
0010
0100
0000
0001
,
0000
1000
0100
0000
1000
0000
0100
0000
,
2MM2
3003
MM2M
1M3M
,
22MM
3300
MM2M
0031
,
M2M2
0000
0303
0000
MM1M
0000
0200
0320
,
1030
0000
0001
1000
0001
0000
0000
0000
M2MM
0000
0000
0000
M02M
0300
0000
0000
,
2M0M
0030
0000
0000
3000
0000
0000
0000
MMM2
0000
0000
0000
1MM3
0000
0000
0000
,
2M2M
0000
0000
0000
3030
0000
0000
0000
M2MM
0000
0000
0000
M0M2
0300
0000
0000
,
2MM0
0003
0000
0000
3000
0000
0000
0000
MM1M
0000
0000
0000
2000
0000
0020
3000
,
1000
0030
0001
1000
0001
0000
0000
0000
0100
0000
0000
0000
0010
0000
0000
0000
,
1000
0100
1000
0000
0001
0100
0001
0000
1000
0010
1000
0000
0010
0000
0100
0000
,
0001
0000
1000
0010
1000
0100
0010
0001
,
1000
0010
1000
0000
0001
0010
0001
0000
0100
0010
0100
0000
0010
0000
1000
0000
,
0100
0000
1000
0010
0100
0001
0100
0010
,
1000
0001
0100
0000
0001
1000
0100
0000
1000
0010
0100
0000
0010
0000
1000
0000
,
0100
0000
1000
0010
0100
0001
0100
0010
,
1000
0100
0010
0001
0100
0010
0100
0000
,
0100
0000
0001
1000
0010
0000
0100
0001
1000
0000
0100
1000
0001
0000
0000
0000
,
1000
0001
0100
0000
0010
1000
0001
0000
0010
0001
1000
0000
0010
0000
1000
0000
,
0100
0000
1000
0010
0001
0010
1000
0010
,
1000
0001
1000
0000
0010
1000
0010
0000
0100
0010
0100
0000
0001
0000
0000
0000
,
0001
0000
0010
0001
1000
0010
0100
0010
,
0100
0010
1000
0000
0100
0010
0001
0000
0100
0010
1000
0000
0100
0000
0000
0000
,
0100
0000
1000
0010
0001
0010
1000
0010
,
0001
0000
0010
0000
1000
0100
0000
0100
,
1000
0000
0000
0000
1000
0010
1000
0000
0100
1000
0100
0000
0010
0000
0000
0000
,
0001
0100
1000
0100
0001
0000
0000
0000
,
2M2M
3030
M22M
0330
M2M2
0303
0000
1000
,
0010
0000
0000
0000
0000
0000
0000
0000
0000
0000
0000
0000
0000
0000
0000
0000
0000
0000
0000
0000
0000
0000
0000
0000
0000
0000
0000
0000
0000
0000
0000
0000
0100
0000
0000
0000
0000
0000
0000
0000
0000
0000
0000
0000
0000
0000
0000
0000
0000
0000
0000
0000
0000
0000
0000
0000
0000
0000
0000
0000
0000
0000
0000
0000
0001
0000
0000
0000
0000
0000
0000
0000
0000
0000
0000
0000
0000
0000
0000
0000
0000
0000
0000
0000
0000
0000
0000
0000
0010
0000
0000
0000
0000
0000
0000
0000
0000
0000
0000
0000
0000
0000
0000
0000
0000
0000
0000
0000
0000
0000
0000
0000
0000
0000
0100
0000
0000
0000
0000
0000
0000
0000
0000
0000
0000
0000
0000
0000
0000
0000
0000
0000
0000
0000
0000
0000
0000
0000
0000
0000
0000
0000
0000
0000
0000
0000
0000
0000
0000
0000
0000
0000
0000
0000
0000
0000
0000
0000
0000
0000
0000
0000
0000
0000
0000
0000
0000
0000
0000
0000
0000
0000
0000
0000
0000
0000
0000
0000
0000
0000
0000
0000
0000
0000
0000
0000
0000
0000
0000
0000
0000
0000
,
2M2M
0000
0000
0000
0000
0000
0000
0000
0000
0000
0000
0000
0000
0000
0000
0000
0000
0000
0000
0000
0000
0000
0000
0000
3030
0000
0000
0000
0000
0000
0000
0000
0000
0000
0000
0000
0000
0000
0000
0000
0000
0000
0000
0000
0000
0000
0000
0000
M22M
0000
0000
0000
0000
0000
0000
0000
0000
0000
0000
0000
0000
0000
0000
0000
0000
0000
0000
0000
0000
0000
0000
0000
0330
0000
0000
0000
0000
0000
0000
0000
0000
0000
0000
0000
0000
0000
0000
0000
0000
0000
0000
0000
0000
0000
0000
0000
M2M2
0000
0000
0000
0000
0000
0000
0000
0000
0000
0000
0000
0000
0000
0303
0000
0000
0000
0000
0000
0000
0000
0000
0000
0000
0000
0000
0000
0000
0000
0000
0000
0000
0000
0000
0000
0010
0000
0000
0000
0000
0000
0000
0000
0000
0000
0000
0000
0000
0000
0000
0000
0000
0000
0000
0000
0000
0000
0000
0000
0000
0000
0000
0000
0000
0000
0000
0000
0000
0000
0000
0000
1000
0000
0000
0000
0000
0000
0000
0000
0000
0000
0000
0000
0000
0000
0000
0000
0000
0000
0000
0000
0000
0000
0000
0000
,
0100
0001
0100
1000
0010
0000
0000
0000
,
2MM2
0000
3003
0000
2M2M
0000
3030
0000
MM2M
0000
1030
0001
0100
0010
1000
0000
,
0100
0000
0000
0000
0000
0000
0000
0000
0000
0000
0000
0000
0000
0000
0000
0000
0000
0000
0000
0000
0000
0000
0000
0000
0000
0000
0000
0000
0000
0000
0000
0000
0010
0000
0000
0000
0000
0000
0000
0000
0000
0000
0000
0000
0000
0000
0000
0000
0000
0000
0000
0000
0000
0000
0000
0000
0000
0000
0000
0000
0000
0000
0000
0000
0001
0000
0000
0000
0000
0000
0000
0000
0000
0000
0000
0000
0000
0000
0000
0000
0000
0000
0000
0000
0000
0000
0000
0000
0100
0000
0000
0000
0000
0000
0000
0000
0000
0000
0000
0000
0000
0000
0000
0000
0000
0000
0000
0000
0000
0000
0000
0000
0000
0000
0010
0000
0000
0000
0000
0000
0000
0000
0000
0000
0000
0000
0000
0000
0000
0000
0000
0000
0000
0000
0000
0000
0000
0000
0000
0000
0000
0000
0000
0000
0000
0000
0000
0000
0000
0000
0000
0000
0000
0000
0000
0000
0000
0000
0000
0000
0000
0000
0000
0000
0000
0000
0000
0000
0000
0000
0000
0000
0000
0000
0000
0000
0000
0000
0000
0000
0000
0000
0000
0000
0000
0000
0000
0000
0000
0000
0000
0000
,
22MM
3300
2M2M
3030
M2M2
0303
0000
0000
,
0010
0000
0010
0000
0010
0000
1000
0100
,
0010
0001
0100
0000
,
0010
0010
0010
1000
,
M1MM
0M00
0000
0000
0000
0000
0000
0000
1000
0000
0000
0000
0000
0000
0000
0000
1000
0000
0000
0000
0000
0000
0000
0000
1000
0000
0000
0000
0000
0000
0000
0000
,
0010
1000
0100
0000
1MM1
0000
M1M1
0000
,
1M1M
M11M
1MM1
1M1M
,
0001
0000
0010
0000
0100
0000
1000
0000
0002
0003
0000
0000
0000
0000
0000
0000
0001
0000
0000
0000
0000
0000
0000
0000
0100
0000
0000
0000
0000
0000
0000
0000
,
0010
0000
1000
1000
1000
1000
1000
0000
,
1M1M
M1M1
M11M
M1M1
,
1MM1
0000
0000
0000
0000
0000
0000
0000
0001
0000
0000
0000
0010
0000
0000
0000
0200
0300
0000
0000
0000
0000
0000
0000
1000
0000
0000
0000
0000
0000
0000
0000
,
1000
0000
1000
0000
0001
0001
0001
0001
,
0001
1M1M
1MM1
M11M
,
1M1M
0000
0000
0000
1000
0000
0010
0000
1000
0100
0010
0001
1000
0000
0010
0000
,
0100
0000
0000
0000
0000
0000
0000
0000
1001
0000
0000
0000
0000
0000
0000
0000
0110
0000
0000
0000
0000
0000
0000
0000
1MM2
M003
0000
0000
0000
0000
0000
0000
,
1000
0000
0001
0010
0001
0000
0100
0010
1000
0000
0100
1000
0001
0000
0010
0001
,
0010
0100
1000
0000
0010
1000
0010
0000
1000
0100
0010
0000
0001
0000
0010
0001
,
1000
0000
0100
1000
0010
0000
1000
0100
0010
0000
0001
0000
1000
0000
1000
0000
,
0001
0100
0010
1000
0010
0100
0001
1000
0010
0000
1000
0100
0010
0000
0000
0000
,
0001
0000
1000
0001
1000
0000
0010
1000
0010
0000
0100
0001
0100
0000
0001
0100
,
0010
0100
0001
0000
1000
0100
1000
0000
0010
1000
0001
0000
1000
0000
0001
0010
,
0100
0000
1000
0100
0010
0000
0001
0100
0001
0000
1000
0000
0010
0000
1000
0000
,
0001
0010
0100
1000
0001
0100
0010
1000
0001
0000
0100
0000
0010
0000
0000
0000
,
0010
0000
0100
0010
1000
0000
0001
0010
0100
0000
1000
0100
0010
0000
0001
0100
,
0010
0100
0010
0000
0100
0001
0100
0000
0010
1000
0010
0000
0100
0000
0010
0100
,
0001
0000
1000
0100
0010
0000
0001
0010
0001
0000
1000
0000
0100
0000
0010
0000
,
0001
1000
0010
0100
0001
1000
0100
0010
0001
0000
0100
0000
0010
0000
0000
0000
,
0010
0000
0100
0010
0100
0000
0001
1000
0001
0000
0010
0100
0010
0000
0001
0100
,
0010
1000
0001
0000
1000
0010
0100
0000
0001
0100
0010
0000
0100
0000
0001
1000
,
0010
0000
1000
0001
1000
0000
0001
1000
0001
0000
1000
0000
0100
0000
0001
0000
,
0100
1000
0010
0001
0010
1000
0100
0000
,
2MM2
3003
M2MM
M3M1
,
MM22
0033
M2MM
1300
,
2M2M
0000
3030
0000
M1MM
0000
0020
0230
,
0301
0000
1000
0001
1000
0000
0000
0000
MM2M
0000
0000
0000
M20M
0030
0000
0000
,
M0M2
0300
0000
0000
0003
0000
0000
0000
2MMM
0000
0000
0000
3MM1
0000
0000
0000
,
M2M2
0000
0000
0000
0303
0000
0000
0000
MM2M
0000
0000
0000
2M0M
0030
0000
0000
,
0MM2
3000
0000
0000
0003
0000
0000
0000
M1MM
0000
0000
0000
0002
0000
0200
0003
,
0001
0300
1000
0001
1000
0000
0000
0000
M1MM
0000
0000
0000
MM1M
0000
0000
0000
,
M2M2
0303
0000
0000
0000
0000
0000
0000
;

//---------------dance-double - M. Emirzian----------------
#NOTES:
     dance-double:
     M. Emirzian:
     Easy:
     5:
     0.386,0.495,0.377,0.040,0.000:
00000000
00000000
00000000
00000000
,
00000000
00000000
00000000
00000000
,
00000000
00000000
00000000
00000000
,
00000000
00000000
00000000
00000000
,
10000000
01000000
00100000
00100000
,
01000000
10000000
00100000
00100000
,
01000000
00001000
00010000
00010000
,
00011000
00010100
00011000
00010000
,
00000100
00000000
00001000
00000000
,
00000010
00000010
00000100
00000001
,
00001001
00000000
00000100
00000000
,
00010000
00001000
00001000
00100000
,
00110000
00000000
01000000
00000000
,
00100000
10000000
10000000
01000000
,
01100000
00000000
00100000
00000000
,
00001000
00001000
00010000
00000000
,
00011000
00010010
00011000
00000000
,
00011000
00101000
00011000
00000000
,
00010000
00000100
00000100
00001000
,
00000010
00000010
00000100
00000000
,
00000001
00000001
00000000
00000000
,
00000100
00000100
00000000
00000000
,
00001000
00001000
00000000
00000000
,
00010000
00010000
00000000
00000000
,
00011000
00000000
00101000
00000000
,
00110000
00000000
10010000
00000000
,
01000000
01000000
00100000
01000000
,
00000000
10000000
00010000
00000000
,
10010000
00000000
01010000
00000000
,
01001000
00000000
00011000
00000000
,
00010100
00000000
00010000
00001100
,
00000000
00000010
00000010
00000000
,
00000001
00000100
00000010
00000100
,
00000001
00000100
00000010
00010000
,
00001000
00100000
00001000
00010000
,
00000010
00010000
00001000
01000000
,
00010000
00100000
01000000
00100000
,
00010000
00100000
01000000
00100000
,
00010000
00010000
01000000
01000000
,
00100000
00100000
10010000
00000000
,
10000000
00010000
01000000
00010000
,
10000000
00010000
01000000
00010000
,
10000000
01000000
00100000
00001000
,
00010000
00000100
00010000
00001000
,
01000000
00001000
00010000
00000100
,
00000010
00000010
00000001
00000001
,
00000200
00000000
00000300
00000000
00000000
00000000
00000020
00000000
00000030
00000000
00000000
00000000
,
00000200
00000000
00000300
00000000
00000000
00000000
00001000
00000000
00000000
00000000
00000000
00000000
,
00010000
00000000
00010000
00000000
,
00100000
00000000
00100000
10000000
,
10000000
00000000
10000000
00000000
,
01000000
00000000
01000000
01000000
,
00010000
00000000
00010000
00000000
,
00001000
00000000
00001000
00000000
,
00010000
00000000
00010000
00001000
,
00000010
00000001
00000100
00000000
,
00000001
00000001
00000010
00000010
,
00000100
00000100
00010000
00011000
,
00001000
00001000
01000000
01000000
,
00010000
10000000
10000000
01000000
,
01000000
00100000
00100000
00010000
,
00101000
00001000
00001000
00010000
,
00010000
00011000
00010000
00010000
,
00000100
00000100
00001000
00001000
,
00000010
00000010
00000100
00000100
,
00000001
00000001
00001001
00000100
,
00000100
00000010
00000010
00010000
,
00010000
00001000
00001000
01000000
,
01000000
00010000
00010000
10000000
,
01000000
00110000
10010000
11000000
,
10000000
01000000
00100000
01000000
,
10000000
01000000
00100000
01000000
,
10000000
01000000
00100000
00001000
,
00011000
00010010
00011000
00000000
,
01000000
00001000
00010000
00000100
,
00010000
00001000
00010000
00000100
,
00001000
00000010
00000100
00000010
,
00001010
00001001
00000101
00000000
,
00000010
00000000
00000010
00000000
,
00001000
00000000
00001000
00000000
,
00000100
00000000
00000100
00000000
,
00010000
00000000
00010000
00000000
,
00001000
00000000
00001000
00000000
,
01000000
00000000
01000000
00000000
,
00100000
00000000
00100000
00100000
,
10000000
01000000
00100000
00000000
,
01010000
00000000
01001000
00000000
,
00011000
00000000
00010010
00000000
,
00001010
00001000
00000100
00000100
,
00000000
00000010
00000010
00000001
,
00000101
00000000
00001001
00000000
,
00001010
00000000
00010010
00000000
,
00011000
00001000
00001000
01000000
,
00000000
00010000
00010000
10000000
,
20020000
00000000
00000000
00000000
,
30030000
00000000
00000000
00000000
;

//---------------dance-double - M. Emirzian----------------
#NOTES:
     dance-double:
     M. Emirzian:
     Medium:
     7:
     0.453,0.495,0.513,0.016,0.000:
00000000
00000000
00000000
00000000
,
00000000
00000000
00000000
00000000
,
00000000
00000000
00000000
00000000
,
00000000
00000000
00000000
00000000
,
00001000
00001000
00010000
00010000
,
00010100
00011000
00101000
00011000
,
00000100
00000100
00000010
00000010
,
00001001
00000011
00000101
00000110
,
00010000
00000000
00000100
00000000
00010000
00000000
00001000
00100000
,
00010000
01000000
01000000
00000000
,
00010000
00000000
01000000
00000000
00100000
00000000
01000000
00001000
,
00010000
00010100
00011000
00000000
,
00010000
00000000
00000100
00000000
00001000
00000000
00000010
00000100
,
00000001
00000100
00000100
00000000
,
00000010
00000000
00010000
00000000
00001000
00000000
01000000
00010000
,
10000000
11000000
01100000
00000000
,
00010000
00000000
01000000
00100000
,
00000000
00010000
00001000
00000000
,
00010000
00000100
00000000
00001000
,
00000010
00001001
00000101
00000000
,
00000010
00000000
00000001
00000100
,
00000000
00000010
00001000
00000000
,
00000100
00010000
00000000
00001000
,
01000000
01010000
10010000
00000000
,
10010000
00000000
01100000
00000000
,
10010000
00000000
00011000
00000000
,
00001001
00000100
00000100
00000100
,
00000000
00000000
00000010
00001000
00000001
00000000
00000100
00000000
,
00001001
00000000
00000110
00000000
,
00001001
00000000
00011000
00000000
,
10010000
00100000
00100000
00100000
,
00000000
10000000
10000000
00000000
,
00010000
00000000
01000000
00000000
00010000
00000000
00100000
00001000
,
00010000
00000100
00000100
00001000
,
00000010
00000000
00000100
00000000
00000100
00000000
00000001
00001000
,
00000100
00000010
00000010
00000001
,
00000100
00000000
00000010
00000000
00010000
00000000
00001000
01000000
,
00010000
00100000
00100000
01000000
,
10000000
00000000
00100000
00000000
01000000
00000000
00010000
00100000
,
00001000
00011000
00010100
00000000
,
00001000
00000000
00000010
00000000
00000100
00000000
00000001
00000100
,
00000010
00001000
00000100
00000010
,
00000001
00000000
00000100
00000000
00000010
00000000
00010000
00001000
,
01000000
00010000
00100000
00100000
,
01000000
00000000
10000000
00000000
00010000
00000000
00100000
01000000
,
10000000
00010000
00100000
00001000
,
00011000
00000000
00000110
00000000
,
00011000
00000000
00101000
00000000
,
00011000
00000000
00010000
00000000
,
00010100
00000000
00010000
00000000
,
00000110
00000000
00000100
00000000
,
00001001
00000000
00000001
00000000
,
00010100
00000000
00010000
00000000
,
00001100
00000000
00001000
00000000
,
00010010
00000000
00010000
00001000
,
00010000
00001000
01000000
00000000
,
00100000
10000000
01000000
01000000
,
00100000
00000000
00010000
00000000
01000000
00001000
00010000
00000000
,
00000100
00000000
00000100
00000000
00001000
00000001
00000100
00000000
,
00000110
00000001
00000001
00000100
,
00000010
00000000
00010000
00000000
00001000
00000000
01000000
00001000
,
00010000
00000000
00001000
00000000
01000000
00000000
00100000
10000000
,
01000000
00110000
01000000
01000000
,
00001000
00010000
00000100
00000010
,
00000001
00000100
00000010
00000000
00001000
00000000
00000100
00000000
,
00010000
00001000
00100000
00000000
01100000
00000000
10000000
00000000
,
10000000
00000000
00100000
00000000
01000000
00000000
00001000
01000000
,
00010000
00100000
00001000
00010000
,
00000100
00000000
00000010
00000001
00000100
00000000
00000010
00000000
,
00000000
00001001
00011000
00101000
,
00010000
00000000
00010000
00000000
00100000
01000000
10000000
00000000
,
01000000
00100000
00010000
01000000
,
00001000
00000000
00010000
00000000
00000100
00010000
00001000
00000000
,
00010000
00010010
00001010
00000000
,
00000100
00000100
00000001
00000010
,
00000100
00001000
00000010
00000000
00000100
00000000
00000001
00000000
,
00001000
00000000
00000100
00000000
00010000
00001000
00100000
00000000
,
00010000
01010000
10100000
00000000
,
10000000
10000000
00100000
01000000
,
00001000
00000000
00010000
00000000
00000100
00001000
00000010
00000000
,
00000100
00000001
00000010
00000100
,
00001000
00010100
00001100
00000000
,
00000010
00000010
00000100
00000001
,
00000010
00000000
00000100
00000000
00010000
00001000
01000000
00000000
,
00010000
00010000
00100000
01000000
,
10000000
01010000
01001000
00000000
,
10010000
00000000
01100000
00000000
,
10010000
00000000
00011000
00000000
,
00001001
00000010
00000010
00000010
,
00000000
00000000
00000010
00000001
00000100
00000000
00000010
00000000
,
00001001
00000000
00000110
00000000
,
00001001
00000000
00011000
00000000
,
10010000
00100000
00100000
00100000
,
10000000
01000000
00010000
00001000
,
00002002
00000000
00000000
00000000
,
00003003
00000000
00000000
00000000
;

//---------------dance-double - M. Emirzian----------------
#NOTES:
     dance-double:
     M. Emirzian:
     Hard:
     9:
     0.677,0.723,0.745,0.064,0.000:
00000000
00000000
00000000
00000000
,
00000000
00000000
00000000
00000000
,
00000000
00000000
00000000
00000000
,
00000000
00000000
00000000
00000000
,
10000000
00100000
01000000
00000000
10010000
00000000
00100000
00000000
,
10000000
00010000
00100000
00000000
00101000
00000000
00001000
00010000
,
00000010
00010100
00001010
00001001
,
00000100
00000001
00000100
00001000
00000100
00000001
00000100
00000010
,
00001000
00000100
00000011
00001001
,
00000100
00000010
00010000
00001000
01000000
00000000
01010000
00000000
,
10000000
00000000
00100000
00000000
01000000
00001000
00100000
00010000
,
00000000
10010000
00000000
00000000
00100000
00010000
01000000
00000000
,
00100000
10000000
01000000
00000000
10010000
00000000
00101000
00000000
,
00010000
00001000
00100000
00001000
00010000
00000100
00001000
00000000
,
00001010
00000000
00000100
00000001
00000100
00001000
00000010
00000100
,
00000000
00001010
00000000
00000000
00000101
00000010
00001000
00000000
,
00000100
00010000
00001000
00000000
00010100
00000000
00011000
00000000
,
00100000
00010000
01000000
00000000
00001000
00010000
00100000
10000000
,
00010000
01000000
01000000
00000000
00100000
10000000
01000000
00100000
,
00001000
00010000
00010000
00000000
00001000
00010000
00010100
00000000
,
00001001
00000000
00000100
00000000
00000010
00001000
00000100
00000000
,
00000011
00000000
00001100
00000000
00000010
00010000
00001000
00000000
,
00010000
00001000
01000000
00000000
00010000
01000000
00100000
10000000
,
00000000
01000000
00010000
01000000
10000000
01000000
00010000
00001000
,
00100000
00001000
00010100
00001000
,
00001001
00000100
00001010
00010000
,
00010100
00000000
00001000
00100000
00001000
00010000
01000000
00000000
,
10000000
00100000
01000000
00000000
01100000
00000000
10010000
00000000
,
00100000
01001000
00010000
00101000
,
00001000
00010100
00001000
00001010
,
00000100
00000000
00001001
00000000
00000100
00010000
00000100
00001000
,
00000010
00000100
00000001
00000000
00001001
00000000
00000100
00000000
,
00000100
00000000
00001000
00010000
00000100
00000000
00010000
00001000
,
00100000
00000000
00001000
00010000
00000010
00010000
00001000
00000000
,
01001000
00000000
00001000
00010000
00000100
00010000
00001000
00000000
,
00010000
00001000
01000000
00000000
00110000
00000000
00001000
00000000
,
00010000
00000000
00000100
00010000
00001000
01000000
00001000
00000000
,
00010100
00000000
00000010
00010000
00001000
00100000
00010000
00000000
,
00100000
00000000
00001000
00010000
00000100
00010000
00001000
01000000
,
00100000
00000000
10010000
00000000
01100000
00000000
00100000
00010000
,
10000000
00000000
00110000
00000000
01000000
00000000
00100000
01000000
,
00001000
00000000
00100000
01000000
10000000
00010000
01000000
00000000
,
00101000
00011000
00010010
00001100
,
00000010
00000001
00000100
00000000
00001010
00000000
00001001
00000000
,
00000100
00000000
00000011
00000000
00000100
00010000
00001000
00000000
,
01000000
00100000
10000000
00000000
01000000
00100000
00010000
10000000
,
20020000
00000000
30030000
00000000
00000000
00000000
02200000
00000000
03300000
00000000
00000000
00000000
,
20020000
00000000
00000000
00000000
30030000
00000000
00000000
00000000
00000000
00000000
00000000
00000000
00100000
00000000
00000000
10000000
00000000
00000000
01000000
00000000
00000000
00000000
00000000
00000000
,
00101000
00011000
00010000
00001000
,
00010010
000M00M0
00010000
00000110
,
00001000
00000010
00000101
00000001
,
00001001
00000100
00000101
00000010
,
00001000
00000100
00010000
00001000
,
00100000
00010000
10000000
00000000
01010000
00000000
0M0M0000
00000000
,
00100000
10000000
01010000
00100000
,
00001000
00000000
00010010
00000000
00000010
00001000
00000100
00000010
,
00000001
00000000
00000100
00000000
00001001
00000000
00000010
00000100
,
00001000
00000000
00000010
00000000
00000100
00000001
00000010
00000000
,
00000100
00000000
00011000
00000000
00001000
00100000
01000000
10000000
,
01000000
00000000
00000001
00000000
00000010
00000000
00000100
00001000
,
00000010
00000100
00000001
00000000
00001001
00000000
00000110
00000000
,
00000010
00000000
00011000
00000000
00001000
00000000
01000000
00010000
,
00100000
01000000
10000000
00000000
00000001
00000000
00000100
00000000
,
00000010
00001000
00000100
00000000
00000010
00000000
00001001
00000000
,
00000010
00001100
00000010
00010000
,
00001000
01000000
00100000
10000000
01000000
00000000
00000001
00000000
,
00000100
00000000
00000010
00001000
00000100
00000010
00000001
00000000
,
00000100
00000010
00010000
00001000
01000000
00000000
00100000
10000000
,
01000000
00110000
11000000
10000000
,
000MM000
00011000
00010010
00001001
,
00000001
00001000
00000010
00000000
00010010
00000000
00011000
00000000
,
01000000
10000000
01000000
00010000
01000000
10000000
01000000
00000000
,
10100000
00000000
01000000
00000000
00001000
00100000
00010000
00000000
,
00101000
00000000
00000100
00001000
00000010
00000000
00000101
00000000
,
00000100
00000001
00001000
00000000
00001010
00000000
00000101
00000000
,
00000010
00000100
00001000
00000001
00000100
00001000
00000100
00000001
,
00000010
00000000
00000100
00000010
00001000
00010000
00100000
00000000
,
01001000
00000000
00110000
00000000
01000000
00100000
10000000
01000000
,
00100000
00010000
01000000
00000000
10100000
00000000
01010000
00000000
,
01000000
00001000
00010000
00000000
00001000
00100000
00001000
00010000
,
00000100
00000010
00000010
00000000
00000100
00001000
00000100
00000001
,
00000100
00001000
00001000
00000000
00001010
00000000
00010010
00000000
,
00011000
00000000
00010100
00000000
00010000
00001000
01000000
00000000
,
00110000
00000000
01100000
00000000
10000000
00100000
00010000
00100000
,
10000000
01000000
00100000
00000000
00001000
00010000
00000100
00000000
,
00010000
00001000
01000000
00010000
01000000
10000000
01000000
00000000
,
00010000
00101000
00010000
00010010
,
00001000
00000000
00000100
00000010
00000001
00000000
00000101
00000000
,
00000010
00001000
00000100
00000010
00000001
00000100
00000010
00000000
,
00010000
00001000
01000000
00100000
10000000
01000000
00100000
00010000
,
00110000
00000000
01000000
10000000
00100000
00000000
01000000
00010000
,
00100000
10000000
00100000
00010000
00100000
10000000
00100000
00000000
,
10010000
10000000
00010000
00100000
00001000
00010000
00000010
00000100
,
00000010
00010000
00000100
00000010
00000001
00000100
00000010
00001000
,
00002002
00000000
00000000
00000000
,
00003003
00000000
00000000
00000000
;

//---------------dance-double - M. Emirzian----------------
#NOTES:
     dance-double:
     M. Emirzian:
     Challenge:
     11:
     0.786,0.761,0.649,0.056,0.008:
00000000
00000000
00000000
00000000
,
00000000
00000000
00000000
00000000
,
00000000
00000000
00000000
00000000
,
00000000
00000000
00000000
00000000
,
10010000
10000000
00100000
01000000
00001000
00010000
00000100
00000000
,
00010010
00010000
00001000
00000100
00000010
00000001
00000010
00001000
,
00000100
00000010
00001000
00010000
00001000
00010000
00100000
01000000
,
00010000
10000000
01000000
00100000
00010000
10000000
10010000
10010000
,
01010000
00000000
00100000
01000000
10000000
01000000
00010000
00100000
,
00001000
00010000
00010100
00010000
00000100
00001000
00000010
00000000
,
00000101
00000001
00001001
00001000
00000100
00010000
00001000
00000100
,
00000000
00001000
00010000
00100000
10000000
00010000
01000000
00100000
,
10000000
01000000
00010000
01000000
10000000
00100000
01000000
00010000
,
01010000
01000000
00001000
00010000
00000010
00001000
00000100
00000010
,
00000001
00000000
00000011
00000001
00000100
00000010
00001000
00000100
,
00010100
00010000
00001000
01000000
00100000
00010000
00001000
01000000
,
01010000
00000000
00100000
10000000
01000000
00010000
01000000
10000000
,
00010000
00100000
00110000
00100000
01000000
00100000
00001000
00000000
,
00011000
00010000
00010010
00010000
00001000
00000010
00000100
00000010
,
00000000
00000001
00000100
00001000
00010000
00001000
01000000
00100000
,
10000000
01000000
00010000
00001000
01000000
00010000
00100000
00001000
,
00101000
00000000
00011000
00000000
00010000
00000010
00000100
00000001
,
00000100
00001000
00010000
00000100
00001000
00000010
00000100
00000001
,
00000010
00001000
00010000
00100000
00010000
00001000
01000000
00100000
,
10000000
10100000
11000000
00110000
,
01001000
00110000
00001100
00010010
,
00000100
00000010
00001000
00010000
00001000
00000010
00000100
00001000
,
00000010
00000100
00000001
00001000
00000101
00000001
00001001
00001000
,
00001010
00000101
00001100
00010100
,
00101000
01010000
10100000
01100000
,
01001000
00000000
00010000
00100000
00010000
00001000
00000010
00001000
,
00010000
01000000
10000000
00010000
10010000
00000000
10000000
00000000
,
10000000
01000000
10000000
01000000
00010000
01000000
00010000
00001000
,
00000100
00000001
00000100
00000001
00000010
00001000
00010000
00100000
,
10000000
01000000
00010000
00001000
01000000
00100000
10000000
01000000
,
00010000
01000000
00100000
00001000
01000000
00001000
00010000
00000000
,
00001000
00000010
00000001
00000010
00000001
00000100
00001000
00000100
,
00001000
00010000
01000000
10000000
01000000
10000000
00100000
00010000
,
00100000
00010000
00001000
00000010
00000100
00001000
00000010
00000100
,
00000001
00000010
00000100
00010000
00001000
00000000
00101000
00000000
,
00010000
01000000
10000000
01000000
00100000
10000000
00100000
00010000
,
10000000
01000000
00010000
00001000
00100000
00001000
00010000
00000100
,
00000010
00000001
00000010
00000001
00000100
00001000
00000100
00001000
,
00010000
01000000
10000000
01000000
10000000
00010000
01000000
00000000
,
00100000
00010000
00001000
01000000
00001000
00010000
00001000
00000010
,
00000001
00000010
00000100
00001000
00000010
00010000
00001000
00010000
,
00200000
00000000
00000000
00000000
00000000
00000000
00000000
00000000
00000000
00000000
00000000
00000000
00000000
00000000
00000000
00000000
00000000
00000000
00000000
00000000
00000000
00000000
00000000
00000000
00000000
00000000
00000000
00000000
00000000
00000000
00000000
00000000
00300000
00000000
00000000
00000000
00000000
00000000
00000000
00000000
00000000
00000000
00000000
00000000
00000000
00000000
00000000
00000000
00000000
00000000
00000000
00000000
00000000
00000000
00M00000
00000000
00000000
00000000
00000000
00000000
00000000
00000000
00000000
00000000
00000000
00000000
00000000
00000000
00000000
00000000
00000000
00000000
00000000
00000000
00000000
00000000
00000000
00000000
00000000
00000000
00000000
00000000
00000000
00000000
00000000
00000000
00000000
00000000
00000000
00000000
00000000
00000000
00000000
00000000
00000000
00000000
20020000
00000000
00000000
00000000
00000000
00000000
00000000
00000000
00000000
00000000
00000000
00000000
00000000
00000000
00000000
00000000
00000000
00000000
00000000
00000000
00000000
00000000
00000000
00000000
00000000
00000000
00000000
00000000
00000000
00000000
00000000
00000000
30030000
00000000
00000000
00000000
00000000
00000000
00000000
00000000
00000000
00000000
00000000
00000000
00000000
00000000
00000000
00000000
00000000
00000000
00000000
00000000
00000000
00000000
M00M0000
00000000
00000000
00000000
00000000
00000000
00000000
00000000
00000000
00000000
00000000
00000000
00000000
00000000
00000000
00000000
00000000
00000000
00000000
00000000
00000000
00000000
00000000
00000000
00000000
00000000
00000000
00000000
00000000
00000000
00000000
00000000
00000000
00000000
00000000
00000000
00000000
00000000
00000000
00000000
00000000
00000000
,
20200000
00000000
30300000
10010000
00000000
00000000
00100000
00000000
00000000
01010000
00000000
00000000
,
10000000
00000000
00000000
0MMM0000
00011000
00000000
00000000
00000000
,
00000010
00000001
00000100
00000000
00000010
00000000
00000100
00000000
,
00000001
00000000
00000000
0000MMM0
00011000
00000000
00000000
00100000
,
10000000
01000000
00100000
01000000
,
10000000
00000000
00000000
0MMM0000
00011000
00000000
00000000
00000000
,
00000010
00000001
00000100
00000000
00000001
00000000
00000000
0000MMM0
,
00011000
00000000
00000000
00000000
00100000
10000000
01000000
00000000
,
00100000
00000000
00001000
00000000
00010000
01000000
10000000
01000000
,
00100000
00000000
00001000
00010000
01000000
00010000
00001000
00000010
,
00000001
00000100
00000010
00000000
00011000
00000000
01001000
00000000
,
00010000
01000000
00100000
10000000
01000000
00010000
01000000
10000000
,
01000000
0000000M
00000001
00000100
00000010
00000001
00000010
00001000
,
00000100
00010000
00001000
00100000
00010000
00000000
01010000
00000000
,
00101000
00000000
10010000
00010000
01000000
00100000
00010000
00100000
,
01000000
10000000
01000000
0000000M
00000001
00000010
00001000
00010000
,
00001000
00000010
00000100
00010000
00100000
01000000
00010000
00000000
,
01001000
00000000
01010000
00000000
00110000
00100000
01000000
10000000
,
00100000
01000000
00010000
01000000
10000000
0000000M
00000001
00000100
,
00001000
00010000
00001000
00000100
00000001
00000010
00000100
00010000
,
00001000
00100000
00101000
00001000
00011000
00000000
01001000
01000000
,
00100000
00010000
00100000
10000000
01000000
00010000
01000000
00000000
,
00M0M000
00000000
00101000
00000000
00010100
00000000
00001001
0000000M
,
00000001
00000010
00000001
00000010
00001000
00010000
00100000
01000000
,
00001000
00100000
00000100
00010000
00001000
00100000
01000000
10000000
,
00100000
00010000
00100000
00010000
00001000
00000010
00000001
00000100
,
00001000
00010000
01000000
10000000
00100000
00000000
11000000
00000000
,
10000000
00100000
00010000
00100000
01000000
00001000
00000010
00000100
,
00000001
00000100
00001000
00000010
00000100
00000001
00000010
00001000
,
00010000
00100000
01000000
10000000
01000000
00010000
10000000
00100000
,
00010000
00100000
01000000
00001000
00010000
00000000
00001010
00000000
,
00001000
00000100
00000001
00001000
00000010
00001000
00010000
01000000
,
00100000
00010000
01000000
10000000
01000000
00010000
10000000
01000000
,
00010000
00001000
00000100
00000001
00000100
00000001
00000010
00001000
,
00000010
00001000
00010000
00100000
10000000
00010000
01010000
00000000
,
10000000
01000000
00010000
10000000
00100000
00010000
00001000
00100000
,
00001000
00010000
01000000
00010000
00001000
00000100
00000001
00000010
,
00000001
00000010
00001000
00010000
01000000
10000000
00010000
01000000
,
10000000
01000000
00010000
10000000
01000000
00100000
00010000
10000000
,
00110000
00101000
00011000
00110000
,
00001100
00010100
00000110
00000011
,
00001100
00000000
00010000
00001000
00000010
00001000
00010000
00100000
,
00010000
00001000
00100000
01000000
00010000
00001000
00010000
01000000
,
10000000
10100000
11000000
00110000
,
01001000
00010010
00001100
00000011
,
00000101
00000000
00000010
00001000
00000100
00010000
00001000
00000010
,
00000100
00010000
00001000
00000100
00000101
00000000
00000010
00000000
,
00020200
00000000
00000000
00000000
,
00030300
00000000
00000000
00000000
;

//---------------lights-cabinet - ----------------
#NOTES:
     lights-cabinet:
     :
     Easy:
     1:
     0.538,0.640,0.729,0.000,0.000:
000000
000000
000000
000000
,
000000
000000
000000
000000
,
000000
000000
000000
000000
,
000000
000000
000000
000000
,
100100
000000
011000
000000
,
110000
000000
001100
000000
,
100100
011000
110000
001100
,
100000
000000
000100
000000
100000
001000
100000
000000
,
100100
100000
011000
001000
,
100000
000000
011000
100100
,
100100
001000
001000
001000
,
001100
000000
100000
100000
,
000100
010000
000100
000000
,
001000
000100
010000
000000
000100
000000
100000
000000
,
100000
001000
100000
000000
,
010000
100000
001000
000000
100000
000000
100000
000000
,
100100
010000
010000
001000
,
110000
000000
001000
001100
,
100100
000000
001000
001000
,
000100
000000
100000
100100
,
000100
010000
000100
000000
,
001000
000100
010000
000000
000100
000000
100000
000000
,
100000
001000
100000
000000
,
010000
100000
001000
000000
100000
000000
110000
000000
,
010100
000000
101000
000000
,
010100
000000
101000
010100
,
101000
000000
010100
000000
,
101000
000000
010100
101000
,
010100
000000
101000
000000
,
010100
000000
101000
010100
,
101000
000000
111100
000000
,
111100
000000
100100
111100
,
000100
000000
010000
000000
000100
010000
000100
000000
,
000100
000000
010000
000000
000100
010000
000100
000000
,
100000
000000
001000
000000
001000
100000
001000
000000
,
010000
000000
001000
000000
001000
100000
001000
000000
,
010000
000000
001000
000000
100000
001000
100000
000000
,
001000
100000
100000
000100
,
100000
000100
001000
000000
001000
000100
100000
000000
,
000100
010000
000100
000000
001000
000100
100000
000000
,
000100
000000
010000
000000
000100
010000
000100
000000
,
000100
000000
010000
000000
000100
010000
000100
000000
,
100000
000000
001000
000000
001000
100000
001000
000000
,
010000
000000
001000
000000
001000
100000
001000
000000
,
010000
000000
001000
000000
100000
001000
100000
000000
,
001000
100000
100000
000100
,
100000
000100
001000
000000
001000
000100
100000
000000
,
000100
010000
000100
000000
001000
000100
100000
000000
,
000100
010000
000100
000000
,
111100
111100
111100
000000
,
000100
000000
010000
000000
000100
000000
000000
001000
,
100000
000100
110000
100100
,
000100
100000
100100
000000
,
110000
011000
100100
000000
,
000100
000000
010000
000000
000100
000000
001100
110000
,
001100
011000
110000
100100
,
100000
001000
100000
000100
,
100000
011000
100100
000000
,
010000
010000
010100
000100
,
100100
100000
100000
011000
,
011000
100000
000100
010000
,
001100
110000
001100
100000
,
000100
011000
100000
001000
,
110000
001000
100000
000100
,
100000
000100
100000
000000
000100
000000
010000
000000
,
001000
010000
011000
010000
,
000100
100000
001000
100000
,
000100
000000
010000
001000
010000
000000
001000
000000
,
100000
000100
100000
100100
,
011000
110000
001100
100100
,
100000
000000
001000
000000
100000
010000
100000
000000
,
000100
000000
010000
000000
000100
010000
000100
000000
,
100000
000000
001000
000000
001000
100000
001000
000000
,
010000
000000
001000
000000
001000
100000
001000
000000
,
010000
000000
001000
000000
100000
001000
100000
000000
,
001000
100000
100000
000100
,
100000
000100
001000
000000
001000
000100
100000
000000
,
000100
010000
000100
000000
001000
000100
100000
000000
,
000100
000000
010000
000000
000100
010000
000100
000000
,
000100
000000
010000
000000
000100
010000
000100
000000
,
100000
000000
001000
000000
001000
100000
001000
000000
,
010000
000000
001000
000000
001000
100000
001000
000000
,
010000
000000
001000
000000
100000
001000
100000
000000
,
001000
100000
100000
000100
,
100000
000100
001000
000000
001000
000100
100000
000000
,
000100
010000
000100
000000
001000
000100
100000
000000
,
000100
000000
110000
000000
,
001100
000000
110000
001100
,
100100
000000
000000
110000
,
000000
000000
011000
110000
,
001100
000000
101000
101000
,
010100
000000
100100
011000
,
110000
000000
011000
011100
,
000000
101000
010000
010000
,
111100
000000
000000
000000
;

//---------------dance-single - M. Puls----------------
#NOTES:
     dance-single:
     M. Puls:
     Beginner:
     1:
     0.093,0.151,0.016,0.000,0.000:
0000
0000
0000
0000
,
0000
0000
0000
0000
,
0000
0000
0000
0000
,
0000
0000
0000
0000
,
1000
0000
0000
0000
,
0000
0000
0000
0000
,
0001
0000
0000
0000
,
0000
0000
0000
0000
,
0100
0000
0000
0000
,
0100
0000
0000
0000
,
0010
0000
0000
0000
,
0010
0000
0000
0000
,
1000
0000
0000
0000
,
0000
0000
0000
0000
,
0001
0000
0000
0000
,
0000
0000
0000
0000
,
0100
0000
0000
0000
,
0100
0000
0000
0000
,
0100
0000
0000
0000
,
0100
0000
0000
0000
,
0010
0000
0000
0000
,
0000
0000
0000
0000
,
0010
0000
0000
0000
,
0000
0000
0000
0000
,
1000
0000
0000
0000
,
0000
0000
0000
0000
,
0001
0000
0000
0000
,
0000
0000
0000
0000
,
0100
0000
0000
0000
,
0000
0000
0000
0000
,
0010
0000
0000
0000
,
0000
0000
0000
0000
,
1000
0000
0000
0000
,
0100
0000
0000
0000
,
0010
0000
0000
0000
,
0001
0000
0000
0000
,
0010
0000
0000
0000
,
0001
0000
0000
0000
,
1000
0000
0000
0000
,
1000
0000
0000
0000
,
0001
0000
0000
0000
,
0010
0000
0000
0000
,
0100
0000
0000
0000
,
1000
0000
0000
0000
,
0010
0000
0000
0000
,
0100
0000
0000
0000
,
0001
0000
0001
0000
,
0001
0000
0000
0000
,
1000
0000
0000
0000
,
0000
0000
0000
0000
,
1000
0000
0000
0000
,
0000
0000
0000
0000
,
0001
0000
0000
0000
,
0000
0000
0000
0000
,
0001
0000
0000
0000
,
0000
0000
0000
0000
,
0100
0000
0000
0000
,
0100
0000
0000
0000
,
0010
0000
0000
0000
,
0010
0001
0000
0000
,
0000
1000
0000
0000
,
0000
1000
0000
0000
,
0000
0001
0100
0000
,
0000
0000
0100
0000
,
0000
0000
0010
0000
,
0000
0000
0010
0001
,
0000
0000
0000
1000
,
0000
0000
0000
1000
,
0000
0000
0000
0001
,
0000
0000
0000
1001
,
0100
0000
0000
0000
,
0010
0000
0000
0000
,
0010
0000
0000
0000
,
0100
0000
0000
0000
,
0001
0000
0000
0000
,
1000
0000
0000
0000
,
0001
0000
0000
0000
,
0001
0000
0000
0000
,
0100
0000
0000
0000
,
0010
0000
0000
0000
,
0001
0000
0000
0000
,
0010
0000
0000
0000
,
0100
0000
0000
0000
,
0010
0000
0000
0000
,
1000
0000
0000
0000
,
0001
0000
0000
0000
,
1000
0000
0000
0000
,
1000
0000
0000
0000
,
1000
0000
0000
0000
,
0000
0000
0000
0000
,
0001
0000
0000
0000
,
0001
0000
0000
0000
,
0001
0000
0000
0000
,
0000
0000
0000
0000
,
1001
0000
0000
0000
;

//---------------dance-double - ----------------
#NOTES:
     dance-double:
     :
     Edit:
     9:
     0.690,0.791,0.457,0.344,0.064: // measure 1
00000000
00000000
00000000
00000000
,  // measure 2
00000000
00000000
00000000
00000000
0MM0MMMM
00000000
00000000
0MM0MMMM
,  // measure 3
00000000
00000000
00000000
00000000
,  // measure 4
00000000
00000000
00000000
00000000
,  // measure 5
00000000
00000000
00000000
00000000
,  // measure 6
00000000
00000000
00000000
00000000
0MM0MMMM
00000000
00000000
0MM0MMMM
,  // measure 7
00000000
00000000
00000000
00000000
,  // measure 8
00000000
00000000
00000000
00000000
,  // measure 9
10000000
00010000
10000000
01000000
,  // measure 10
00010000
00000100
00001000
00000010
,  // measure 11
00000100
00001000
01000000
00100000
,  // measure 12
10000000
00000000
00100000
00000000
00010000
00001000
00001000
00000000
,  // measure 13
00000100
00000001
00001000
00010000
,  // measure 14
10000000
00100000
01000000
00001000
,  // measure 15
00000100
00010000
00100000
00001000
,  // measure 16
00000010
00000000
00000001
00000000
00000010
00000001
00000001
00000000
,  // measure 17
00001000
00000010
00001000
00000000
00000001
00000000
00000100
00000000
00000010
00000000
00010000
00000000
00000100
00000000
00001000
00000000
,  // measure 18
00000001
00000100
00001000
00010000
00100000
00010000
00001000
00000000
,  // measure 19
00010000
00001000
00010000
00000000
00100000
00000000
00010000
00000000
00001000
00000000
00010000
00000000
01000000
00000000
10000000
00000000
,  // measure 20
00100000
00010000
00100000
10000000
01000000
00100000
00100000
00000000
,  // measure 21
00010000
01000000
00010000
00000000
10000000
00000000
00100000
00000000
01000000
00000000
00001000
00000000
00100000
00000000
00010000
00000000
,  // measure 22
10000000
00100000
00010000
00001000
00000100
00001000
00010000
00000000
,  // measure 23
00001000
00010000
00001000
00000000
00000100
00000000
00001000
00000000
00010000
00000000
00001000
00000000
00000010
00000000
00000001
00000000
,  // measure 24
00000100
00001000
00000100
00000001
00000010
00000100
00000100
00000000
,  // measure 25
MMMM1001
00001000
1001MMMM
00010000
,  // measure 26
MMMM1001
00001000
1001MMMM
00010000
,  // measure 27
MMMM2002
00000000
00000000
00000MM0
00003003
00000000
00022000
00000000
,  // measure 28
00000000
MMM00MMM
00000000
00000000
00033000
0MM00000
00000000
00000000
,  // measure 29
1001MMMM
00010000
MMMM1001
00001000
,  // measure 30
1001MMMM
00010000
MMMM1001
00001000
,  // measure 31
2002MMMM
00000000
00000000
0MM00000
30030000
00000000
00022000
00000000
,  // measure 32
00000000
MMM00MMM
00000000
00000000
00033000
00000000
00000000
00000000
,  // measure 33
M001000M
00000000
00001000
00010000
M000100M
00000000
00000100
00000000
M000100M
00000000
00010000
00001000
M001000M
00000000
01000000
00000000
,  // measure 34
M010000M
00000000
00001000
00010000
M000100M
00000000
00000100
00000000
M000001M
00000000
00010000
00001000
M001000M
00000000
00100000
00000000
,  // measure 35
M100000M
00000000
00001000
00010000
M000100M
00000000
00000010
00000000
M000010M
00000000
00010000
00001000
M001000M
00000000
01000000
00000000
,  // measure 36
M001000M
00000000
00001000
00010000
M000100M
00000000
00000010
00000000
M000100M
00000000
00010000
00001000
M001000M
00000000
00100000
00000000
,  // measure 37
M001000M
00000000
00001000
00010000
M000100M
00000000
00000100
00000000
M000100M
00000000
00010000
00001000
M001000M
00000000
00100000
00000000
,  // measure 38
M001000M
00000000
00001000
00010000
M000100M
00000000
00000100
00000000
M000100M
00000000
00000100
00001000
M000010M
00000000
00000010
00000000
,  // measure 39
00000100
00001001
00001001
00000000
00000000
00000000
00000010
00000000
,  // measure 40
00000010
00000000
00000010
00001001
00000000
00001001
00001001
00000010
,  // measure 41
0M0000M1
00000100
0M0010M0
00000100
0M0000M1
00001000
0M0001M0
00010000
,  // measure 42
0M0010M0
00100000
1M0000M0
00100000
0M0010M0
00010000
0M1000M0
00010000
,  // measure 43
0M0010M0
00000100
0M0000M1
00001000
0M0001M0
00000001
0M0001M0
00010000
,  // measure 44
0M0010M0
00100000
0M0100M0
10000000
0M1000M0
00010000
0M1000M0
10000000
,  // measure 45
0M0100M0
00100000
0M0010M0
00010000
0M0010M0
00000100
0M0010M0
00010000
,  // measure 46
0M1000M0
00010000
0M0010M0
00010000
0M1000M0
10000000
0M0100M0
10000000
,  // measure 47
01000000
10010000
10010000
00000000
00000000
00000000
00100000
00000000
,  // measure 48
00100000
00000000
00100000
10010000
00000000
10010000
1001MMMM
00100000
,  // measure 49
0200MMMM
0000MMMM
0302MMMM
0000MMMM
,  // measure 50
0023MMMM
00000000
00302000
00003020
,  // measure 51
00020030
00000000
00000000
00000000
00030200
00000000
00000000
00001300
,  // measure 52
02000000
03020000
00230000
00302000
,  // measure 53
00003020
00000000
00020030
00000000
,  // measure 54
00030200
00000000
00002300
00000000
,  // measure 55
02003000
00000000
03020000
00000000
,  // measure 56
00230000
00000000
00000000
00301000
00000020
00000000
00000130
00000000
,  // measure 57
00000110
00000101
00010010
00001100
,  // measure 58
00000011
00000000
00001010
00000000
00001000
00010000
01000000
00000000
,  // measure 59
01100000
00101000
01010000
10100000
,  // measure 60
1MM10000
00000000
11000000
00000000
01000000
01100000
00000000
00101000
,  // measure 61
00000000
00000000
00011000
00000000
00001100
00000000
00000100
00000100
,  // measure 62
00000100
00000000
00001001
00000000
00000110
00001001
00000000
00000110
,  // measure 63
00000000
00001MM1
00000000
00000100
00000001
00000010
00000001
00000100
,  // measure 64
00001000
00000100
00000010
00000100
00001000
00010000
00100000
10000000
,  // measure 65
00100000
01000000
00001000
00010000
01000000
10000000
00010000
00100000
,  // measure 66
01000000
00010000
00001000
00000010
00001000
00010000
01000000
10000000
,  // measure 67
01000000
00010000
00001000
00000010
00000001
00000100
00001000
00010000
,  // measure 68
00100000
01000000
00010000
00100000
01000000
00010000
01000000
10000000
,  // measure 69
00100000
00010000
00001000
00000100
00000001
00000100
00001000
00010000
,  // measure 70
00100000
00000000
00000000
00000000
00000000
00000000
00000000
00000000
01000000
00000000
00000000
00000000
00000000
00000000
00000000
00000000
00100000
00000000
00000000
00000000
00000000
00000000
00000000
00000000
00010000
00000000
00000000
00000000
00000000
00000000
00000000
00000000
00001000
00000000
00000000
00000000
00000000
00000000
00000000
00000000
00000200
00000000
00000000
00000000
00000000
00000000
00000000
00000000
00000000
00000300
00000000
00000000
00000000
00000000
00000000
00000000
00000001
00000000
00000000
00000000
00000000
00000000
00000000
00000000
,  // measure 71
00001000
00000100
00000010
00000001
00001000
00000100
00010000
00001000
,  // measure 72
00000100
00000010
00001000
00010000
01000000
00100000
10000000
01000000
,  // measure 73
00010000
00001000
00010000
00100000
10000000
01000000
00010000
00001000
,  // measure 74
00010000
01000000
10000000
00100000
00200000
00000000
10300000
00000000
,  // measure 75
00010000
00100000
01000000
10000000
00010000
00100000
00001000
00010000
,  // measure 76
00100000
01000000
00010000
00000100
00000010
00000100
00000001
00000010
,  // measure 77
00001000
00010000
00001000
00000100
00000001
00000010
00001000
00010000
,  // measure 78
00001000
00000010
00000001
00000100
00000010
00000110
00001001
00000000
,  // measure 79
00000001
00000100
00001000
00000100
00000001
00000010
00000200
00010000
,  // measure 80
00001300
00000100
00000010
00000001
00000200
00000010
00001300
00000100
,  // measure 81
00000010
00000100
00001000
00010000
00100000
01000000
00100000
00010000
,  // measure 82
10000000
01000000
00010000
00100000
02000000
00100000
03010000
01000000
,  // measure 83
10000000
01000000
00010000
01000000
10000000
00100000
00020000
00001000
,  // measure 84
00030100
00010000
00001000
00000100
00000002
00001000
00000103
00000001
,  // measure 85
00000010
00000100
00000010
00001000
00010000
01000000
00010000
00001000
,  // measure 86
00000010
00000001
00000100
00001000
00000200
00000010
00000301
00000100
,  // measure 87
00000110
00001MMM
01100000
MMM10000
,  // measure 88
00000110
00001MMM
01100000
MMM10000
,  // measure 89
00000220
00000000
00000330
MMM22MMM
,  // measure 90
00000000
MMM00MMM
00000000
00033000
00000000
00001000
00010000
00000000
,  // measure 91
01100000
MMM10000
00000110
00001MMM
,  // measure 92
01100000
MMM10000
00000110
00001MMM
,  // measure 93
02200000
00000000
03300000
MMM22MMM
,  // measure 94
00000000
MMM00MMM
00000000
00000000
00033000
00000000
00000000
00000000
,  // measure 95
MMMMMMMM
00000000
00000000
00000000
;
