#TITLE:Delta 32;
#SUBTITLE:UFO! Remix;
#ARTIST:True Force;
#TITLETRANSLIT:;
#SUBTITLETRANSLIT:;
#ARTISTTRANSLIT:;
#CREDIT:;
#BANNER:Delta 32 UFO! Remix.png;
#BACKGROUND:Delta 32 UFO! Remix-bg.png;
#LYRICSPATH:;
#CDTITLE:./CDTITLES/DANCE DANCE REVOLUTION ULTRAMIX 3.png;
#MUSIC:Delta 32 UFO! Remix.ogg;
#OFFSET:0.000;
#SAMPLESTART:36.000;
#SAMPLELENGTH:15.000;
#SELECTABLE:YES;
#BPMS:0.000=180.000;
#STOPS:;
#BGCHANGES:;

//---------------dance-single - ----------------
#NOTES:
     dance-single:
     :
     Beginner:
     1:
     0.113,0.219,0.068,0.000,0.000:
0000
0000
0000
0000
,
0000
0000
0000
0000
,
0000
0000
0000
0000
,
0000
0000
0000
0000
,
1000
0000
0000
0000
,
1000
0000
0000
0000
,
1000
0000
0000
0000
,
0100
0000
0000
0000
,
0100
0000
0000
0000
,
0100
0000
0000
0000
,
0001
0000
0000
0000
,
0001
0000
0000
0000
,
0001
0000
0000
0000
,
0100
0000
0000
0000
,
0100
0000
0000
0000
,
0100
0000
0000
0000
,
0010
0000
0000
0000
,
0110
0000
0000
0000
,
0000
0000
0000
0000
,
1001
0000
0000
0000
,
1000
0000
0000
0000
,
0001
0000
0000
0000
,
1000
0000
0000
0000
,
0001
0000
0000
0000
,
0100
0000
0000
0000
,
0010
0000
0000
0000
,
0100
0000
0000
0000
,
0010
0000
0000
0000
,
1000
0000
0000
0000
,
0001
0000
0000
0000
,
0001
0000
0000
0000
,
1000
0000
0000
0000
,
1000
0000
0000
0000
,
0100
0000
0000
0000
,
0010
0000
0000
0000
,
0100
0000
0000
0000
,
0010
0000
0000
0000
,
1000
0000
0000
0000
,
1000
0000
0000
0000
,
0001
0000
0000
0000
,
0001
0000
0000
0000
,
0100
0000
0000
0000
,
0100
0000
0000
0000
,
0001
0001
0001
0001
,
0001
0000
0000
0000
,
1000
0000
0000
0000
,
1000
0000
0000
0000
,
0001
0000
0000
0000
,
0001
0000
0000
0000
,
1000
0000
0000
0000
,
1000
0000
0000
0000
,
0001
0000
0000
0000
,
0001
0000
0000
0000
,
0010
0000
0000
0000
,
0010
0000
0000
0000
,
0001
0000
0000
0000
,
0001
0000
0000
0000
,
1000
0000
0000
0000
,
1000
0000
0000
0000
,
0100
0000
0000
0000
,
0100
0000
0000
0000
,
0001
0000
0000
0000
,
0001
0000
0000
0000
,
1000
0000
0000
0000
,
1000
0000
0000
0000
,
0001
0000
0000
0000
,
0001
0000
0000
0000
,
0100
0000
0000
0000
,
0100
0000
0000
0000
,
1000
0000
0000
0000
,
1000
0000
0000
0000
,
1001
0000
0000
0000
,
0110
0000
0000
0000
,
1001
0000
0000
0000
,
0110
0000
0000
0000
,
1001
0000
0000
0000
;

//---------------dance-single - ----------------
#NOTES:
     dance-single:
     :
     Easy:
     4:
     0.270,0.329,0.195,0.019,0.000:
0000
0000
0000
0000
,
0000
0000
0000
0000
,
0000
0000
0000
0000
,
0000
0000
0000
0000
,
0000
0000
0000
0000
,
0101
0000
0100
0000
,
0110
0000
0010
0000
,
1010
0000
1000
0000
,
1100
0000
0100
0000
,
0110
0000
0010
0000
,
0011
0000
0001
0000
,
1001
0000
1000
0000
,
1010
0000
0010
0000
,
0110
0000
0100
0000
,
1100
0000
1000
0000
,
1001
0000
0001
0000
,
0011
0000
0010
0000
,
0002
0000
0000
0000
,
0000
0000
0000
0003
,
0001
0000
1000
0000
,
0100
0000
0010
0000
,
0100
0000
1000
0000
,
0010
0000
1000
0000
,
0100
0000
0001
0000
,
0100
0000
1000
0000
,
0010
0000
0100
0000
,
0001
0000
1000
0000
,
0100
0000
0100
0000
,
0010
0000
0010
0000
,
0001
0000
0001
0000
,
1000
0000
1000
0000
,
0010
0000
0010
0000
,
0100
0000
0100
0000
,
1000
0100
0010
0100
,
0001
0100
0010
0100
,
1000
0000
1000
0000
,
0001
0000
1000
0000
,
0100
0000
0001
0000
,
0100
0000
1000
0000
,
0100
0000
0001
0000
,
0100
0000
1000
0000
,
1000
0000
0001
0000
,
0100
0000
0100
0000
,
0001
0100
0010
0100
,
1000
0100
0001
0000
,
0100
0100
0100
0000
,
0010
0010
0010
0000
,
0001
0100
0010
0100
,
1000
0100
0010
0100
,
0000
0100
0100
0100
,
0010
0010
0010
0000
,
0010
0100
0010
1000
,
0010
0100
0010
0001
,
0010
0000
0000
0000
,
1000
0000
0001
0000
,
0101
0000
0000
0100
0000
0000
0000
0000
,
1000
0000
1100
0000
,
0001
0000
0000
1000
0000
0000
0000
0000
,
0010
0000
0000
1000
,
0001
0000
0000
0010
0000
0000
0000
0000
,
0010
0000
0100
0000
,
0001
0000
0000
0100
0000
0000
0000
0000
,
0110
0000
0110
0000
,
1000
0001
1000
0010
,
1000
0100
1000
0100
,
1000
0010
1000
0001
,
0001
1000
0001
1000
,
0001
0100
0001
0100
,
0001
0010
0001
0010
,
0001
0100
1000
0100
,
0001
0100
1000
0100
,
0001
0000
0000
0100
0000
0000
0000
0000
,
1001
0000
0100
0000
,
1001
0000
0000
0100
0000
0000
0000
0000
,
0200
0000
0300
1001
,
1001
0000
0000
0000
;

//---------------dance-single - ----------------
#NOTES:
     dance-single:
     :
     Medium:
     6:
     0.500,0.584,0.448,0.711,0.000:
0000
0000
0000
0000
,
0000
0000
0000
0000
,
0000
0000
0000
0000
,
0000
0000
0000
0000
,
0000
0000
0000
0000
,
1001
1001
1001
1001
,
0110
0000
1001
1000
,
1010
1000
1000
0000
,
0110
1001
1001
1001
,
0110
0000
0200
0000
,
0000
0000
0300
0100
,
0000
0010
0100
0010
,
0100
0010
0100
0000
,
0110
0001
0001
0110
,
0001
0001
0110
0000
,
0110
0001
0001
0110
,
1000
1000
0110
0000
,
2002
0000
0000
0000
,
0000
0000
0000
3003
,
0001
0000
0001
0100
0001
0000
0001
0000
,
0100
0000
0100
0010
0100
0000
0100
0000
,
0010
0000
0010
1000
0010
0000
0010
0000
,
1000
0000
1000
0001
1000
0000
1000
0000
,
0001
0000
0001
0100
0001
0000
0001
0000
,
0100
0000
0100
0010
0100
0000
0100
0000
,
0010
0000
0010
1000
0010
0000
0010
0000
,
0001
0100
0001
0000
0100
0010
0100
0000
,
0010
0001
0010
0000
1000
0001
1000
0000
,
0100
0010
0100
0000
0010
0100
0010
0000
,
0100
0001
0100
0000
0001
1000
0001
0000
,
1000
1000
1000
0000
0010
0010
0010
0000
,
0100
0100
0100
0000
0001
0001
0001
0000
,
0010
0010
0010
0000
0100
0100
0100
0000
,
2000
3002
2003
3002
,
2003
3002
2003
3001
,
0101
0100
0110
0010
,
1010
1000
1001
0001
,
0101
0100
0110
0010
,
1010
1000
1001
0001
,
0011
0010
0110
0100
,
0110
0010
1010
1000
,
1010
0010
0011
0001
,
1001
1000
1100
0100
,
1100
1000
1010
1000
,
1010
1000
2000
0000
,
3020
0230
0302
0203
,
0320
2030
0000
3000
,
0011
0001
0011
0001
,
0011
0001
0021
0000
,
0032
0203
0302
2003
,
3002
0023
0032
0203
,
0320
2030
3010
1010
,
0010
1010
0010
1010
,
0010
2000
3200
0320
,
0032
2003
3002
1003
,
2000
0000
3000
0200
0000
0000
0300
0000
,
0002
0003
2000
3000
,
0020
0000
0030
0002
0000
0000
0003
0000
,
0020
0000
0030
2000
,
3200
0000
0300
0020
0000
0000
0030
0000
,
0002
0003
0200
0300
,
0020
0000
0030
0002
0000
0000
0003
0000
,
0020
0030
2000
3000
,
0002
0000
0003
0200
0000
0000
0300
0000
,
2000
3000
0200
0300
,
0002
0000
0003
0200
0000
0000
0300
0000
,
2000
0000
3000
0002
,
0023
0000
0030
0200
0000
0000
0300
0000
,
0002
0003
0020
0030
,
0200
0000
0300
0002
0000
0000
0003
0000
,
2000
3000
0002
0003
,
0020
0000
0030
0200
0000
0000
0300
0000
,
2000
3000
0020
0030
,
0200
0000
0300
0002
0000
0000
0003
0000
,
2000
0000
0000
3001
,
1001
0000
0000
0000
;

//---------------dance-single - ----------------
#NOTES:
     dance-single:
     :
     Hard:
     8:
     0.589,0.662,0.458,0.643,0.000:
0000
0000
0000
0000
,
0000
0000
0000
0000
,
0000
0000
0000
0000
,
0000
0000
0000
0000
,
0000
0000
0000
0000
,
0001
0010
0100
1000
1000
0010
0100
0001
,
0001
0100
0010
1000
0100
0010
0001
1000
,
0001
0010
0100
1000
0100
0010
0100
0010
,
0100
1000
0100
0010
0001
1000
0001
0010
,
0100
1000
0100
0010
0100
0001
0100
0010
,
0100
1000
0100
0010
0100
0001
0100
0010
,
0100
1000
0100
0010
0100
0001
0100
0010
,
0100
1000
0100
0010
0001
0100
0010
1000
,
0100
0010
0001
0100
0001
0100
1000
0100
,
0010
0100
0001
0100
0010
0100
1000
0100
,
0010
0100
0001
0100
0010
0100
1000
0100
,
0001
0100
1000
0100
0001
0100
1000
0000
,
2002
0000
0000
0000
,
0000
0000
0000
0000
0000
0000
0000
0000
0000
0000
0000
0000
0000
0000
0000
3003
,
0000
0000
0001
1000
0001
0100
0010
0000
,
0001
0010
0001
0000
1000
0010
1000
0000
,
0010
0100
0010
0000
0100
0010
0100
0000
,
0100
0001
0010
0000
0100
1000
0010
0000
,
1000
0001
1000
0000
0001
1000
0001
0000
,
0010
0100
0100
0000
0100
0010
0010
0000
,
1000
0001
0001
0001
0001
0001
0001
0000
,
0100
1000
1000
1000
1000
1000
1000
0000
,
0100
0010
0100
0000
0100
1000
0100
0000
,
0100
0100
0100
0000
0100
0001
0100
0000
,
0010
0010
0010
0000
0010
1000
0010
0000
,
0010
0100
0010
0000
0010
0001
0010
0000
,
1000
0010
1000
0000
1000
1000
1000
0000
,
1000
0100
1000
0000
1000
0001
1000
0000
,
1001
0110
1010
0101
,
0011
1100
0110
1001
,
1000
0100
1000
0000
0001
0100
0001
0000
,
0010
0100
0010
0000
0100
0010
0100
0000
,
0001
0001
0001
0000
1000
1000
1000
0000
,
0100
0100
0100
0000
0010
0010
0010
0000
,
1000
0001
0100
0000
0001
1000
0100
0000
,
0010
0001
0100
0000
0010
1000
0100
0000
,
0010
0001
0001
0001
0001
0001
0001
0000
,
0100
1000
1000
1000
1000
1000
1000
0000
,
0101
1010
0101
1010
,
0101
1010
0101
0000
,
0220
0000
0000
0330
,
2002
3003
0220
0330
,
1001
0110
1001
0110
,
1001
0110
1001
0000
,
2200
0000
0000
3300
,
0022
0033
2200
3300
,
0011
1100
0011
1100
,
0011
1100
0011
0000
,
0202
0000
0000
0303
,
2200
3300
2002
3003
,
0002
0000
0000
2000
0000
0000
0003
0000
,
0020
3000
0200
0030
,
0002
0000
0300
2000
0000
0000
0003
0000
,
0020
0000
0000
0000
3000
0000
0200
0030
,
0002
0000
0003
2000
0000
0000
0300
0000
,
3002
0000
0203
0000
,
2300
0000
0000
0200
0000
0000
3000
0000
,
0020
0300
2000
0030
,
3020
0000
0000
0002
0000
0000
0030
0000
,
0023
0000
0200
0030
,
0002
0000
0300
2000
0000
0000
0003
0000
,
3020
0000
0000
0230
,
0002
0300
0000
2000
0000
0000
3003
0000
,
0002
0000
0023
0000
,
0002
0000
0003
2000
0000
0000
3000
0000
,
0230
0000
0302
0000
,
0103
0000
0000
0220
0000
0000
0330
0000
,
2200
3300
0202
0303
,
2020
3030
0000
0022
0000
0000
0033
0000
,
0202
0000
0303
0110
,
2200
0000
3300
0000
;

//---------------dance-double - ----------------
#NOTES:
     dance-double:
     :
     Beginner:
     1:
     0.117,0.219,0.097,0.000,0.000:
00000000
00000000
00000000
00000000
,
00000000
00000000
00000000
00000000
,
00000000
00000000
00000000
00000000
,
00000000
00000000
00000000
00000000
,
10000000
00000000
00000000
00000000
,
10000000
00000000
00000000
00000000
,
10000000
00000000
00000000
00000000
,
01000000
00000000
00000000
00000000
,
01000000
00000000
00000000
00000000
,
01000000
00000000
00000000
00000000
,
00001000
00000000
00000000
00000000
,
00001000
00000000
00000000
00000000
,
00001000
00000000
00000000
00000000
,
00000100
00000000
00000000
00000000
,
00000100
00000000
00000000
00000000
,
00000100
00000000
00000000
00000000
,
00001000
00000000
00000000
00000000
,
00001001
00000000
00000000
00000000
,
00000000
00000000
00000000
00000000
,
00000110
00000000
00000000
00000000
,
00000100
00000000
00000000
00000000
,
00010000
00000000
00000000
00000000
,
00010000
00000000
00000000
00000000
,
00010000
00000000
00000000
00000000
,
00001000
00000000
00000000
00000000
,
00001000
00000000
00000000
00000000
,
00001000
00000000
00000000
00000000
,
01000000
00000000
00000000
00000000
,
01000000
00000000
00000000
00000000
,
00010000
00000000
00000000
00000000
,
00010000
00000000
00000000
00000000
,
10000000
00000000
00000000
00000000
,
10000000
00000000
00000000
00000000
,
01000000
00000000
00000000
00000000
,
00100000
00000000
00000000
00000000
,
01000000
00000000
00000000
00000000
,
00100000
00000000
00000000
00000000
,
10000000
00000000
00000000
00000000
,
10000000
00000000
00000000
00000000
,
01000000
00000000
00000000
00000000
,
01000000
00000000
00000000
00000000
,
00001000
00000000
00000000
00000000
,
00001000
00000000
00000000
00000000
,
00000100
00000100
00000100
00000100
,
00000100
00000000
00000000
00000000
,
00001001
00000000
00000000
00000000
,
00001000
00000000
00000000
00000000
,
00000100
00000000
00000000
00000000
,
00000110
00000000
00000000
00000000
,
00000001
00000000
00000000
00000000
,
00001001
00000000
00000000
00000000
,
00000100
00000000
00000000
00000000
,
00000100
00000000
00000000
00000000
,
00010000
00000000
00000000
00000000
,
00010000
00000000
00000000
00000000
,
01000000
00000000
00000000
00000000
,
01000000
00000000
00000000
00000000
,
00100000
00000000
00000000
00000000
,
00100000
00000000
00000000
00000000
,
01000000
00000000
00000000
00000000
,
01000000
00000000
00000000
00000000
,
00001000
00000000
00000000
00000000
,
00001000
00000000
00000000
00000000
,
00000100
00000000
00000000
00000000
,
00000100
00000000
00000000
00000000
,
00000010
00000000
00000000
00000000
,
00000010
00000000
00000000
00000000
,
00000001
00000000
00000000
00000000
,
00000001
00000000
00000000
00000000
,
00000100
00000000
00000000
00000000
,
00000100
00000000
00000000
00000000
,
00000110
00000000
00000000
00000000
,
00001001
00000000
00000000
00000000
,
00000110
00000000
00000000
00000000
,
00001001
00000000
00000000
00000000
,
00000110
00000000
00000000
00000000
;

//---------------dance-double - ----------------
#NOTES:
     dance-double:
     :
     Easy:
     5:
     0.345,0.329,0.107,0.146,0.000:
00000000
00000000
00000000
00000000
,
00000000
00000000
00000000
00000000
,
00000000
00000000
00000000
00000000
,
00000000
00000000
00000000
00000000
,
00000000
00000000
00000000
00000000
,
00000100
00000100
00000001
00000010
,
00000001
00000001
00000100
00001000
,
00010000
00010000
00001000
00010000
,
02000000
03000000
20000000
30000000
,
00100000
10000000
00100000
10000000
,
01000000
00010000
01000000
00010000
,
00001000
00000100
00001000
00000100
,
00000001
00000010
00000001
00000010
,
00000001
00001000
00000001
00001000
,
00000001
00000100
00000001
00000100
,
00001000
00010000
00001000
00010000
,
01000000
10000000
01000000
10000000
,
20020000
00000000
00000000
00000000
,
00000000
00000000
00000000
30030000
,
10000000
01000000
10000000
01000000
,
00010000
00001000
00000100
00000100
,
00000001
00000010
00000001
00000010
,
00000001
00000100
00001000
00001000
,
00010000
01000000
00010000
01000000
,
10000000
00100000
01000000
01000000
,
00010000
00010000
00010000
00010000
,
10000000
10000000
10000000
10000000
,
01000000
00010000
01000000
00010000
,
00001000
00000100
00000001
00000001
,
00000010
00001000
00000010
00001000
,
00000010
00000001
00000100
00000100
,
00001000
00010000
00001000
00010000
,
01000000
10000000
00100000
00100000
,
02000000
03000000
00002000
00003000
,
00020000
00030000
00002000
00003000
,
00000100
00000001
00000100
00000000
,
00000001
00000010
00000001
00000000
,
00000010
00001000
00000010
00000000
,
00001000
00010000
00001000
00000000
,
00010000
00100000
00010000
00000000
,
00100000
10000000
00100000
00000000
,
10000000
10000000
10000000
10000000
,
00010000
00010000
00010000
00010000
,
00010000
10010000
00000000
01100000
,
00000000
10010000
00000000
00000000
,
01000000
01000000
00010000
00010000
,
00001000
00001000
00000100
00000100
,
00000100
00000110
00000000
00001001
,
00000000
00000110
00000000
00000000
,
00000020
00000000
00000000
00000000
,
00002000
00000030
00000002
00003003
,
00001000
00001001
00000000
00000110
,
00000000
00001001
00000000
00000000
,
00000100
00000100
00001000
00001000
,
00010000
00010000
01000000
01000000
,
10000000
00000000
00000000
10000000
00000000
00000000
00000000
00000000
,
10000000
01000000
00010000
00001000
,
00010000
00000000
00000000
00010000
00000000
00000000
00000000
00000000
,
00001000
00000000
00000000
00000100
,
00000001
00000000
00000000
00000001
00000000
00000000
00000000
00000000
,
00000001
00000100
00001000
00010000
,
00001000
00000000
00000000
00001000
00000000
00000000
00000000
00000000
,
00010000
01000000
10000000
01000000
,
00010000
01000000
10000000
01000000
,
00010000
00001000
00010000
00001000
,
00000100
00000001
00000100
00001000
,
00010000
00000000
00000000
00000100
,
00000001
00000100
00001000
00000100
,
00000001
00000100
00001000
00010000
,
00001000
00010000
00001000
00010000
,
01000000
10000000
01000000
00010000
,
02000000
00000000
00000000
03000000
,
00020000
00000000
00000000
00030000
,
00000200
00000000
00000000
00000300
,
00002000
00000000
00003000
00001000
,
00001001
00000000
00000000
00000000
;

//---------------dance-double - ----------------
#NOTES:
     dance-double:
     :
     Medium:
     7:
     0.511,0.511,0.594,0.166,0.000:
00000000
00000000
00000000
00000000
,
00000000
00000000
00000000
00000000
,
00000000
00000000
00000000
00000000
,
00000000
00000000
00000000
00000000
,
00000000
00000000
00000000
00000000
,
10010000
10000000
00010000
10000000
,
00010000
01000000
00001000
00010000
,
00011000
00010000
00000100
00010000
,
00000100
00001000
00000001
00000100
,
00001100
00000000
00000101
00000000
00000001
00000001
00000100
00000000
,
00001000
00001000
00010000
00000000
00001000
00000000
00000100
00000000
,
00011000
00000000
00011000
00000000
00010000
00010000
01000000
00000000
,
10000000
10000000
00100000
00000000
10000000
00000000
00010000
00000000
,
01010000
00000000
11000000
00000000
00100000
00100000
01000000
00000000
,
00010000
00010000
10000000
00000000
01000000
00000000
00010000
00000000
,
00011000
00000000
00011000
00000000
00001000
00001000
00000100
00000000
,
00000001
00000001
00000010
00000000
00000001
00000000
00000100
00000000
,
00002002
00000000
00000000
00000000
,
00000000
00000000
00000000
00003003
,
00000110
00000000
00000001
00000000
00000100
00001000
00010000
00000000
,
01000000
00010000
00001000
00011000
,
01001000
00000000
00010000
00000000
10000000
00010000
01000000
00000000
,
00010000
10000000
00100000
01100000
,
10010000
00000000
00010000
00000000
10000000
01000000
00010000
00000000
,
00001000
00000100
00000101
00001100
,
00000010
00000001
00000100
00000000
00001000
00000100
00000001
00000000
,
00000010
00000001
00000100
00000000
00001000
00000100
00000001
00000000
,
00001100
00000000
00000101
00000000
00000001
00000100
00001000
00000000
,
00010000
00001000
00010000
01000000
,
11000000
00000000
01010000
00000000
01000000
00100000
10000000
00000000
,
01000000
00100000
00010000
10000000
,
01100000
00000000
10010000
00000000
10000000
01000000
00010000
00000000
,
00001000
00010000
01000000
00010000
,
00011000
00000000
00010100
00000000
,
00011000
00000000
00010010
00000000
,
00001000
00000000
00000100
00000000
00000100
00000010
00000000
00000010
,
00000001
00000000
00000001
00001000
00000000
00000000
00001001
00000000
,
00000100
00000000
00001000
00000000
00010000
01000000
00000000
01000000
,
10000000
00000000
10000000
00100000
00000000
00000000
10010000
00000000
,
01000000
00000000
00100000
00000000
00001000
00010000
00000000
00010000
,
00001000
00000000
00001000
01000000
00000000
00000000
10010000
00000000
,
00100000
10000000
01000000
00000000
00010000
01000000
10000000
00000000
,
00100000
10000000
01000000
00000000
00010000
01000000
10000000
00000000
,
01000000
01010000
00010000
00011000
,
00001000
00001100
00000100
00000000
,
00000001
00000010
00000001
00000100
00000001
00000000
00000100
00000000
,
00000001
00000100
00001000
00000100
00000001
00000000
00000100
00000000
,
00000100
00001100
00001000
00011000
,
00010000
01010000
01000000
00000000
,
10000000
00020000
00000000
00000000
00000000
00000000
00030000
00000000
,
00010000
20000000
00000000
00000000
30010000
02000000
00000000
00000000
,
03010000
01010000
00001000
00011000
,
00001000
00001100
00000100
00000000
,
00001000
00000100
00000001
00000000
00000010
00000001
00000100
00000000
,
00001000
00000100
00000001
00000000
00000010
00000001
00000100
00000000
,
00000101
00000000
00000000
00001100
00000000
00000000
00000000
00000000
,
00000020
00000032
00000203
00000300
,
00011000
00000000
00000000
01010000
00000000
00000000
00000000
00000000
,
02200000
00000000
03300000
11000000
,
01010000
00000000
00000000
10010000
00000000
00000000
00000000
00000000
,
20000000
32000000
03020000
00031000
,
00011000
00000000
00000000
00010010
00000000
00000000
00000000
00000000
,
00002002
00003003
00000220
00000330
,
00000001
00000001
00000100
00000000
00000100
00000000
00001000
00000000
,
00010000
00000000
00001000
00000000
00010000
00010000
01000000
00000000
,
10000000
10000000
01000000
00000000
10000000
00000000
00100000
00000000
,
01000000
00000000
00010000
00000000
10000000
10000000
01000000
00000000
,
00010000
00010000
00001000
00000000
00010000
00000000
00001000
00000000
,
00010000
00000000
00001000
00000000
00000100
00000100
00000001
00000000
,
00000010
00000010
00000001
00000000
00000010
00000001
00000010
00000001
,
00000100
00001000
00000100
00001000
00010000
00001000
00010000
00000000
,
00011000
00000000
00000000
01010000
00000000
00000000
00000000
00000000
,
10010000
00000000
01100000
00000000
,
10010000
00000000
00000000
01010000
00000000
00000000
00000000
00000000
,
00011000
00000000
00000000
00001100
,
00001001
00000000
00000000
00000000
;

//---------------dance-double - ----------------
#NOTES:
     dance-double:
     :
     Hard:
     9:
     0.616,0.657,0.370,0.175,0.000:
00000000
00000000
00000000
00000000
,
00000000
00000000
00000000
00000000
,
00000000
00000000
00000000
00000000
,
00000000
00000000
00000000
00000000
,
00000000
00000000
00000000
00000000
,
00010000
00000000
00000100
00002000
00000000
00000010
00000000
00000010
,
00000000
00003020
00000000
00000130
00000001
00000000
00000100
00000000
,
00001000
00000000
01000000
00020000
00000000
00100000
00000000
00100000
,
00000000
00230000
00000000
01300000
10000000
00000000
01000000
00000000
,
10000000
01000000
00100000
00001000
00010000
00000010
00001000
00000010
,
00000000
00001000
00000000
00000010
00000100
00000000
00000001
00000000
,
00000001
00000010
00000100
00010000
00001000
01000000
00010000
01000000
,
00000000
00010000
00000000
01000000
00100000
00000000
10000000
00000000
,
00010000
00100000
00001000
00010000
00001000
00000100
00000010
00000100
,
00000000
00000010
00000000
00000001
00000010
00000000
00000100
00000000
,
00000010
00010000
00000100
00010000
00000010
00010000
00000100
00001000
,
00000000
00000001
00000000
00000100
00001000
00000000
00010000
00000000
,
00022000
00000000
00000000
00000000
,
00000000
00000000
00000000
00033000
,
00010000
01000000
10000000
00000000
01000000
00010000
00001000
00000000
,
00000100
00001000
00010000
00000000
00100000
00010000
00001000
00000000
,
00000010
00001000
00010000
00000000
00001000
00000100
00000001
00000000
,
00000100
00001000
00010000
00000000
01000000
00010000
00001000
00000000
,
00010000
01000000
10000000
00000000
00100000
00010000
00001000
00000000
,
00000010
00001000
00010000
00000000
01000000
00010000
00001000
00000000
,
00010000
00001000
00000100
00000100
00000100
00000100
00000100
00000100
,
00001000
00010000
01000000
01000000
01000000
01000000
01000000
01000000
,
10000000
00100000
01000000
00000000
00010000
10000000
00000000
01000000
,
00010000
00000000
00001000
00000100
00000000
00000001
00000020
00000000
,
00000130
00001000
00000010
00000000
00000100
00001000
00000000
00010000
,
01000000
00000000
10000000
00100000
00000000
00010000
00200000
00300000
,
10000000
01000000
00100000
00000000
00001000
00010000
00000000
00000100
,
00000010
00000000
00000001
00001000
00000000
00000010
00000200
00000000
,
00000301
00000001
00000100
00000100
00000010
00000010
00010000
00010000
,
00001000
00001000
00010000
00010000
01000000
01000000
00100000
00100000
,
00010000
10000000
01000000
10000000
01000000
10000000
00000000
01000000
,
00010000
00000000
00001000
00010000
00001000
00010000
00001000
00000000
,
00000100
00000001
00000010
00000001
00000010
00000001
00000000
00000100
,
00000010
00000000
00001000
00000001
00001000
00000001
00001000
00000000
,
00000001
00000100
00001000
00000100
00001000
00000100
00000000
00001000
,
00010000
00000000
01000000
10000000
01000000
10000000
01000000
00000000
,
10000000
00100000
01000000
01000000
01000000
01000000
01000000
01000000
,
00010000
00100000
00001000
00001000
00001000
00001000
00001000
00001000
,
00001000
00011000
01001000
00011000
,
00101000
00011000
00022000
00003000
,
00031000
00010000
01000000
10000000
01000000
00000000
10000000
01000000
,
00010000
01000000
00000000
10000000
01000000
00010000
00001000
00010000
,
00001000
00011000
00010100
00011000
,
00010010
00011000
00022000
00003000
,
00031000
00000200
00000000
00000000
00000000
00000000
00000000
00000000
,
00000301
00000020
00000000
00000000
00000130
00020000
00000000
00000000
,
00031000
00011000
01010000
00011000
,
00001100
00011000
00022000
00030000
,
00013000
01000000
10000000
00100000
10000000
00010000
10000000
00100000
,
10000000
01000000
10000000
00100000
01000000
00010000
10000000
01000000
,
10000000
00000000
01000000
00010000
00000000
00001000
00000100
00000000
,
00000001
00000100
00001000
00000000
00011000
00000000
00010100
00000000
,
00010000
00000000
00001000
00000100
00000000
00000001
00000010
00000000
,
00000001
00000100
00001000
00000000
00000000
00000000
00011000
00000000
,
01001000
00000000
00001000
00010000
00000000
01000000
10000000
00000000
,
00100000
10000000
01000000
00000000
10010000
00000000
11000000
00000000
,
01010000
00000000
10000000
01000000
00000000
00010000
00001000
00000000
,
00010000
00001000
00000100
00000000
00001001
00000000
00000110
00000000
,
00000001
00000010
00000001
00000010
00000100
00001000
00000100
00000100
,
00000100
00010000
00001000
00010000
00001000
01000000
00010000
00010000
,
00010000
00100000
01000000
00100000
01000000
10000000
01000000
01000000
,
10010000
00000000
00000000
00011000
,
00010000
01000000
10000000
00100000
01000000
00010000
00100000
00100000
,
00100000
00001000
00010000
00001000
00000100
00000001
00000010
00000010
,
00000010
00000001
00001000
00000100
00000010
00000001
00001000
00001000
,
00001000
00000010
00000100
00001000
00010000
00001000
00010000
00010000
,
00011000
00000000
00001000
00010000
00000000
00000000
00000000
00000000
,
01010000
00000000
00001100
00000000
,
00011000
00000000
00000000
00010010
00000000
00000000
00000000
00000000
,
01001000
00000000
00000000
00001001
,
00000110
00000000
00000000
00000000
;

//---------------dance-double - ----------------
#NOTES:
     dance-double:
     :
     Challenge:
     10:
     0.696,0.767,0.321,0.156,0.166: // measure 1
00000000
00000000
00000000
00000000
,  // measure 2
00000000
00000000
00000000
00000000
,  // measure 3
00000000
00000000
00000000
00000000
,  // measure 4
00000000
00000000
00000000
00000000
,  // measure 5
00000000
00000000
00000000
00000000
,  // measure 6
00001000
00000000
00100000
00020000
00000000
01000000
00000000
01000000
,  // measure 7
00000000
02030000
00000000
03100000
10000000
00000000
00100000
00000000
,  // measure 8
00010000
00000000
00000010
00002000
00000000
00000100
00000000
00000100
,  // measure 9
00000000
00003200
00000000
00000310
00000001
00000000
00000010
00000000
,  // measure 10
00000001
00000010
00000100
00010000
00001000
01000000
00010000
01000000
,  // measure 11
00000000
00010000
00000000
01000000
00100000
00000000
10000000
00000000
,  // measure 12
10000000
01000000
00100000
00001000
00010000
00000010
00001000
00000010
,  // measure 13
00000000
00001000
00000000
00000010
00000100
00000000
00000001
00000000
,  // measure 14
00001000
00000100
00010000
00001000
00010000
00100000
01000000
00100000
,  // measure 15
00000000
01000000
00000000
10000000
01000000
00000000
00100000
00000000
,  // measure 16
01000000
00001000
00100000
00001000
01000000
00001000
00100000
00010000
,  // measure 17
00000000
10000000
00000000
00100000
00010000
00000000
00001000
00000000
,  // measure 18
00022000
00000000
00000000
00000000
,  // measure 19
00000000
00000000
00000000
00033000
,  // measure 20
00001000
00000010
00000001
00000010
00001000
00010000
00100000
00010000
,  // measure 21
00001000
00000100
00001000
00010000
01000000
00010000
00001000
00010000
,  // measure 22
00100000
10000000
00100000
00010000
00001000
00000010
00001000
00010000
,  // measure 23
00001000
00000010
00000001
00000100
00001000
00010000
01000000
00010000
,  // measure 24
00001000
00000010
00001000
00010000
00100000
00010000
00001000
00000010
,  // measure 25
00000001
00000100
00000010
00001000
00000001
00000010
00001000
00010000
,  // measure 26
00100000
00100000
00100000
00100000
10000000
10000000
10000000
10000000
,  // measure 27
00010000
00010000
00100000
00100000
01000000
01000000
10000000
10000000
,  // measure 28
01000000
00100000
00010000
01000000
00100000
00010000
00001000
00000010
,  // measure 29
00000001
00000000
00000000
00000100
00001000
00000000
00000100
00000000
00000001
00000000
00000010
00000000
00000100
00000000
00010000
00000000
,  // measure 30
00001000
00100000
01000000
10000000
00010000
01000000
00100000
10000000
,  // measure 31
00100000
01000000
00001000
00010000
00001000
00000010
00000100
00001000
,  // measure 32
00000001
00000010
00001000
00010000
00100000
10000000
01000000
10000000
,  // measure 33
00100000
01000000
00010000
10000000
00100000
00010000
00001000
00000010
,  // measure 34
00000001
00000000
00000000
00000001
00000010
00000000
00000000
00000010
00000100
00000000
00000000
00000100
00010000
00000000
00000000
00010000
,  // measure 35
00001000
00000000
00000000
00001000
00010000
00000000
00000000
00010000
00100000
00000000
00000000
00100000
01000000
00000000
00000000
01000000
,  // measure 36
00010000
00000000
10000000
00000000
00100000
00000000
01000000
00010000
01000000
00000000
00100000
00000000
00010000
00000000
00001000
00000000
,  // measure 37
00000100
00000010
00001000
00000010
00010000
00001000
00000010
00000001
,  // measure 38
00001000
00000000
00000100
00000000
00000010
00000000
00000001
00001000
00000001
00000000
00000010
00000000
00001000
00000000
00010000
00000000
,  // measure 39
01000000
00100000
00001000
00100000
01000000
10000000
01000000
00010000
,  // measure 40
01000000
00000000
10000000
00000000
00100000
00000000
00010000
00001000
00010000
00000000
00001000
00000000
00010000
00000000
00001000
00000000
,  // measure 41
00000100
00000001
00000100
00000010
00001000
00000100
00000010
00000001
,  // measure 42
00001000
00000100
00000010
00000010
00000010
00000010
00000010
00000010
,  // measure 43
00000100
00001000
00010000
00010000
00010000
00010000
00010000
00010000
,  // measure 44
00010000
10010000
01100000
00011000
,  // measure 45
00000110
00000000
00001001
00000000
00000220
00000000
00000000
00000300
,  // measure 46
00000130
00000001
00000010
00000001
00000010
00000001
00000010
00001000
,  // measure 47
00000010
00000001
00000010
00001000
00010000
00001000
00000010
00000001
,  // measure 48
00000100
00001001
00000110
00011000
,  // measure 49
01100000
10010000
02200000
00300000
,  // measure 50
03001000
00020000
00000000
00000000
00000000
00000000
00000000
00000000
,  // measure 51
01030000
00200000
00000000
00000000
00310000
20000000
00000000
00000000
,  // measure 52
30010000
10010000
01100000
00011000
,  // measure 53
00000110
00001001
00000220
00000300
,  // measure 54
00001030
00000010
00000001
00000100
00000001
00001000
00000001
00000100
,  // measure 55
00000001
00000010
00000001
00000100
00000010
00001000
00000001
00000010
,  // measure 56
00000001
00000000
00000010
00001000
00000000
00011000
00000000
00100000
,  // measure 57
10000000
00100000
00010000
00000000
00011000
00000000
00101000
00000000
,  // measure 58
00001000
00000000
00010000
00100000
00000000
10010000
00000000
01000000
,  // measure 59
10000000
00100000
00010000
00000000
00000000
00000000
00011000
00000000
,  // measure 60
00010010
00000000
00010000
00001000
00000000
00000110
00000000
00001001
,  // measure 61
00000000
00000001
00000010
00000000
00001001
00000000
00000011
00000000
,  // measure 62
00001010
00000000
00000001
00000010
00000000
00001000
00010000
00001000
,  // measure 63
00010000
00000000
00100000
00000000
10000000
00000000
00000000
00000000
10010000
00000000
00000000
00100000
01000000
00000000
00100000
00000000
,  // measure 64
10000000
00000000
01000000
00000000
10000000
00000000
00010000
00100000
00010000
00100000
00010000
00000000
10000000
00000000
00100000
00000000
,  // measure 65
00010000
00000000
00001000
00000000
00000100
00000000
00000010
00010000
00000010
00010000
00000010
00000000
00001000
00000000
00000100
00000000
,  // measure 66
00000010
00000000
00000001
00000000
00000010
00000000
00001000
00010000
00001000
00010000
00001000
00000000
00000010
00000000
00000001
00000000
,  // measure 67
00000010
00002000
00010000
00000000
00000000
00000000
00003000
00000000
,  // measure 68
00001000
00000000
00000010
00000000
00000001
00000000
00000100
00000010
00000100
00000010
00000100
00000000
00001000
00000000
00010000
00000000
,  // measure 69
00100000
00000000
10000000
00000000
00010000
00000000
10000000
01000000
10000000
01000000
10000000
00000000
01000000
00000000
00010000
00000000
,  // measure 70
00001000
00000000
00000100
00000000
00001000
00000000
00010000
00001000
00010000
00001000
00010000
00000000
00000010
00000000
00000001
00000000
,  // measure 71
00000010
00000000
00001000
00000000
00000100
00000000
00010000
00000010
00001000
00000010
00010000
00000000
00001000
00000000
00010000
00000000
,  // measure 72
00001000
00010000
00000000
00000000
00000000
00000000
00000000
00000000
00000000
00000000
00000000
00000000
00001000
00010000
00000000
00000000
00000000
00000000
00000000
00000000
00000000
00000000
00000000
00000000
00000000
00000000
00000000
00000000
00000000
00000000
00000000
00000000
,  // measure 73
00001000
00000010
00000000
00000000
00000000
00000000
00000000
00000000
00000000
00000000
00000000
00000000
00000000
00000000
00000000
00000000
00000100
00000001
00000000
00000000
00000000
00000000
00000000
00000000
00000000
00000000
00000000
00000000
00000000
00000000
00000000
00000000
,  // measure 74
00000001
00001000
00000000
00000000
00000000
00000000
00000000
00000000
00000000
00000000
00000000
00000000
00001000
01000000
00000000
00000000
00000000
00000000
00000000
00000000
00000000
00000000
00000000
00000000
00000000
00000000
00000000
00000000
00000000
00000000
00000000
00000000
,  // measure 75
00010000
00000010
00000000
00000000
00000000
00000000
00000000
00000000
00000000
00000000
00000000
00000000
00000000
00000000
00000000
00000000
00000000
00000000
00000000
00000000
00000000
00000000
00000000
00000000
00010100
00000000
00000000
00000000
00000000
00000000
00000000
00000000
,  // measure 76
01010000
00000000
00000000
00000000
;
