#TITLE:DYNAMITE RAVE;
#SUBTITLE:(B4 ZA BEAT MIX);
#ARTIST:NAOKI;
#TITLETRANSLIT:;
#SUBTITLETRANSLIT:;
#ARTISTTRANSLIT:;
#CREDIT:;
#BANNER:DYNAMITE RAVE(B4 ZA BEAT MIX).png;
#BACKGROUND:DYNAMITE RAVE(B4 ZA BEAT MIX)-bg.png;
#LYRICSPATH:;
#CDTITLE:./CDTITLES/DDRMAX2 -Dance Dance Revolution 7thMIX-.PNG;
#MUSIC:DYNAMITE RAVE(B4 ZA BEAT MIX).mp3;
#OFFSET:-0.064;
#SAMPLESTART:49.440;
#SAMPLELENGTH:15.000;
#SELECTABLE:YES;
#DISPLAYBPM:170.000;
#BPMS:0.000=170.020;
#STOPS:;
#BGCHANGES:-0.056=DYNAMITE RAVE (B4 Za Beat Mix).avi=1.000=1=1=0,
244.750=DYNAMITE RAVE (B4 ZA BEAT MIX)-bg.png=1.000=0=0=1,
99999=-nosongbg-=1.000=0=0=0 // don't automatically add -songbackground-
;

//---------------dance-single - ----------------
#NOTES:
     dance-single:
     :
     Beginner:
     1:
     0.183,0.313,0.148,0.000,0.000:
0000
0000
0000
0000
,
0000
0000
0000
0000
,
0010
0000
0000
0000
,
1000
0000
0000
0000
,
0100
0000
0000
0000
,
0001
0000
0000
0000
,
0010
0000
0000
0001
,
0001
0000
0000
0010
,
0000
0001
0000
0001
,
0000
0001
0000
0001
,
0000
0000
0000
0000
,
0000
0000
0000
0000
,
0000
0000
0000
0000
,
0000
0000
0000
0000
,
0000
0000
0000
0000
,
0000
0000
0000
0000
,
0000
0000
0000
0000
,
0000
0000
0000
0000
,
0100
0000
0000
0000
,
0010
0010
0000
0100
,
0000
0001
0000
1000
,
0000
0100
0000
0100
,
0000
0010
0000
0010
,
0000
0010
0000
0010
,
0000
0100
0000
0100
,
0000
0100
0000
0100
,
0000
0001
0000
1000
,
0000
1001
0000
0001
,
0000
0010
0000
0100
,
0000
0100
0000
0100
,
0000
1000
0000
0010
,
0010
0000
0010
0000
,
0010
0010
0010
0010
,
0000
0010
0000
0010
,
0000
0100
0000
0100
,
0000
0001
0000
1000
,
0000
1000
0000
0000
,
0000
0001
0000
0000
,
0000
1000
0000
1001
,
0000
0110
0000
0000
,
0001
0000
0000
0010
,
0000
0010
0000
0010
,
0000
0100
0000
0000
,
1001
1001
1001
1001
,
0000
1001
0000
1000
,
0000
0100
0000
0100
,
0000
0010
0000
0010
,
0000
0001
0000
1000
,
0000
0100
0000
0100
,
0000
0010
0000
0100
,
0000
0100
0000
0100
,
0000
0001
0000
1000
,
0000
1000
0000
0001
,
0000
0001
0000
0100
,
0000
0100
0000
0010
,
0000
0001
0000
1000
,
0000
0110
0110
0000
,
0010
0000
0001
0000
,
0100
0000
0001
0000
,
1001
0000
1001
0000
,
0001
0000
1001
0000
,
0001
0000
0000
0000
;

//---------------dance-single - ----------------
#NOTES:
     dance-single:
     :
     Challenge:
     7:
     0.543,0.662,0.400,0.057,0.057:
0000
0000
0000
0000
,
0000
0000
0000
0000
,
0020
0000
0000
0030
,
2000
0000
0000
3000
,
0200
0000
0000
0300
,
0002
0000
0000
0003
,
0010
0000
1000
0000
0001
0000
0100
0010
0000
0010
0100
0000
0001
0000
1000
0000
,
0001
0000
0100
0000
0010
0000
1000
0001
0000
0001
1000
0000
0010
0000
0100
0000
,
0001
0000
0100
0000
0001
0000
0010
0100
0000
0100
0010
0000
0001
0000
0100
0000
,
0010
0000
1000
0000
0001
0000
1000
0100
0000
0100
1000
0000
0001
0000
0000
0000
,
0000
0010
0000
0010
0000
1000
0000
0001
,
0000
0100
0000
0100
0000
0001
0000
0010
,
0000
0001
0000
0001
0000
0100
0000
0010
,
0000
1000
0000
1000
0000
0100
0000
0010
,
0000
1001
0000
0010
0000
0100
0000
0001
,
0000
1010
0000
0100
0000
0010
0000
1000
,
0000
0110
0000
0001
0000
0010
0000
1000
,
0000
0101
0000
0010
0000
1000
0000
0001
,
0200
0000
0000
0300
,
0010
1000
0010
0000
0100
0001
0100
0000
,
0010
0100
0001
0000
0010
0100
1000
0000
,
0001
1000
0100
0000
1000
0001
0100
0000
,
0001
1000
0010
0000
1000
0001
0010
0000
,
0001
0100
0010
0000
1000
0100
0010
0000
,
0001
0010
0100
0000
1000
0010
0100
0000
,
0010
1000
0100
0000
0010
0001
0100
0000
,
0001
0010
0001
0000
1000
0100
1000
0000
,
0110
0000
1001
0000
1000
0100
0001
0000
,
0100
1000
0010
0000
1000
0001
0100
0000
,
0010
0001
0100
0000
0010
0001
0100
0000
,
0001
0100
1000
0000
0100
0001
0010
0000
,
0010
1000
0001
0000
0010
0001
1000
0000
,
0010
1000
0010
0000
0010
0001
0010
0000
,
0001
0100
0010
0000
1000
0100
0010
0000
,
0001
1000
0100
0000
1000
0001
0100
0000
,
1010
0001
0011
1000
,
0010
0000
1000
0001
0000
1000
0000
0010
,
0000
0100
0001
0000
1000
0100
0000
0010
,
0000
0001
1000
0000
0110
0000
1001
0000
,
0000
0110
1001
0000
,
0001
1000
0100
0010
0000
0000
0010
0000
,
0001
1000
0010
0100
0001
0100
0010
1000
,
0001
0100
0010
0000
,
1001
1001
1001
1001
,
0110
0000
1001
0000
1000
0001
1000
0000
,
0010
1000
0100
0000
0010
0001
0100
0000
,
0001
1000
0010
0000
1000
0001
0010
0000
,
0100
0010
0001
0000
0100
0010
1000
0000
,
0001
1000
0100
0000
1000
0001
0100
0000
,
0010
0100
0010
0000
0100
0010
0100
0000
,
0010
1000
0100
0000
0010
0001
0100
0000
,
0001
1000
0001
0000
1000
0001
1000
0000
,
0110
1000
0110
0001
,
0010
0001
1000
0100
,
1000
0100
1001
0010
,
0100
0001
0110
1000
,
0001
0110
0110
1000
,
0010
1000
0001
0100
,
0011
1100
0101
1010
,
1001
0110
1001
0110
,
0001
0000
1000
0000
0000
0110
0000
0000
1001
0000
0000
0110
0000
0000
1000
0000
,
0001
0000
0000
0000
;

//---------------dance-double - ----------------
#NOTES:
     dance-double:
     :
     Challenge:
     8:
     0.516,0.557,0.320,0.091,0.023:
00000000
00000000
00000000
00000000
,
00000000
00000000
00000000
00000000
,
00000020
00000000
00000000
00000030
,
00002000
00000000
00000000
00003000
,
00020000
00000000
00000000
00030000
,
00200000
00000000
00000000
00300000
,
02000000
00000000
00010000
03010000
,
00200000
00000000
00001000
00301000
,
00010000
00000100
00010000
00001000
,
00000100
00000000
00001000
00000000
00010000
00000000
00001000
00010000
00000000
00010000
00001000
00000000
00010000
00000000
00000000
00000000
,
00000000
00100000
00000000
10000000
00000000
01000000
00000000
00010000
,
00000000
00001000
00000000
00000100
00000000
00000001
00000000
00000010
,
00000000
00000010
00000000
00000001
00000000
00000100
00000000
00001000
,
00000000
00010000
00000000
01000000
00000000
10000000
00000000
00100000
,
00000000
00100000
00000000
10000000
00000000
00100000
00000000
01000000
,
00000000
00010000
00000000
10000000
00000000
01000000
00000000
00010000
,
00000000
00001000
00000000
00000100
00000000
00000001
00000000
00001000
,
00000000
00000100
00000000
00000010
00000000
00000001
00000000
00000010
,
00000200
00000000
00000000
00000300
,
00001000
00000001
00000100
00000000
00000001
00001000
00000100
00000000
,
00000010
00000001
00000100
00000000
00000001
00000100
00001000
00000000
,
00010000
01000000
10000000
00000000
00100000
10000000
01000000
00000000
,
10000000
00010000
01000000
00000000
00010000
10000000
01000000
00000000
,
00010000
00001000
00000100
00000000
00001000
00010000
01000000
00000000
,
00010000
00001000
00000010
00000000
00001000
00010000
00100000
00000000
,
10000000
00100000
00010000
00000000
00001000
00000010
00000001
00000000
,
00000001
00000100
00001000
00000000
00010000
01000000
10000000
00000000
,
01010000
00000000
01010000
00000000
10000000
01000000
00010000
00000000
,
00001000
00000100
00000001
00000000
00000010
00000001
00000100
00000000
,
00000010
00001000
00000100
00000000
00001000
00000001
00000100
00000000
,
00000010
00000100
00001000
00000000
00010000
00100000
01000000
00000000
,
00010000
10000000
01000000
00000000
10000000
00010000
01000000
00000000
,
00100000
10000000
01000000
00000000
00010000
00001000
00000100
00000000
,
00001000
00010000
01000000
00000000
00100000
00010000
01000000
00000000
,
00100000
00010000
00001000
00000000
00001010
00000000
00001001
00000000
,
00001000
00001100
00010000
01010000
,
00100000
00000000
10000000
01000000
00000000
00010000
00000000
00001000
,
00000000
00000100
00000001
00000000
00000010
00000001
00000000
00001000
,
00000000
00000001
00000100
00000000
00001000
00000000
00010000
00000000
,
00000000
00010010
00101000
00000000
,
00010000
10000000
01000000
00010000
00000000
00000000
00001000
00000000
,
00010000
00000100
00010000
00001000
00100000
00001000
00010000
00001000
,
00000100
00000001
00001001
00000000
,
00000120
00000100
00000100
00000130
,
00000001
00001000
00000100
00000000
00000010
00000001
00000100
00000000
,
00001000
00010000
00100000
00000000
10000000
00010000
01000000
00000000
,
00100000
10000000
01000000
00000000
00010000
00001000
00010000
00000000
,
00001000
00000100
00000010
00000000
00001000
00000001
00000010
00000000
,
00000100
00001000
00000100
00000000
00010000
00001000
00010000
00000000
,
00001000
00100000
00001000
00000000
01000000
00010000
01000000
00000000
,
00100000
10000000
01000000
00000000
00100000
00010000
01000000
00000000
,
00010000
10000000
01000000
00000000
00010000
00001000
00000100
00000000
,
00000001
00001100
00000010
00001100
,
00000001
00001010
00000010
00001001
,
00000010
00001100
00000110
00001001
,
00001010
00011000
00110000
10010000
,
01000000
00110000
01001000
00110000
,
00010100
00101000
00010100
00001010
,
00000010
00001000
00000100
00010000
00001000
00100000
00010000
10000000
,
01000000
00010000
00001000
00000100
,
00000001
00000000
00001000
00000000
00000000
00000001
00000000
00000000
00000100
00000000
00000000
00001000
00000000
00000000
00010000
00000000
,
01000000
00000000
00000000
00000000
;

//---------------dance-single - ----------------
#NOTES:
     dance-single:
     :
     Hard:
     9:
     0.775,0.731,0.400,0.206,0.320: // measure 1
0000
0000
0000
0000
,  // measure 2
2002
0000
0000
3003
,  // measure 3
0100
0010
0100
0001
1000
0100
0001
0100
,  // measure 4
1000
0010
0001
0010
1000
0100
0010
0100
,  // measure 5
1000
0010
0100
0001
0100
1000
0100
0010
,  // measure 6
1000
0100
1000
0001
0010
0101
0000
0000
,  // measure 7
0001
0100
0010
0100
0001
0010
0100
1000
,  // measure 8
0001
0010
0100
0001
0100
1000
0010
0100
,  // measure 9
0001
1000
0100
0010
1000
0010
0001
1000
,  // measure 10
1001
0000
0000
0000
1001
0000
0000
0000
1000
0001
1000
0001
1000
0001
1000
0001
,  // measure 11
0100
0000
0001
0000
0010
0000
0001
0100
0000
0001
0010
0000
0100
0000
1000
0000
,  // measure 12
0010
0000
1000
0000
0100
0000
1000
0010
0000
1000
0100
0000
0010
0000
0001
0000
,  // measure 13
0100
0000
1000
0000
0100
0000
0001
1000
0000
0100
1000
0000
0001
0000
0010
0000
,  // measure 14
0100
0000
0001
0000
0100
0000
1000
0001
0000
0100
0001
0000
0000
0000
0000
0000
,  // measure 15
0001
0000
0100
0000
0010
0000
1000
0100
0000
0100
1000
0000
0001
0000
0010
0000
,  // measure 16
0100
0000
1000
0000
0100
0000
0010
0001
0000
0001
0100
0000
0010
0000
0001
0000
,  // measure 17
0010
0000
1000
0000
0100
0000
0001
0100
0000
0100
1000
0000
0010
0000
0100
0000
,  // measure 18
0001
0000
0010
0000
0100
0000
0010
1000
0000
1000
0010
0000
0001
0000
1000
0000
,  // measure 19
0202
0000
0000
0303
,  // measure 20
1000
0000
0100
0000
1000
0000
0001
0000
0100
0001
0100
0001
0100
0000
0010
0000
,  // measure 21
1000
0100
0001
0100
1000
0001
1001
0000
,  // measure 22
0001
0000
0000
0100
0000
0000
0101
0000
0000
0000
0000
0000
1000
0000
0100
0000
0001
0000
1000
0000
0000
0000
0000
0000
,  // measure 23
0001
0100
1000
0001
0100
1000
0101
0000
,  // measure 24
1000
0000
0010
0000
0100
0000
0001
1000
0001
1000
0001
0000
0010
0000
0000
0100
,  // measure 25
1000
0000
0001
0000
0100
0000
0010
1000
0001
0000
0011
0000
0110
0000
0000
1000
,  // measure 26
0100
0000
0010
0000
0011
0000
0000
0001
0100
0000
0010
0000
1010
0000
0000
0000
,  // measure 27
0100
0000
0001
0000
1000
0000
0010
0000
0001
0000
0010
0000
1000
0000
0100
1000
,  // measure 28
0001
0000
0100
0000
0001
0000
1000
0000
0100
0000
0000
0010
0000
0000
0001
0000
,  // measure 29
0100
0000
1000
0100
0001
0100
1000
0010
,  // measure 30
0100
0000
1000
0000
0100
0000
0001
0000
0010
0000
0000
1000
0000
0000
0100
0000
,  // measure 31
0001
0000
0001
0100
1000
0100
0010
1000
,  // measure 32
0001
0000
0010
0000
0100
0000
1000
0000
0101
0000
0000
1001
0000
0000
0101
0000
,  // measure 33
1001
0000
0100
0010
0001
0100
0010
1000
,  // measure 34
0100
0000
0001
0000
0100
0000
1000
0000
0011
0000
0000
0110
0000
0000
1100
0000
,  // measure 35
1001
0000
0000
0000
0101
0000
0000
0000
1000
0001
0100
0001
0100
0000
0010
0000
,  // measure 36
1000
0100
0000
0100
1000
0001
0000
0001
,  // measure 37
0100
1000
0100
0010
1000
0100
0001
0100
,  // measure 38
2000
0000
3200
0000
,  // measure 39
0320
0000
0032
0000
,  // measure 40
2003
0000
3200
0000
,  // measure 41
0302
0000
0000
0000
0103
1000
0001
0100
,  // measure 42
2000
0000
3200
0000
,  // measure 43
0320
0000
2030
3000
,  // measure 44
1100
0110
0011
0101
,  // measure 45
1001
0000
0000
0000
1001
0000
0000
0000
0001
0100
0010
1000
0001
0000
0000
0000
,  // measure 46
1000
0100
0010
0100
1000
0000
0000
0000
0001
0000
1000
0000
0100
0000
0000
0000
,  // measure 47
0001
0100
1000
0001
0100
0000
0000
0000
0010
0000
1000
0000
0010
0000
0000
0000
,  // measure 48
0100
0000
0001
0000
0000
1000
0000
0000
0000
0000
0001
0000
0000
0000
0000
0000
0100
0000
0000
0000
1000
0000
0000
0000
0100
0000
0000
0000
0000
0000
0000
0000
,  // measure 49
0010
0000
1000
0000
0100
0000
0000
0000
0011
0000
0001
1000
0100
0010
0100
0000
,  // measure 50
1000
0001
0100
0010
1000
0001
0101
0000
,  // measure 51
0010
0000
1000
0000
0100
0000
0001
0000
0100
1000
0001
0100
1000
0000
0000
0000
,  // measure 52
0100
0001
0000
1000
0010
0000
1000
0100
0010
0000
0001
0100
0010
0000
1000
0000
,  // measure 53
0001
0010
0000
0010
0100
1000
0000
1000
,  // measure 54
0001
0100
0010
0100
0001
1000
0100
0010
,  // measure 55
1000
0010
0001
0100
0010
1000
0001
0100
,  // measure 56
1000
0100
0010
1000
0001
0100
0101
1010
,  // measure 57
0011
0000
1000
0100
0010
0001
0100
0010
,  // measure 58
0001
0010
1000
0100
0001
0100
0010
0001
,  // measure 59
1000
0010
0100
0001
0010
0001
0100
1000
,  // measure 60
0002
2003
3020
0000
,  // measure 61
0130
0000
0000
0001
0000
0000
1000
0000
0010
0100
0000
0000
0011
0000
0101
0000
,  // measure 62
1100
0000
0000
0000
;
