#TITLE:DYNAMITE RAVE;
#SUBTITLE:(super euro version);
#ARTIST:NAOKI with Y&Co.;
#TITLETRANSLIT:;
#SUBTITLETRANSLIT:;
#ARTISTTRANSLIT:;
#CREDIT:;
#BANNER:DYNAMITE RAVE (super euro version).png;
#BACKGROUND:DYNAMITE RAVE (super euro version)-bg.png;
#LYRICSPATH:;
#CDTITLE:./CDTITLES/ParaParaPARADISE.PNG;
#MUSIC:DYNAMITE RAVE (super euro version).mp3;
#OFFSET:-0.061;
#SAMPLESTART:19.226;
#SAMPLELENGTH:15.000;
#SELECTABLE:YES;
#BPMS:0.000=150.000;
#STOPS:;
#BGCHANGES:;

//---------------dance-single - ----------------
#NOTES:
     dance-single:
     :
     Easy:
     4:
     0.286,0.304,0.069,0.069,0.000:
0000
0000
0000
0000
,
0000
0000
0000
0000
,
0000
0000
0000
0000
,
0000
0000
0000
0000
,
0001
0100
1000
0000
,
0010
0100
1000
0000
,
0001
0100
0010
0000
,
2002
0000
0000
3003
,
0010
0010
0100
0100
,
0010
1000
0100
0001
,
0100
0100
0010
0010
,
0100
0001
0010
0001
,
1000
1000
0001
0001
,
0100
0001
0010
1000
,
0001
0001
1000
1000
,
0010
1000
0100
0001
,
0100
1000
0001
0000
,
0100
0010
1000
0000
,
0100
0001
0010
0000
,
0100
0001
1000
0000
,
0001
0100
1000
0000
,
0010
0100
1000
0000
,
0001
0100
0010
0000
,
1000
0010
0001
0000
,
2002
0000
0000
3003
,
0010
0100
0010
0000
,
0001
0010
0100
1000
,
0010
1000
0001
0000
,
0001
1000
0010
0100
,
1000
0001
0100
0000
,
0010
0001
0100
0001
,
0010
0100
1000
0000
,
0001
1000
0100
1001
,
0100
0000
0001
0000
,
0010
1000
0100
0000
,
1000
0100
0001
0100
,
1000
0010
0001
0010
,
0100
0010
0100
0000
,
0010
1000
0100
0000
,
0010
0001
0010
1000
,
0001
1000
1001
0000
,
0001
0000
0010
0000
,
1000
0000
0100
0000
,
0001
0000
0010
0000
,
0100
0000
2002
3003
,
0010
0010
0100
0100
,
0010
1000
0100
0001
,
0100
0100
0010
0010
,
0100
0001
0010
0001
,
1000
1000
0001
0001
,
0100
0001
0010
1000
,
0001
0001
1000
1000
,
0010
1000
0100
0010
,
1001
0000
0000
0000
;

//---------------dance-single - ----------------
#NOTES:
     dance-single:
     :
     Medium:
     7:
     0.423,0.426,0.195,0.011,0.092:
0000
0000
0000
0000
,
0000
0000
0000
0000
,
0000
0000
0000
0000
,
0000
0000
0000
0000
,
0001
0000
0100
0010
0000
1000
0100
0000
,
0001
0000
0100
1000
0000
0001
0100
0000
,
0001
0000
0010
0001
0000
0100
0010
0000
,
1000
0001
0110
1000
,
0010
0000
0000
0001
0000
0000
0100
0000
0010
0000
0000
0000
0001
0000
0000
0000
,
0010
0000
0000
1000
0000
0000
0001
0000
0010
0000
0000
0000
0001
0000
0000
0000
,
0100
0000
0000
1000
0000
0000
0100
0000
0010
0000
0000
0000
1000
0000
0000
0000
,
0100
0000
0000
1000
0000
0000
0010
0000
0100
0000
0000
0000
1001
0000
0000
0000
,
1000
0000
0000
0100
0000
0000
0010
0000
0001
0000
0000
0000
0010
0000
0000
0000
,
0100
0000
0000
0001
0000
0000
0100
0000
1000
0000
0000
0000
0010
0000
0000
0000
,
1000
0000
0000
0100
0000
0000
0010
0000
0001
0000
0000
0000
0100
0000
0000
0000
,
0010
0000
0000
1000
0000
0000
0001
0000
0010
0000
0000
0000
1001
0000
0000
0000
,
0100
1000
0000
0001
0000
0010
0000
1000
,
0100
0010
0000
0100
0000
1000
0000
0001
,
0100
0001
0000
0010
0000
1000
0000
0010
,
0100
0001
0000
1000
0000
0100
0010
0000
,
0001
0100
0000
1000
0000
0100
0000
0001
,
0010
0100
0000
1000
0000
0001
0000
0010
,
0001
0100
0000
0001
0000
0010
0000
0100
,
1000
0010
0000
1000
0000
0001
0100
0000
,
1002
0010
0100
0013
,
1000
0000
0100
0000
0010
1000
0010
0000
,
0001
0000
0100
0000
0010
1000
0100
0000
,
0010
0000
1000
0000
0001
0100
0010
0000
,
0100
0000
1000
0000
0010
0001
0100
0000
,
1000
0000
0001
0000
0010
0100
0001
0000
,
0010
0000
0001
0000
0100
0001
1000
0000
,
0010
0000
0100
0000
1000
0100
0010
0000
,
0001
1000
0100
0000
0110
0000
1001
0000
,
0100
0001
1000
0000
0001
0100
0010
0000
,
0001
0000
1000
0001
0100
0000
1010
0000
,
1000
0100
1000
0000
0001
0100
0001
0000
,
1000
0010
1000
0000
0100
0000
1001
0000
,
0010
1001
0110
0001
,
0010
0000
1000
0010
0000
0100
0001
0000
,
0010
0001
0100
0000
0010
1000
0100
0000
,
1001
0101
1100
0010
,
0001
0000
0100
0000
0000
0010
0000
1000
,
0000
0100
0000
0010
0000
1000
0000
0000
,
0000
0001
0001
0000
0000
0010
0010
0000
,
0100
0000
0010
1000
0000
1001
0000
0000
,
0010
0000
0000
0001
0000
0000
0100
0000
0010
0000
0000
0000
0001
0000
0000
0000
,
0010
0000
0000
1000
0000
0000
0001
0000
0010
0000
0000
0000
0001
0000
0000
0000
,
0100
0000
0000
1000
0000
0000
0100
0000
0010
0000
0000
0000
1000
0000
0000
0000
,
0100
0000
0000
1000
0000
0000
0010
0000
0100
0000
0000
0000
1001
0000
0000
0000
,
1000
0000
0000
0100
0000
0000
0010
0000
0001
0000
0000
0000
0010
0000
0000
0000
,
0100
0000
0000
0001
0000
0000
0100
0000
1000
0000
0000
0000
0010
0000
0000
0000
,
1000
0000
0000
0100
0000
0000
0010
0000
0001
0000
0000
0000
0100
0000
0000
0000
,
0010
0000
0000
1000
0000
0000
0001
0000
0010
0000
0000
0000
1001
0000
0000
0000
,
0110
0000
0000
0000
;

//---------------dance-single - ----------------
#NOTES:
     dance-single:
     :
     Hard:
     8:
     0.551,0.518,0.172,0.126,0.167:
0000
0000
0000
0000
,
0000
0000
0000
0000
,
0000
0000
0000
0000
,
0000
0000
0000
0000
,
0010
0000
1000
0000
0100
0000
0010
0100
0000
0000
1000
0000
0010
0000
0100
0000
,
0001
0000
0010
0000
0001
0000
0100
0010
0000
0000
0100
0000
0001
0000
0000
0000
,
1000
0000
0100
0000
0010
0000
0001
1000
0000
0000
0010
0000
0100
0000
0010
0000
,
1000
0000
0001
0000
0110
0000
1000
0001
,
0010
0000
0000
0001
0000
0000
0100
0000
1000
0000
0100
0000
0001
0000
0010
0000
,
0100
0000
0000
1000
0000
0000
0001
0000
0100
0000
0010
0000
1000
0000
0000
0000
,
0100
0000
0000
1000
0000
0000
0010
0000
0100
0000
0001
0000
0010
0000
0001
0000
,
0100
0000
0000
0001
0000
0000
0010
0000
1100
0000
0000
0000
0101
0000
0000
0000
,
1000
0000
0000
0010
0000
0000
0001
0000
1000
0000
0100
0000
0001
0000
0010
0000
,
0100
0000
0000
0001
0000
0000
0100
0000
1000
0000
0001
0000
0010
0000
0000
0000
,
0001
0000
0000
0100
0000
0000
0010
0000
1000
0000
0001
0000
0010
0000
0100
0000
,
0010
0000
0000
0001
0000
0000
1000
0000
0110
0000
0000
0000
1001
0000
0000
0000
,
0010
2000
0000
3001
0100
0020
0000
1030
,
0100
0020
0000
0130
1000
0010
0001
0010
,
1000
0002
0000
0013
0100
2000
0000
3010
,
0100
0002
0000
0013
0100
0010
0001
0000
,
1000
0200
0000
1300
0010
0200
0000
0301
,
0010
0200
0000
1300
0010
1000
0100
0010
,
0001
0200
0000
0301
1000
0020
0000
0130
,
0001
0100
0010
1000
0001
0100
1000
0100
,
0001
0000
0000
0000
1000
0000
0000
0000
0110
0000
0000
1000
0100
0000
0010
0000
,
0001
0000
0000
0000
0100
0000
0000
0000
0010
0100
0010
0000
1000
0000
0000
0000
,
0001
0000
1000
0000
0100
0000
0000
0000
1000
0010
1000
0000
0100
0000
0000
0000
,
0010
0001
1000
0000
0100
1000
0010
0000
,
0100
0000
0001
0000
1000
0000
0000
0000
0001
0010
0001
0000
0100
0000
0001
0000
,
1000
0000
0000
0000
0001
0000
0000
0000
0100
0010
0100
0000
0001
0000
0000
0000
,
1000
0000
0100
0000
0010
0000
0000
0000
0001
0010
0001
0000
1000
0000
0000
0000
,
0010
1000
0100
0000
0010
0001
0100
0000
,
0001
1000
0100
0001
0100
1000
0010
0000
,
0100
0001
0000
1000
0001
0100
0000
0010
,
1000
0100
1000
0010
0000
1000
0001
0010
,
0000
0100
1000
0000
0001
0100
0000
1010
,
0000
0100
0001
0010
0001
0000
1000
0100
,
0010
0000
1001
0000
0010
0001
0000
1000
,
0010
0100
0010
1000
0000
0100
0001
0000
,
0100
0000
1000
0000
0001
0000
0100
0000
0010
0000
0000
0100
0001
0000
0010
0000
,
1000
0001
0100
1000
0010
0000
0101
0000
,
0010
1000
0100
0000
0000
0010
0001
1000
,
0000
0000
0100
0000
0010
0000
0000
0100
0000
0000
1000
0000
0000
0001
0000
0000
,
0000
0100
0010
0000
0100
0001
0000
0010
,
0100
0000
1000
0000
0010
0000
0000
1000
0000
0000
1001
0000
0000
0000
0000
0000
,
0010
0000
0000
0001
0000
0000
0100
0000
1000
0000
0100
0000
0001
0000
0010
0000
,
0100
0000
0000
1000
0000
0000
0001
0000
0100
0000
0010
0000
1000
0000
0000
0000
,
0100
0000
0000
1000
0000
0000
0010
0000
0100
0000
0001
0000
0010
0000
0001
0000
,
0100
0000
0000
0001
0000
0000
0010
0000
1100
0000
0000
0000
0101
0000
0000
0000
,
1000
0000
0000
0010
0000
0000
0001
0000
1000
0000
0100
0000
0001
0000
0010
0000
,
0100
0000
0000
0001
0000
0000
0100
0000
1000
0000
0001
0000
0010
0000
0000
0000
,
0001
0000
0000
0100
0000
0000
0010
0000
1000
0000
0001
0000
0010
0000
0100
0000
,
0010
0000
0000
0001
0000
0000
1000
0000
0110
0000
0000
0000
1100
0000
0000
0000
,
0101
0000
0000
0000
;

//---------------dance-double - ----------------
#NOTES:
     dance-double:
     :
     Easy:
     4:
     0.240,0.274,0.046,0.069,0.000:
00000000
00000000
00000000
00000000
,
00000000
00000000
00000000
00000000
,
00000000
00000000
00000000
00000000
,
00000000
00000000
00000000
00000000
,
01000000
00010000
00100000
00000000
,
01000000
00100000
10000000
00000000
,
01000000
00010000
00001000
00000000
,
00022000
00000000
00000000
00033000
,
00000100
00000010
00000100
00000000
,
00000010
00000001
00000100
00000000
,
00000010
00001000
00000100
00000000
,
00000001
00000100
00001000
00000000
,
00010000
00001000
00010000
00000000
,
00100000
10000000
01000000
00000000
,
00100000
01000000
10000000
00000000
,
00010000
01000000
00100000
00000000
,
10000000
00000000
01000000
00000000
,
00010000
00001000
00010000
00000000
,
00001000
00000000
00000010
00000000
,
00000001
00001000
00000001
00000000
,
00000100
00000000
00000010
00000000
,
00000100
00000001
00001000
00000000
,
00000010
00000000
00001000
00000000
,
00000001
00000100
00001000
00000000
,
00022000
00000000
00000000
00033000
,
00010000
00010000
00100000
00000000
,
10000000
10000000
01000000
00000000
,
00100000
00010000
10000000
00000000
,
01000000
10000000
00100000
00000000
,
00010000
00010000
00001000
00000000
,
00000010
00000010
00000001
00000000
,
00001000
00000000
00000001
00000000
,
00001000
00000010
00000100
00000001
,
00000010
00000000
00001000
00000000
,
00010000
00010000
00001000
00000000
,
00010000
01000000
10000000
00000000
,
00100000
10000000
00010000
00000000
,
00100000
01000000
00100000
00000000
,
01000000
10000000
00100000
00000000
,
10000000
10000000
00010000
00010000
,
00100000
01000000
00100000
00000000
,
10000000
00000000
01000000
00000000
,
00010000
00000000
00001000
00000000
,
00000010
00000000
00000001
00000000
,
00000100
00000000
00002002
00003003
,
00000100
00000010
00000100
00000000
,
00000010
00000001
00000100
00000000
,
00000010
00001000
00000100
00000000
,
00000001
00000100
00001000
00000000
,
00010000
00001000
00010000
00000000
,
00100000
10000000
01000000
00000000
,
00100000
01000000
10000000
00000000
,
00010000
01000000
00100000
00000000
,
10010000
00000000
00000000
00000000
;

//---------------dance-double - ----------------
#NOTES:
     dance-double:
     :
     Medium:
     6:
     0.397,0.365,0.207,0.023,0.000:
00000000
00000000
00000000
00000000
,
00000000
00000000
00000000
00000000
,
00000000
00000000
00000000
00000000
,
00000000
00000000
00000000
00000000
,
00001000
00000100
00000010
00000001
,
00001000
00000010
00001000
00000001
,
00000010
00000001
00000100
00001000
,
00022000
00000000
00033000
01000000
,
00100000
00000000
00010000
00000000
00100000
01000000
10000000
00000000
,
00100000
00000000
10000000
00000000
00010000
01000000
00100000
00000000
,
10000000
00000000
00100000
00000000
00010000
00001000
00010000
00000000
,
00001000
00000010
00000110
00001001
,
00000100
00000000
00000010
00000000
00001000
00000100
00000010
00000000
,
00000100
00000000
00001000
00000000
00000001
00000100
00000010
00000000
,
00001000
00000000
00010000
00000000
01000000
00100000
10000000
00000000
,
01000000
00010000
01100000
10010000
,
00100000
10000000
00000000
01000000
00000000
00010000
00000000
00001000
,
00000000
00000010
00000000
00000100
00000000
00001000
00000000
00000001
,
00000100
00000001
00000000
00000010
00000000
00000001
00000000
00001000
,
00000000
00000010
00000000
00000100
00000000
00000001
00000010
00000000
,
00000001
00000100
00000000
00001000
00000000
00010000
00000000
00100000
,
00000000
10000000
00000000
00010000
00000000
01000000
00000000
00100000
,
01000000
00010000
00000000
10000000
00000000
01000000
00000000
00100000
,
00000000
01000000
00000000
00010000
00000000
01000000
10000000
00000000
,
00100000
00000000
00010000
00000000
00011000
00000000
00000010
00001000
,
00000010
00000000
00000001
00000000
00001000
00000001
00000100
00000000
,
00000010
00000000
00000100
00000000
00000001
00000010
00000100
00000000
,
00000010
00000000
00000001
00000000
00001000
00000100
00000010
00000000
,
00000100
00001000
00000001
00000110
,
00001000
00000000
00010000
00000000
00100000
01000000
10000000
00000000
,
00100000
00000000
10000000
00000000
01000000
10000000
00100000
00000000
,
10000000
00000000
00010000
00000000
01000000
00100000
01000000
00000000
,
00100000
00010000
00001000
00011000
,
00000100
00000000
00000001
00000000
00001000
00000100
00000010
00000000
,
00000100
00000000
00001000
00000000
00000001
00000010
00000100
00000000
,
00000010
00000000
00000001
00000000
00001000
00000100
00001000
00000000
,
00000001
00000000
00001000
00000000
00000010
00000100
00000001
00000000
,
00000100
00001001
00000110
00000001
,
00000010
00000000
00001000
00000000
00010000
01000000
00100000
00000000
,
00010000
00000000
10000000
00000000
00100000
01000000
00100000
00000000
,
10010000
11000000
01010000
00100000
,
00010000
00000000
00001000
00000000
00000000
00000010
00000000
00001000
,
00000000
00010000
00000000
01000000
00000000
00010000
00000000
00000000
,
00000000
00001000
00001000
00000000
00000000
00010000
00010000
00000000
,
00001000
00000000
00000100
00000000
00000000
00001001
00000000
00000000
,
00000010
00000000
00001000
00000000
00000010
00000100
00000001
00000000
,
00000010
00000000
00000001
00000000
00001000
00000100
00000010
00000000
,
00000001
00000000
00000010
00000000
00001000
00010000
00001000
00000000
,
00010000
00100000
01100000
10010000
,
01000000
00000000
00100000
00000000
00010000
01000000
00100000
00000000
,
01000000
00000000
00010000
00000000
10000000
01000000
00100000
00000000
,
00010000
00000000
00001000
00000000
00000100
00000010
00000001
00000000
,
00000100
00001000
00000110
00001001
,
00000100
00000000
00000000
00000000
;

//---------------dance-double - ----------------
#NOTES:
     dance-double:
     :
     Hard:
     8:
     0.515,0.457,0.218,0.023,0.115:
00000000
00000000
00000000
00000000
,
00000000
00000000
00000000
00000000
,
00000000
00000000
00000000
00000000
,
00000000
00000000
00000000
00000000
,
01000000
10000000
00100000
01000000
00000000
00100000
10000000
01000000
,
00010000
00001000
00000100
00000001
00000000
00000010
00000001
00000000
,
00000100
00000001
00000100
00001000
00000000
00010000
01000000
10000000
,
00100000
00000000
01000000
00000000
11000000
00000000
00010000
01000000
,
10000000
00000000
00000000
00010000
00000000
00000000
00010000
00000000
00001000
00000000
00000100
00000000
00000010
00000000
00000000
00000000
,
00000001
00000000
00000000
00001000
00000000
00000000
00001000
00000000
00010000
00000000
01000000
00000000
00100000
00000000
00000000
00000000
,
10000000
00000000
00000000
00010000
00000000
00000000
00010000
00000000
00001000
00000000
00000100
00000000
00000010
00000000
00000000
00000000
,
00000001
00000000
00000000
00001000
00000000
00000000
00000100
00000000
00011000
00000000
00000000
00000000
00110000
00000000
00000000
00000000
,
10000000
00000000
00000000
00010000
00000000
00000000
00010000
00000000
00001000
00000000
00000010
00000000
00000001
00000000
00000100
00000000
,
00000001
00000000
00000000
00001000
00000000
00000000
00001000
00000000
00010000
00000000
00100000
00000000
10000000
00000000
01000000
00000000
,
10000000
00000000
00000000
00010000
00000000
00000000
00010000
00000000
00001000
00000000
00000010
00000000
00000001
00000000
00000100
00000000
,
00000001
00000000
00000000
00001000
00000000
00000000
00000100
00000000
00011000
00000000
00000000
00000000
11000000
00000000
00000000
00000000
,
00100000
10000000
00000000
00010000
00100000
01000000
00000000
10000000
,
00100000
01000000
00000000
00010000
00100000
00001000
00010000
00000000
,
00000010
00001000
00000000
00000100
00000010
00000001
00000000
00000100
,
00000001
00000010
00000000
00001000
00010000
00001000
00000100
00000000
,
00001000
00010000
00000000
00100000
10000000
01000000
00000000
00010000
,
01000000
00100000
00000000
00010000
10000000
00100000
01000000
00000000
,
00010000
00100000
00000000
00001000
00010000
00000100
00000000
00000010
,
00000100
00001000
00000000
00000010
00010000
00000100
00001000
00000010
,
00000100
00000000
00000000
00000000
00000001
00000000
00000000
00000000
00001100
00000000
00000000
00000010
00000100
00000000
00001000
00000000
,
00000010
00000000
00000101
00000000
00001000
00010000
00001000
00000000
,
00010000
00100000
10000000
00000000
00010000
00100000
01000000
00000000
,
00010000
00001000
00100000
00000000
01000000
10000000
00100000
00000000
,
00010000
00001000
00010000
00000000
00000010
00010000
00000100
00000000
,
00001010
00000000
00000101
00000000
00000010
00000001
00000100
00000000
,
00000001
00000010
00001000
00000000
00000001
00000100
00001000
00000000
,
00000010
00001000
00010000
00000000
00001000
00010000
01000000
00000000
,
00100000
01000000
00001000
01000000
00100000
00000000
10010000
00000000
,
00100000
00010000
00000000
10000000
00010000
00100000
00000000
01000000
,
10000000
00100000
10000000
01000000
00000000
10000000
00100000
00010000
,
00000000
00001000
00010000
00000000
00000010
00001000
00000000
00000101
,
00000000
00000010
00000100
00000001
00000010
00000000
00000100
00001000
,
00000001
00000000
00000110
00000000
00000001
00000100
00000000
00001000
,
00010000
00100000
00010000
00001000
00000000
00010000
01000000
00000000
,
00100000
01000000
10000000
00000000
00100000
01000000
00001000
00000000
,
00010000
01000000
00010000
00001000
00000010
00000000
00001001
00000000
,
00001000
00000100
00000010
00000000
00000000
00000100
00001000
00000010
,
00000000
00000000
00000100
00000000
00000001
00000000
00000000
00000100
00000000
00000000
00001000
00000000
00000000
00010000
00000000
00000000
,
00000000
00100000
01000000
00000000
00001000
00010000
00000000
00000100
,
00000010
00000000
00000001
00000000
00000100
00000000
00000000
00000010
00000000
00000000
00002002
00000000
00003003
00000000
00000000
00000000
,
00000001
00000000
00000000
00001000
00000000
00000000
00001000
00000000
00010000
00000000
01000000
00000000
00100000
00000000
00000000
00000000
,
10000000
00000000
00000000
00010000
00000000
00000000
00010000
00000000
00001000
00000000
00000100
00000000
00000010
00000000
00000000
00000000
,
00000001
00000000
00000000
00001000
00000000
00000000
00001000
00000000
00010000
00000000
01000000
00000000
00100000
00000000
00000000
00000000
,
10000000
00000000
00000000
00010000
00000000
00000000
01000000
00000000
00011000
00000000
00000000
00000000
00001010
00000000
00000000
00000000
,
00000001
00000000
00000000
00001000
00000000
00000000
00001000
00000000
00010000
00000000
00100000
00000000
10000000
00000000
01000000
00000000
,
10000000
00000000
00000000
00010000
00000000
00000000
00010000
00000000
00001000
00000000
00000010
00000000
00000001
00000000
00000100
00000000
,
00000001
00000000
00000000
00001000
00000000
00000000
00001000
00000000
00010000
00000000
00100000
00000000
10000000
00000000
01000000
00000000
,
10000000
00000000
00000000
00010000
00000000
00000000
01000000
00000000
00011000
00000000
00000000
00000000
00000101
00000000
00000000
00000000
,
00001100
00000000
00000000
00000000
;

//---------------dance-single - ----------------
#NOTES:
     dance-single:
     :
     Beginner:
     1:
     0.166,0.182,0.046,0.000,0.000:
0000
0000
0000
0000
,
0000
0000
0000
0000
,
0000
0000
0000
0000
,
0000
0000
0000
0000
,
0001
0000
1000
0000
,
0010
0000
1000
0000
,
0001
0000
0010
0000
,
1001
0000
0000
0000
,
0010
0010
0000
0100
,
0000
1000
0000
0001
,
0000
0100
0000
0010
,
0000
0001
0000
0001
,
0000
1000
0000
0001
,
0000
0001
0000
1000
,
0000
0001
0000
1000
,
0000
1000
0000
0001
,
0000
1000
0000
0000
,
0100
0000
1000
0000
,
0100
0000
0010
0000
,
0100
0000
1000
0000
,
0001
0000
1000
0000
,
0010
0000
1000
0000
,
0001
0000
0010
0000
,
1000
0000
0001
0000
,
1001
0000
0000
0000
,
0010
0000
0010
0000
,
0001
0000
0100
0000
,
0010
0000
0001
0000
,
0001
0000
0010
0000
,
1000
0000
0100
0000
,
0010
0000
0100
0000
,
0010
0000
1000
0000
,
0001
0000
0100
0000
,
0100
0000
0001
0000
,
0010
0000
0100
0000
,
1000
0000
0001
0000
,
1000
0000
0001
0000
,
0100
0000
0100
0000
,
0010
0000
0100
0000
,
0010
0000
0010
0000
,
0001
0000
1001
0000
,
0001
0000
0010
0000
,
1000
0000
0100
0000
,
0001
0000
0010
0000
,
0100
0000
1001
0000
,
0010
0010
0000
0100
,
0000
1000
0000
0001
,
0000
0100
0000
0010
,
0000
0001
0000
0001
,
0000
1000
0000
0001
,
0000
0001
0000
1000
,
0000
0001
0000
1000
,
0000
1000
0000
0010
;

//---------------dance-single - ----------------
#NOTES:
     dance-single:
     :
     Challenge:
     9:
     0.663,0.668,0.115,0.000,0.448: // measure 1
0000
0000
0000
0000
,  // measure 2
0010
0001
0100
0001
,  // measure 3
0010
1000
0100
1000
,  // measure 4
0010
0001
0100
0001
,  // measure 5
0010
0000
0001
1000
0001
0000
1000
0100
0000
0010
0001
0000
0001
0000
0001
0000
,  // measure 6
0100
0000
0010
1000
0010
0000
1000
0010
0000
0100
0001
0000
1000
0000
1000
0000
,  // measure 7
1000
0000
0001
0100
0001
0000
1000
0100
0000
1000
0001
0000
1000
0000
0010
0000
,  // measure 8
0100
0000
0000
0000
0100
0000
0000
0000
0100
0000
0000
0000
0100
0000
0100
0001
,  // measure 9
1000
0000
0010
1000
0000
0010
1000
0000
0010
0000
0100
0000
1000
0000
0100
0000
,  // measure 10
0001
0000
1000
0100
0000
1000
0100
0000
0010
0000
0001
0000
0100
0000
0010
0000
,  // measure 11
0100
0000
0001
0100
0000
0001
0100
0000
0010
0000
1000
0000
0010
0000
0001
0000
,  // measure 12
0010
0000
1000
0001
0000
1000
0100
0000
0110
0000
0000
0010
0001
0000
0100
0000
,  // measure 13
0010
0000
1000
0001
0000
1000
0100
0000
0010
0000
1000
0000
0010
0000
0001
0000
,  // measure 14
0100
0000
0001
0100
0000
0010
1000
0000
0100
0000
0001
0000
0100
0000
1000
0000
,  // measure 15
0010
0000
0100
0001
0000
1000
0100
0000
0010
0000
0001
0000
0100
0000
1000
0000
,  // measure 16
0100
0000
0001
0100
0001
0100
0001
0100
0001
0000
0000
0000
0110
0000
0000
0000
,  // measure 17
1000
0010
0100
0010
1000
0100
0010
0100
,  // measure 18
1000
0001
0100
0010
0100
0001
0010
0100
,  // measure 19
0010
0001
0100
1000
0100
0001
0010
1000
,  // measure 20
0010
0000
0001
0000
1000
0000
0100
1000
0100
1000
0100
1000
0100
1000
0100
1000
,  // measure 21
0100
1000
0000
0000
0000
0000
0001
0000
0100
0000
0010
0000
0100
0000
1000
0000
,  // measure 22
0100
0001
0010
0100
1000
0010
0100
0010
,  // measure 23
1000
0100
0001
0100
1000
0010
0100
1000
,  // measure 24
0100
0000
0001
0000
0010
0000
1000
0001
0000
0100
0001
0000
0100
0000
1000
0000
,  // measure 25
1000
0000
0000
0000
1000
0000
0000
0000
1000
0000
0000
0010
1000
0000
0001
0000
,  // measure 26
0110
0000
0000
0000
1001
0000
0000
0000
1000
0100
1000
0100
1000
0000
0000
0000
,  // measure 27
0001
0100
0001
0100
0001
0000
0000
0000
0100
0000
0010
0000
0100
0000
0001
0000
,  // measure 28
1000
0010
1000
0010
1000
0000
0000
0000
0100
0000
1000
0000
0001
0000
0000
0000
,  // measure 29
0100
0000
0001
0000
0000
1000
0000
0000
0000
0000
0010
0000
0000
0000
0000
0000
0100
0000
0000
0000
1000
0000
0000
0000
0100
0000
0000
0000
0000
0000
0000
0000
,  // measure 30
0001
0000
0010
0000
0100
0000
0000
0000
1000
0000
0001
0100
0010
1000
0000
0000
,  // measure 31
0100
0010
0100
1000
0010
0100
1001
0000
,  // measure 32
0001
0000
0100
0000
0001
0000
0000
0000
1000
0100
0010
0001
0010
0000
0000
0000
,  // measure 33
0100
1000
0000
0001
0100
0000
0010
0100
0001
0000
1000
0000
0010
0000
0100
0000
,  // measure 34
0001
1000
0000
1000
0100
0010
0000
0010
,  // measure 35
0001
0100
0010
1000
0000
1000
0100
0010
,  // measure 36
1000
0001
0100
1000
0010
0100
1000
0100
,  // measure 37
0001
0010
0100
0001
0100
1000
0010
0010
,  // measure 38
0010
1001
1001
0000
,  // measure 39
0100
0001
0010
1000
0000
0001
0000
0100
,  // measure 40
1000
0000
0010
0000
0100
0000
0001
0000
0010
0000
0000
0100
1000
0000
0010
0000
,  // measure 41
0100
0100
0100
0000
,  // measure 42
0001
0001
0000
0000
0000
1000
0000
0000
,  // measure 43
0000
0000
0100
0000
0000
0000
0000
0000
0000
0000
0010
0000
0000
0010
0000
0000
,  // measure 44
0000
0001
0000
0000
0000
0100
0000
0000
,  // measure 45
0000
0010
0000
0000
0000
1000
0000
0000
,  // measure 46
0001
0000
1000
0100
0000
1000
0100
1000
0100
0000
0010
0000
0001
0000
0100
0000
,  // measure 47
0010
0000
0100
0001
0000
0100
0001
0100
0001
0000
1000
0000
0100
0000
1000
0000
,  // measure 48
0010
0000
1000
0001
0000
1000
0001
1000
0001
0000
0010
0000
0100
0000
0010
0000
,  // measure 49
0001
0000
0100
0010
0000
1000
0010
0000
0110
0000
0000
0000
1001
0000
0000
0000
,  // measure 50
1000
0000
0001
0100
0000
0001
0100
0010
1000
0000
0100
0000
0010
0000
0001
0000
,  // measure 51
1000
0000
0001
0100
0000
0010
1000
0001
0100
0000
0001
0000
1000
0000
0100
0000
,  // measure 52
0010
0000
0100
1000
0000
0001
0010
0100
1000
0000
0001
0000
0100
0000
0010
0000
,  // measure 53
0100
0000
0001
1000
0000
0100
1000
0000
0011
0000
0000
0100
1000
0000
0010
0000
;
