#TITLE:DROP OUT;
#SUBTITLE:;
#ARTIST:NW260;
#TITLETRANSLIT:;
#SUBTITLETRANSLIT:;
#ARTISTTRANSLIT:;
#CREDIT:;
#BANNER:DROP OUT.png;
#BACKGROUND:DROP OUT-bg.png;
#LYRICSPATH:;
#CDTITLE:DanceDanceRevolutionSolo2000.png;
#MUSIC:DROP OUT.ogg;
#OFFSET:0.000;
#SAMPLESTART:40.857;
#SAMPLELENGTH:15.000;
#SELECTABLE:YES;
#DISPLAYBPM:260.000;
#BPMS:0.000=260.062,28.000=260.020;
#STOPS:;
#BGCHANGES:;

//---------------dance-single - ----------------
#NOTES:
     dance-single:
     :
     Beginner:
     3:
     0.181,0.303,0.178,0.000,0.000:
0000
0000
0000
0000
,
0000
0000
0000
0000
,
0000
0000
0000
0000
,
0000
0000
0000
0000
,
0000
0000
0000
0000
,
0000
0000
0000
0000
,
0000
0000
0000
0000
,
0000
0000
0000
0000
,
0000
0000
0000
0000
,
1000
0000
0000
0000
,
0000
0000
0000
0000
,
0001
0000
0000
0000
,
0000
0000
0000
0000
,
1000
0000
0000
0000
,
0000
0000
0000
0000
,
0001
0000
0000
0000
,
0000
0000
0000
0000
,
1000
0000
0000
0000
,
1000
0000
0000
0000
,
1000
0000
0000
0000
,
1000
0000
0000
0000
,
0001
0000
0000
0000
,
0001
0000
0000
0000
,
1000
0000
0000
0000
,
1000
0000
0000
0000
,
0001
0000
0000
0000
,
0001
0000
0000
0000
,
0000
0100
0000
0100
,
0000
0100
0000
0100
,
0000
0100
0000
0100
,
0000
0100
0000
0100
,
0000
0010
0000
0010
,
0000
0010
0000
0010
,
0000
0010
0000
0010
,
0000
0010
0000
0010
,
0000
1000
0000
1000
,
0000
1000
0000
1000
,
0000
1000
0000
1000
,
0000
1000
0000
1000
,
0000
0001
0000
0001
,
0000
0001
0000
0001
,
0000
0001
0000
0001
,
0000
0001
0000
0001
,
0001
0000
0000
0000
,
0001
0000
0000
0000
,
0010
0000
0000
0000
,
0100
0000
0000
0000
,
0010
0000
0000
0000
,
0100
0000
0000
0000
,
0001
0000
0000
0000
,
0001
0000
0000
0000
,
1000
0000
0000
0000
,
1000
0000
0000
0000
,
1001
0000
0000
0000
,
1001
0000
0000
0000
,
1001
0000
0000
0000
,
1001
0000
0000
0000
,
0000
0110
0000
0000
,
0000
0110
0000
0000
,
0000
0110
0000
0000
,
0000
0110
0000
0000
,
0000
1000
0000
1000
,
0000
0000
0000
0000
,
0000
1000
0000
1000
,
0000
0000
0000
0000
,
0000
1000
0000
1000
,
0000
0000
0000
0000
,
0000
1000
0000
1000
,
0000
0000
0000
0000
,
0000
0001
0000
0001
,
0000
0000
0000
0000
,
0000
0001
0000
0001
,
0000
0000
0000
0000
,
0000
0001
0000
0001
,
0000
0000
0000
0000
,
0000
0001
0000
0001
,
0000
0000
0000
0000
,
0000
0010
0000
0000
,
0000
1001
0000
0000
,
0000
1001
0000
0000
,
0000
1001
0000
0000
,
0000
0010
0000
0000
,
0000
1001
0000
0000
,
0000
1001
0000
0000
,
0000
1001
0000
0000
,
0000
0010
0000
0000
,
0000
0100
0000
0000
,
0010
0000
0000
0000
,
0010
0000
0000
0000
,
0010
0000
0000
0000
,
0010
0000
0000
0000
,
0010
0000
0010
0000
,
0010
0000
0010
0000
,
0110
0000
0000
0000
,
0110
0000
0000
0000
,
0100
0000
0000
0000
,
0100
0000
0000
0000
,
0100
0000
0000
0000
,
0100
0000
0000
0000
,
0100
0000
0100
0000
,
0100
0000
0100
0000
,
0110
0000
0000
0000
,
0110
0000
0000
0000
;

//---------------dance-single - ----------------
#NOTES:
     dance-single:
     :
     Easy:
     5:
     0.340,0.421,0.397,0.000,0.000:
0000
0000
0000
0000
,
0000
0000
0000
0000
,
0000
0000
0000
0000
,
0000
0000
0000
0000
,
0000
0000
0000
0000
,
0000
0000
0000
0000
,
0000
0000
0000
0000
,
0000
0000
0000
0000
,
0000
0000
0000
0000
,
1000
0000
0000
0000
,
0000
0000
0000
0000
,
0001
0000
0000
0000
,
0000
0000
0000
0000
,
1000
0000
0000
0000
,
0000
0000
0000
0000
,
0001
0000
0000
0000
,
0000
0000
0000
0000
,
1000
0000
0010
0000
,
1000
0000
0100
0000
,
0010
1000
0100
0000
,
1000
0000
1000
0000
,
0010
0001
0100
0000
,
0001
0000
0001
0000
,
0010
1000
0100
0000
,
1000
0000
1000
0000
,
0010
0001
0100
0000
,
0001
0000
0001
0000
,
0000
1000
0000
0100
,
0000
0001
0000
0100
,
0000
0110
0000
1001
,
0000
0010
0000
0001
,
0010
0001
0000
0100
,
0000
1000
0000
0100
,
0000
0110
0000
1001
,
0000
1000
0000
0001
0100
0000
0000
0000
,
0000
0001
0000
0100
,
0000
1000
0000
0100
,
0000
0110
0000
1001
,
0000
0010
0000
1000
,
0010
1000
0000
0100
,
0000
0001
0000
0100
,
0000
0110
0000
1001
,
0000
0001
0000
1000
0100
0000
0000
0000
,
0001
0000
0001
0000
,
0001
0000
0001
0000
,
0010
1000
0001
0000
,
0100
0000
0100
0000
,
1000
0001
1000
0000
,
0100
0000
0100
0000
,
0001
0010
0001
0000
,
0100
0000
0100
0000
,
1000
0010
1000
0000
,
0100
0000
0100
0000
,
1001
0000
0100
0000
,
1001
0000
0100
0000
,
1001
0000
0100
0000
,
1001
0000
0100
0010
,
0000
0010
0000
0010
,
0000
0010
0000
0010
,
0000
0010
0000
0010
,
0000
0010
0000
0010
,
0000
1000
0000
1001
,
0000
0010
0000
1001
,
0000
1001
0000
0100
,
0000
1000
0000
0001
,
1000
0100
0000
0010
,
0000
1001
0000
1001
,
0000
0010
0000
1001
,
0000
0010
0000
1000
0010
0000
0000
0000
,
0000
1000
0000
1001
,
0000
0010
0000
1001
,
0000
1001
0000
0100
,
0000
1000
0000
0001
,
1000
0100
0000
0010
,
0000
1001
0000
1001
,
0000
0010
0000
1001
,
0000
0010
0000
1000
0010
0000
0000
0000
,
0000
0010
1000
0100
,
0000
0001
0000
0001
,
0000
1000
0000
1001
,
0000
0010
0000
1001
,
0000
0010
0001
0100
,
0000
1000
0000
1000
,
0000
0001
0000
1001
,
0000
0010
0000
1001
,
0000
0010
0000
0001
,
0000
0100
0000
0000
,
0010
0000
1001
0000
,
1001
0000
0100
0000
,
0010
0000
0100
0000
,
1001
0000
1001
0000
,
0010
0000
1000
0000
,
0010
0000
0100
0000
,
1001
0000
0100
0000
,
0001
0000
0000
0000
,
0010
0000
1001
0000
,
1001
0000
0100
0000
,
0010
0000
0100
0000
,
1001
0000
1001
0000
,
0010
0000
0001
0000
,
0010
0000
0100
0000
,
1001
0000
0100
0000
,
1000
0000
0000
0000
,
0000
0000
0000
0010
0000
0000
0000
1001
,
0000
0000
0000
0010
0000
0000
0000
1001
,
0000
0000
0000
1000
0000
0001
0000
0100
,
0000
0001
0000
0000
0000
0000
0000
0000
;

//---------------dance-single - ----------------
#NOTES:
     dance-single:
     :
     Medium:
     7:
     0.445,0.474,0.178,0.000,0.000:
0000
0000
0000
0000
,
0000
0000
0000
0000
,
0000
0000
0000
0000
,
0000
0000
0000
0000
,
0000
0000
0000
0000
,
0000
0000
0000
0000
,
0000
0000
0000
0000
,
0000
0000
0000
0000
,
0000
0000
0000
0000
,
0010
0000
1001
0000
,
0010
0000
0001
0000
,
0010
0000
1001
0000
,
0010
0000
1000
0000
,
0010
0000
1001
0000
,
0010
0000
0001
0000
,
0010
0000
1001
0000
,
0010
0000
1000
0000
,
0010
0000
1000
0000
,
0100
0000
0001
0000
,
1000
0001
0010
0000
,
0001
0100
0001
0010
,
0001
1000
0010
0000
,
1000
0100
1000
0010
,
1000
0001
0010
0000
,
0001
0100
0001
0010
,
0001
1000
0010
0000
,
1000
0100
1000
0000
,
0010
1000
0010
1000
,
0010
0100
0010
1000
,
0010
1000
0010
1000
,
0000
0100
0000
0001
,
0100
0001
0100
0001
,
0100
0010
0100
0001
,
0100
0001
0000
1000
,
0000
0110
0000
0001
1000
0000
0000
0000
,
0010
0001
0010
0001
,
0010
0100
0010
0001
,
0010
0001
0010
0001
,
0000
0100
0000
1000
,
0100
1000
0100
1000
,
0100
0010
0100
1000
,
0100
1000
0000
0001
,
0000
0110
0000
1000
0001
0000
0000
0000
,
0010
1000
0001
0010
,
0001
1000
0010
0000
,
1000
0001
0010
0000
,
0001
0010
0001
0000
,
0010
1000
0010
0000
,
1000
0010
1000
0000
,
0010
0001
0010
0000
,
0001
0010
0001
0000
,
0010
1000
0010
0000
,
1000
0010
0100
0000
,
1001
0000
0010
0000
,
1001
0000
0010
0000
,
1001
0000
0010
0000
,
1001
0000
0010
1000
,
0001
0010
0001
1000
,
0010
1000
0001
0010
,
0001
1000
0010
1000
,
0001
0010
0001
1000
,
0000
0000
0010
0000
,
1001
0000
0010
0000
,
0100
0000
0101
0000
,
1100
0000
0001
0100
,
1000
0100
0001
0000
,
0010
0000
1000
0000
,
0010
0000
0001
0000
,
0000
1001
0000
0010
0100
0000
0000
0000
,
0001
0000
0010
0000
,
1001
0000
0010
0000
,
0100
0000
1100
0000
,
0101
0000
1000
0100
,
0001
0100
1000
0000
,
0010
0000
0001
0000
,
0010
0000
1000
0000
,
0000
1001
0000
0010
0100
0000
0000
0000
,
0000
1000
0010
1000
,
0001
0100
0000
0100
,
0000
1000
0100
0001
,
0100
0010
0100
0010
,
1000
0001
0010
0001
,
1000
0100
0000
0100
,
0000
0010
0000
0001
,
0000
0100
0000
0100
,
0000
0010
0000
1000
,
0000
0100
0000
0000
,
0001
1000
0001
1000
,
0001
0100
0001
1000
,
0001
1000
0001
1000
,
0100
1000
0001
1000
,
0010
1000
0001
0010
,
0001
0100
0001
1000
,
0100
1000
0001
0100
,
0010
0000
0000
0000
,
1000
0010
0100
0010
,
1000
0001
0010
0100
,
0010
0001
1000
0010
,
0100
1000
0001
0010
,
0001
0010
0001
1000
,
0010
1000
0010
1000
,
0001
0010
0001
0010
,
0001
1000
0010
1000
,
0000
0000
0000
0100
0000
1000
0000
0001
,
0000
0100
0000
0001
0000
0010
0000
0001
,
0000
0100
0000
0010
0000
1000
0000
0001
,
0000
1000
0000
0000
0000
0000
0000
0000
;

//---------------dance-single - ----------------
#NOTES:
     dance-single:
     :
     Hard:
     9:
     0.643,0.947,0.565,0.000,0.000:
0000
0000
0000
0000
,
0000
0000
0000
0000
,
0000
0000
0000
0000
,
0000
0000
0000
0000
,
0000
0000
0000
0000
,
0000
0000
0000
0000
,
0000
0000
0000
0000
,
0000
0000
0000
0000
,
0000
0000
0000
0000
,
0000
1001
0000
0000
,
0000
0010
0000
1000
0001
0000
0000
0000
,
0000
1001
0000
0000
,
0000
0010
0000
0001
1000
0000
0000
0000
,
0000
1001
0000
0000
,
0000
0010
0000
1000
0001
0000
0000
0000
,
0000
1001
0000
0000
,
0000
0010
0000
0001
1000
0000
0000
0000
,
0001
0100
0001
1000
,
0100
1000
0001
0000
,
1000
0010
0110
0000
,
0010
1000
0001
0010
,
0001
0010
0110
0000
,
0010
0001
1000
0010
,
0100
1000
1001
0000
,
0100
0010
1000
0001
,
0100
0001
1001
0000
,
0010
0001
1000
0000
,
0110
1001
0110
1001
,
1001
1100
1001
0011
,
0110
1001
0110
1001
,
1001
0101
1010
1001
,
1000
0001
1000
0001
,
0100
0010
1000
0001
,
0010
0100
1000
0010
,
0000
1001
0000
0010
0100
0000
0000
0000
,
0110
1100
0110
0101
,
0101
0110
0101
0101
,
0110
0101
0110
1100
,
1100
0110
1100
0110
,
0100
0010
0100
0010
,
0001
0010
0100
0010
,
0100
0010
1000
1000
,
0000
0110
0000
1000
0001
0000
0000
0000
,
0010
1000
0010
0001
,
0010
1000
0001
1000
,
0100
1000
0010
0000
,
1000
0001
0010
0001
,
0100
0001
0010
0000
,
0001
1000
0010
1000
,
0100
1000
0010
0000
,
1000
0001
0010
0001
,
0100
0001
0010
0000
,
0001
1000
0010
1000
,
0001
0010
0011
0000
,
1000
0010
1010
0000
,
0001
0010
0011
0000
,
1000
0010
1000
0001
,
0010
0100
0001
0100
,
1000
0001
0100
0001
,
1000
0001
0010
0001
,
1000
0000
0010
0000
1000
0001
1000
0001
,
0000
1000
0010
1000
,
0001
1000
0001
1000
,
0100
0010
1000
0010
,
0100
0000
1000
0000
0001
0000
1000
0001
,
1000
0001
1000
0000
0010
0000
0001
0000
,
0100
0010
1000
0100
,
0010
0001
0100
0010
,
0000
1001
0000
0001
1000
0000
0000
0000
,
0000
0001
0010
0001
,
1000
0001
1000
0001
,
0100
0010
0001
0010
,
0100
0000
0001
0000
1000
0000
0001
1000
,
0001
1000
0001
0000
0010
0000
1000
0000
,
0100
0010
0001
0100
,
0010
1000
0100
0010
,
0000
1001
0000
1000
0001
0000
0000
0000
,
0000
0100
0001
1000
,
0100
1000
0001
0100
,
0001
1000
0100
1000
,
0001
0100
0001
1000
,
0100
1000
0001
0100
,
0001
1000
0100
1000
,
0001
0100
0001
1000
,
0100
1000
0001
0100
,
0001
1000
0000
1000
,
0000
1000
0000
0000
,
0010
0100
0010
0000
0001
1000
0001
0000
,
0001
0010
0001
0000
0001
1000
0001
0000
,
0010
1000
0010
0000
0001
1000
0001
0000
,
0100
0010
0100
0000
0001
1000
0001
0000
,
0010
0100
0010
0000
0001
0010
0001
0000
,
0100
1000
0100
0000
0001
0010
0001
0000
,
0100
1000
0100
0000
0100
0001
0100
0000
,
0100
1000
0100
0000
0100
0000
0000
0000
,
0000
0000
0010
0100
0010
0100
1000
0001
,
1000
0001
0010
0100
0010
0100
1000
0001
,
1000
0001
0100
0001
0100
0001
1000
0001
,
1000
0001
1000
0100
1000
0100
0010
0001
,
0010
0001
1000
0001
1000
0001
0100
0010
,
0100
0010
1000
0001
1000
0001
0010
0100
,
0010
0100
1000
0010
1000
0010
0100
0001
,
0100
0001
0010
0100
0010
0100
0010
0000
,
0000
0000
0000
1001
0000
1001
0000
0110
,
0000
1001
0000
0110
0000
1001
0000
0011
,
0000
1001
0000
1010
0000
1001
0000
0010
,
0000
0100
0000
0000
0000
0000
0000
0000
;

//---------------dance-double - ----------------
#NOTES:
     dance-double:
     :
     Easy:
     5:
     0.251,0.368,0.020,0.000,0.000:
00000000
00000000
00000000
00000000
,
00000000
00000000
00000000
00000000
,
00000000
00000000
00000000
00000000
,
00000000
00000000
00000000
00000000
,
00000000
00000000
00000000
00000000
,
00000000
00000000
00000000
00000000
,
00000000
00000000
00000000
00000000
,
00000000
00000000
00000000
00000000
,
00000000
00000000
00000000
00000000
,
00010000
00000000
00000000
00000000
,
00000000
00000000
00000000
00000000
,
00001000
00000000
00000000
00000000
,
00000000
00000000
00000000
00000000
,
00100000
00000000
00000000
00000000
,
00000000
00000000
00000000
00000000
,
00000100
00000000
00000000
00000000
,
00000000
00000000
00000000
00000000
,
00100000
00000000
10000000
00000000
,
01000000
00000000
00010000
00000000
,
00001000
00000000
00000100
00000000
,
00000001
00000000
00001000
00000000
,
00000100
00000000
00010000
00000000
,
00001000
00000000
01000000
00000000
,
00100000
00000000
10000000
00000000
,
01000000
00000000
00001000
00000000
,
00000001
00000000
00000001
00000000
,
00000100
00000000
00000100
00000000
,
00001000
00000000
00010000
00000000
,
01000000
00000000
10000000
00000000
,
00010000
00000000
01000000
00000000
,
10000000
00000000
01000000
00000000
,
00010000
00000000
00001000
00000000
,
00000100
00000000
00000001
00000000
,
00001000
00000000
00000010
00000000
,
00010000
00000000
01000000
00000000
,
10000000
00000000
00100000
00000000
,
00001000
00000000
00000100
00000000
,
00000001
00000000
00000010
00000000
,
00010000
00000000
01000000
00000000
,
10000000
00000000
00100000
00000000
,
00001000
00000000
00010000
00000000
,
00000010
00000000
00000100
00000000
,
00001001
00000000
00001001
00000000
,
00010000
00000000
00001000
00000000
,
10000000
00000000
01000000
00000000
,
00010000
00001000
00010000
00000000
,
10000000
00000000
01000000
00000000
,
00010000
00001000
00010000
00000000
,
00000001
00000000
00000100
00000000
,
00010000
00001000
00010000
00000000
,
10000000
00000000
01000000
00000000
,
00010000
00001000
00010000
00000000
,
00000001
00000000
00000100
00000000
,
00010000
00000000
00001000
00000000
,
10000000
00000000
01000000
00000000
,
00010000
00000000
01000000
00000000
,
00001000
00000000
00010000
00000000
,
00000001
00000000
00000100
00000000
,
00001000
00000000
00000100
00000000
,
00010000
00000000
00001000
00000000
,
00100000
00000000
01000000
00000000
,
00000000
01000000
00000000
10000000
,
00000000
01000000
00000000
00010000
,
00000000
00001000
00000000
00010000
,
00000000
01000000
00000000
00010000
,
00000000
00001000
00000000
00000100
,
00000000
00001000
00000000
00000100
,
00000000
00000001
00000000
00001000
,
00000000
00000010
00000000
00000100
,
00000000
00001000
00000000
00010000
,
00000000
00001000
00000000
00000100
,
00000000
00001000
00000000
00010000
,
00000000
01000000
00000000
00010000
,
00000000
01000000
00000000
10000000
,
00000000
00100000
00000000
01000000
,
00000000
00010000
00000000
10000000
,
00000000
01000000
00000000
01000000
,
00000000
00010000
00000000
00010000
,
00000000
00000010
00000000
00000100
,
00000000
00000001
00000000
00000001
,
00000000
00000001
00000000
00000001
,
00000000
00000100
00000000
00000100
,
00000000
00001000
00000000
00010000
,
00000000
01000000
00000000
01000000
,
00000000
01000000
00000000
01000000
,
00000000
00000000
00000000
00000000
,
00000000
00000000
00000000
00000000
,
10000000
00000000
00000000
00000000
,
00010000
00000000
00000000
00000000
,
00001000
00000000
00000000
00000000
,
00000001
00000000
00000000
00000000
,
00001000
00000000
00000000
00000000
,
00010000
00000000
00000000
00000000
,
10000000
00000000
00000000
00000000
,
00001000
00000000
00000000
00000000
,
00001000
00000000
00010000
00000000
,
00000100
00000000
00000010
00000000
,
00010000
00000000
00001000
00000000
,
01000000
00000000
00100000
00000000
,
00010000
00000000
10000000
00000000
,
01000000
00000000
00010000
00000000
,
00001000
00000000
00000100
00000000
,
00000001
00000000
00000000
00000000
,
00000000
00000000
00000000
00010000
00000000
00000000
00000000
00001000
,
00000000
00000000
00000000
00010000
00000000
00000000
00000000
00001000
,
00000000
00000000
00000000
00010000
00000000
00001000
00000000
00010000
,
00000000
00001000
00000000
00000000
00000000
00000000
00000000
00000000
;

//---------------dance-double - ----------------
#NOTES:
     dance-double:
     :
     Medium:
     7:
     0.439,0.474,0.139,0.000,0.000:
00000000
00000000
00000000
00000000
,
00000000
00000000
00000000
00000000
,
00000000
00000000
00000000
00000000
,
00000000
00000000
00000000
00000000
,
00000000
00000000
00000000
00000000
,
00000000
00000000
00000000
00000000
,
00000000
00000000
00000000
00000000
,
00000000
00000000
00000000
00000000
,
00000000
00000000
00000000
00000000
,
10000000
00000000
01100000
00000000
,
00010000
00000000
00001000
00000000
,
00000010
00000000
00001001
00000000
,
00000100
00000000
00001000
00000000
,
00010000
00000000
10010000
00000000
,
01000000
00000000
10000000
00000000
,
00010000
00000000
01010000
00000000
,
00001000
00000000
00010000
00000000
,
00000001
00000000
00000100
00000000
,
00000010
00000000
00001000
00000000
,
00010000
00001000
00010000
00000000
,
00100000
10000000
01000000
10000000
,
00010000
01000000
00001000
00000000
,
00010000
00001000
00000100
00000001
,
00001000
00000100
00001000
00000000
,
00010000
00100000
10000000
01000000
,
00010000
01000000
00010000
00000000
,
00001000
00000100
00001000
00000000
,
00010000
00001000
00010000
00001000
,
00000100
00000001
00000100
00000001
,
00001000
00000100
00001000
00000100
,
00000000
00010000
00000000
01000000
,
10000000
01000000
10000000
01000000
,
00100000
01000000
00010000
01000000
,
00001000
00010000
00000000
00000100
,
00000000
00000001
00000000
00001000
00000100
00000000
00000000
00000000
,
00000001
00000100
00000001
00000100
,
00001000
00000100
00000010
00000100
,
00010000
00001000
00010000
00001000
,
00000000
00010000
00000000
01000000
,
00100000
01000000
00100000
01000000
,
00010000
00001000
00001000
00000100
,
00000001
00000100
00000000
00000001
,
00000000
00000001
00000000
00001000
00000100
00000000
00000000
00000000
,
00010000
00001000
00100000
01000000
,
10000000
00010000
01000000
00000000
,
00001000
00010000
00001000
00000000
,
00000010
00001000
00000100
00000000
,
00000001
00000100
00000001
00000000
,
00001000
00000100
00001000
00000000
,
00010000
00001000
00010000
00000000
,
00100000
00010000
10000000
00000000
,
01000000
00001000
00010000
00000000
,
00000010
00000100
00001000
00000000
,
00011000
00000000
00000100
00000000
,
00011000
00000000
01000000
00000000
,
00011000
00000000
00000100
00000000
,
00011000
00000000
01000000
00010000
,
10000000
01000000
10000000
00010000
,
01000000
00001000
00010000
00000100
,
00000010
00000001
00000100
00001000
,
00010000
01000000
10000000
01000000
,
00000000
00000000
00010000
00000000
,
00011000
00000000
00000010
00000000
,
00001000
00000000
00011000
00000000
,
00011000
00000000
00100000
01000000
,
10000000
00010000
01000000
00000000
,
00001000
00000000
00010000
00000000
,
00000010
00000000
00000100
00000000
,
00000000
00000001
00000000
00001000
00000100
00000000
00000000
00000000
,
00010000
00000000
00001000
00000000
,
00011000
00000000
00100000
00000000
,
01000000
00000000
11000000
00000000
,
01010000
00000000
10000000
00010000
,
01000000
00001000
00010000
00000000
,
00000010
00000000
00001000
00000000
,
00000001
00000000
00001000
00000000
,
00000000
00000001
00000000
00001000
00000100
00000000
00000000
00000000
,
00000000
00000001
00000100
00000001
,
00001000
00000100
00000000
00010000
,
00000000
00001000
00010000
01000000
,
00100000
00010000
00100000
00010000
,
10000000
00010000
01000000
00100000
,
00001000
00010000
00000000
00010000
,
00000000
00001000
00000000
00000100
,
00000000
00000001
00000000
00000001
,
00000000
00001000
00000000
00000100
,
00000000
00010000
00000000
00000000
,
00001000
00010000
00001000
00010000
,
00100000
01000000
10000000
01000000
,
00010000
01000000
00010000
01000000
,
00001000
00010000
00001000
00000100
,
00000001
00000100
00000001
00000100
,
00001000
00010000
01000000
00100000
,
00001000
00010000
00000100
00001000
,
00000001
00000000
00000000
00000000
,
00001000
00000100
00010000
00001000
,
00100000
01000000
01000000
10000000
,
00010000
01000000
00001000
00010000
,
00000100
00000010
00000010
00000001
,
00000100
00001000
00010000
00001000
,
00000100
00001000
00010000
01000000
,
10000000
00010000
00010000
01000000
,
00001000
00010000
00000100
00000010
,
00000000
00000000
00000000
00001000
00000000
00010000
00000000
00001000
,
00000000
00100000
00000000
01000000
00000000
00001000
00000000
00010000
,
00000000
00000010
00000000
00000100
00000000
00000001
00000000
00001000
,
00000000
00000100
00000000
00000000
00000000
00000000
00000000
00000000
;

//---------------dance-double - ----------------
#NOTES:
     dance-double:
     :
     Hard:
     9:
     0.574,0.894,0.268,0.000,0.000:
00000000
00000000
00000000
00000000
,
00000000
00000000
00000000
00000000
,
00000000
00000000
00000000
00000000
,
00000000
00000000
00000000
00000000
,
00000000
00000000
00000000
00000000
,
00000000
00000000
00000000
00000000
,
00000000
00000000
00000000
00000000
,
00000000
00000000
00000000
00000000
,
00000000
00000000
00000000
00000000
,
00000000
00011000
00000000
00000000
,
00000000
00100000
00000000
10000000
00010000
00000000
00000000
00000000
,
00000000
00011000
00000000
00000000
,
00000000
00000010
00000000
00001000
00000001
00000000
00000000
00000000
,
00000000
00000110
00000000
00000000
,
00000000
00001000
00000000
00001000
00010000
00000000
00000000
00000000
,
00000000
01100000
00000000
00000000
,
00000000
00010000
00000000
00010000
00001000
00000000
00000000
00000000
,
00000010
00001000
00000100
00001000
,
00010000
00001000
01000000
00000000
,
00100000
01000000
10010000
00000000
,
00100000
01000000
00010000
00001000
,
00010000
00001000
00011000
00000000
,
00000010
00000100
00001000
00010000
,
00001000
00010000
00011000
00000000
,
00100000
00010000
01000000
10000000
,
01000000
00010000
11000000
00000000
,
00100000
00001000
00010000
00000000
,
00000010
00000100
00000010
00000100
,
00001000
00000001
00001000
00000001
,
00010000
00001000
00010000
00001000
,
01010000
00000000
01010000
00000000
00010000
01000000
00010000
01000000
,
00100000
01000000
00100000
01000000
,
00010000
10000000
00010000
10000000
,
00001000
00010000
00001000
00010000
,
00001100
00001100
00001100
00000000
,
00000001
00000100
00000001
00000100
,
00000010
00000100
00000010
00000100
,
00010000
00001000
00010000
00001000
,
01010000
00000000
01010000
00000000
00010000
01000000
00010000
01000000
,
00010000
10000000
00010000
10000000
,
01000000
10000000
01000000
10000000
,
00010000
01000000
00001000
00010000
,
00001100
00001100
00001100
00000000
,
00000000
00000000
00000000
00000000
,
00000000
10010000
00000000
00000000
,
00100000
10000000
01000000
00000000
,
00001000
00010000
00001000
00000000
,
00000010
00000001
00000100
00000000
,
00010000
00001000
00010000
00000000
,
00100000
10000000
01000000
00000000
,
00001000
00010000
00001000
00000000
,
00000010
00000001
00000100
00000000
,
00010000
00001000
00010000
00000000
,
00001000
00001000
00100000
00100000
,
00010000
00010000
00000100
00000100
,
00001000
00001000
01000000
01000000
,
00010000
00010000
00000010
00000010
,
00001000
00010000
00000100
00010000
,
00001000
00100000
00001000
00010000
,
00000010
00010000
00001000
01000000
,
00001000
00000000
00010000
00000000
00001000
00010000
00001000
00010000
,
00000000
00000010
00000100
00000010
,
00001000
00000001
00001000
00000001
,
00000100
00001000
00010000
00010000
,
00100000
00000000
10000000
00000000
00010000
00000000
00010000
01000000
,
00010000
01000000
00010000
00000000
10000000
00000000
01000000
00000000
,
00010000
00001000
00000100
00000001
,
00000010
00000100
00000001
00000100
,
00000000
00001001
00000000
00000100
00001000
00000000
00000000
00000000
,
00000000
00100000
10000000
01000000
,
10000000
00010000
10000000
00010000
,
01000000
00001000
00010000
00000010
,
00001000
00000000
00000001
00000000
00000100
00000000
00000010
00001000
,
00000010
00001000
00000010
00000000
00001000
00000000
00000100
00000000
,
00010000
00001000
01000000
00100000
,
10000000
01000000
00010000
01000000
,
00000000
10010000
00000000
01000000
10000000
00000000
00000000
00000000
,
00000000
01000000
00001000
00010000
,
00000100
00000001
00000100
00001000
,
00010000
01000000
00100000
10000000
,
01000000
00010000
00001000
00000100
,
00000001
00001000
00000100
00000010
,
00000001
00000100
00001000
00010000
,
00001000
00000100
00001000
00010000
,
01000000
10000000
00010000
01000000
,
00001000
00010000
00000000
00000010
,
00000000
00000100
00000000
00000000
,
00001000
00001000
01000000
01000000
,
00100000
00100000
10000000
10000000
,
01000000
01000000
00010000
00010000
,
00000010
00000010
00000100
00000100
,
00000001
00000001
00001000
00001000
,
00000100
00000100
00010000
00010000
,
00001000
00001000
01000000
01000000
,
01000000
01000000
01000000
00000000
,
00000000
00000000
10000000
01000000
10000000
01000000
10000000
00010000
,
10000000
00010000
01000000
00001000
01000000
00001000
00010000
00000100
,
00010000
00000100
00001000
00000001
00001000
00000001
00000100
00000010
,
00000100
00000010
00001000
00000100
00001000
00000100
00010000
00001000
,
00010000
00001000
00100000
01000000
00100000
01000000
10000000
00010000
,
10000000
00010000
01000000
00010000
01000000
00010000
10000000
01000000
,
10000000
01000000
00100000
00010000
00100000
00010000
01000000
00001000
,
01000000
00001000
00010000
00001000
00010000
00001000
00010000
00000000
,
00000000
00000000
00000000
00011000
00000000
00011000
00000000
10000000
,
00000000
01000000
00000000
01010000
00000000
01010000
00000000
00001000
,
00000000
00010000
00000000
00001100
00000000
00001100
00000000
00000001
,
00000000
00000100
00000000
00000000
00000000
00000000
00000000
00000000
;

//---------------dance-couple - ----------------
#NOTES:
     dance-couple:
     :
     Challenge:
     8:
     0.754,1.000,1.000,0.000,0.010:
00000000
00000000
00000000
00000000
,
00000000
00000000
00000000
00000000
,
00000000
00000000
00000000
00000000
,
00000000
00000000
00000000
00000000
,
00000000
00000000
00000000
00000000
,
00000000
00000000
00000000
00000000
,
00000000
00000000
00000000
00000000
,
00000000
00000000
00000000
00000000
,
00000000
00000000
00000000
00000000
,
10000000
00000000
00000000
00000000
,
00000000
00000000
00000000
00000000
,
00000001
00000000
00000000
00000000
,
00000000
00000000
00000000
00000000
,
10000000
00000000
00000000
00000000
,
00000000
00000000
00000000
00000000
,
00000001
00000000
00000000
00000000
,
00000000
00000000
00000000
00000000
,
00011000
01000100
00011000
10000001
,
01000100
10000001
00011000
00000000
,
10000000
00010000
00100000
00000000
,
00010000
01000000
00010000
00100000
,
00000001
00001000
00000010
00000000
,
00001000
00000100
00001000
00000010
,
00010000
10000000
00100000
00000000
,
10000001
01000100
10000001
00100010
,
00000001
00001000
00000010
00000000
,
00011000
00100100
00011000
00000000
,
00000001
00010000
00000000
01000000
,
00000001
10000000
00000000
01000000
,
00000001
01100000
00000000
10010000
,
00000001
00100000
00000000
10000000
,
00100001
10000000
00000000
01000000
,
00000001
00010000
00000000
01000000
,
00000001
01100000
00000000
10010000
,
00000001
00010000
00000000
10000000
01000000
00000000
00000000
00000000
,
10000000
00001000
00000000
00000100
,
10000000
00000001
00000000
00000100
,
10000000
00000110
00000000
00001001
,
10000000
00000010
00000000
00000001
,
10000010
00000001
00000000
00000100
,
10000000
00001000
00000000
00000100
,
10000000
00000110
00000000
00001001
,
10000000
00001000
00000000
00000001
00000100
00000000
00000000
00000000
,
00100010
10001000
00100010
00010001
,
00100010
10001000
00010001
10001000
,
01000000
10000000
00100000
00000000
,
10000000
00010000
00100000
00010000
,
00000100
00001000
00000010
00000000
,
00001000
00000001
00000010
00000001
,
01000000
10000000
00100000
00000000
,
10000000
00010000
00100000
00010000
,
00000100
00001000
00000010
00000000
,
00001000
00000001
00000010
00000001
,
10010000
00000000
01000000
00000000
,
00001001
00000000
00000100
00000000
,
10010000
00000000
01000000
00000000
,
00001001
00000000
00000100
00100000
,
00000000
00000010
00000000
00100000
,
00000000
00000010
00000000
00100000
,
00000000
00000010
00000000
00100000
,
00000000
00000010
00000000
00100010
,
00000000
10000001
00100000
10000000
,
00010000
10000001
00010000
10000000
,
01000000
00100001
10000000
00100000
,
01000000
00000000
10000001
00000000
00010000
00000000
10000000
00010000
,
10000000
00010000
10000001
00000000
00100000
00000000
00010000
00000000
,
01000001
00100000
10000000
01000000
,
00100000
00010001
01000000
00100000
,
00000000
10010000
00000001
00010000
10000000
00000000
00000000
00000000
,
00000000
10000001
00000010
00000001
,
00001000
10000001
00001000
00000001
,
00000100
10000010
00000001
00000010
,
00000100
00000000
10000001
00000000
00001000
00000000
00000001
00001000
,
00000001
00001000
10000001
00000000
00000010
00000000
00001000
00000000
,
00000100
10000010
00000001
00000100
,
00000010
10001000
00000100
00000010
,
00000000
00001001
10000000
00001000
00000001
00000000
00000000
00000000
,
00000000
10001000
00100010
10001000
,
00010001
01000100
00000000
01000100
,
00000000
10001000
01000100
00010001
,
01000100
00100010
01000100
00100010
,
10001000
00010001
00100010
00010001
,
10001000
01000100
00000000
01000100
,
00000000
00100010
00000000
00010001
,
00000000
01000100
00000000
01000100
,
00011000
00000000
00000000
00000000
10000001
00000000
00000000
00000000
00000000
00000000
00000000
10000001
00000000
00000000
00000000
00000000
,
00000000
00000000
00000000
00000000
00000000
10000001
00000000
00000000
00000000
00000000
00000000
00000000
00000000
00000000
00000000
00000000
,
00100000
01000000
00100000
00000000
00000010
00000100
00000010
00000000
,
00010000
10000000
00010000
00000000
00000001
00001000
00000001
00000000
,
00100000
00010000
00100000
00000000
00000010
00000001
00000010
00000000
,
01000000
10000000
01000000
00000000
00000100
00001000
00000100
00000000
,
10000000
00100000
10000000
00000000
00001000
00000010
00001000
00000000
,
00010000
01000000
00010000
00000000
00000001
00000100
00000001
00000000
,
00100000
01000000
00100000
00000000
00000010
00000100
00000010
00000000
,
00010001
10001000
00010001
00000000
01000100
00000000
00000000
00000000
,
00000000
00000000
00100010
01000100
00100010
01000100
10001000
00010001
,
10001000
00010001
00100010
01000100
00100010
01000100
10001000
00010001
,
10001000
00010001
01000100
00010001
01000100
00010001
10001000
00010001
,
10001000
00010001
10001000
01000100
10001000
01000100
00100010
00010001
,
00100010
00010001
10001000
00010001
10001000
00010001
01000100
00100010
,
01000100
00100010
10001000
00010001
10001000
00010001
00100010
01000100
,
00100010
01000100
10001000
00100010
10001000
00100010
01000100
00010001
,
01000100
00010001
00100010
01000100
00100010
01000100
00100010
00000000
,
00000000
00000000
00000000
10011001
00000000
10011001
00000000
01100110
,
00000000
10011001
00000000
01100110
00000000
10011001
00000000
00110011
,
00000000
10011001
00000000
10101010
00000000
10011001
00000000
00100010
,
00000000
01000100
00000000
00000000
00000000
00000000
00000000
00000000
;

//---------------dance-solo - ----------------
#NOTES:
     dance-solo:
     :
     Easy:
     6:
     0.340,0.421,0.397,0.000,0.000:
000000
000000
000000
000000
,
000000
000000
000000
000000
,
000000
000000
000000
000000
,
000000
000000
000000
000000
,
000000
000000
000000
000000
,
000000
000000
000000
000000
,
000000
000000
000000
000000
,
000000
000000
000000
000000
,
000000
000000
000000
000000
,
010000
000000
000000
000000
,
000000
000000
000000
000000
,
000010
000000
000000
000000
,
000000
000000
000000
000000
,
010000
000000
000000
000000
,
000000
000000
000000
000000
,
000010
000000
000000
000000
,
000000
000000
000000
000000
,
010000
000000
010000
000000
,
010000
000000
010000
000000
,
000100
010000
001000
000000
,
100000
000000
100000
000000
,
000100
000010
001000
000000
,
000001
000000
000001
000000
,
000100
010000
001000
000000
,
100000
000000
100000
000000
,
000100
000010
001000
000000
,
000001
000000
000001
000000
,
000000
100000
000000
001000
,
000000
000001
000000
001000
,
000000
001100
000000
100001
,
000000
010000
000000
000010
,
000100
000001
000000
001000
,
000000
100000
000000
001000
,
000000
001100
000000
100001
,
000000
100000
000000
000001
001000
000000
000000
000000
,
000000
000001
000000
001000
,
000000
100000
000000
001000
,
000000
001100
000000
100001
,
000000
000010
000000
010000
,
000100
100000
000000
001000
,
000000
000001
000000
001000
,
000000
001100
000000
100001
,
000000
000001
000000
100000
001000
000000
000000
000000
,
000001
000000
000001
000000
,
000001
000000
000001
000000
,
000010
100000
000001
000000
,
001000
000000
001000
000000
,
010000
000001
100000
000000
,
001000
000000
001000
000000
,
000010
000100
000001
000000
,
001000
000000
001000
000000
,
010000
000100
100000
000000
,
001000
000000
001000
000000
,
100001
000000
001000
000000
,
100001
000000
001000
000000
,
100001
000000
001000
000000
,
100001
000000
001000
000100
,
000000
000100
000000
000100
,
000000
000100
000000
000100
,
000000
000100
000000
000100
,
000000
000100
000000
000100
,
000000
010000
000000
010010
,
000000
000010
000000
010010
,
000000
100001
000000
001000
,
000000
100000
000000
000010
,
100000
001000
000000
000100
,
000000
100001
000000
010010
,
000000
010000
000000
010010
,
000000
000010
000000
010000
000100
000000
000000
000000
,
000000
010000
000000
010010
,
000000
000010
000000
010010
,
000000
100001
000000
001000
,
000000
100000
000000
000010
,
100000
001000
000000
000100
,
000000
100001
000000
010010
,
000000
010000
000000
010010
,
000000
000010
000000
010000
000100
000000
000000
000000
,
000000
000100
100000
001000
,
000000
000001
000000
000001
,
000000
010000
000000
010010
,
000000
000010
000000
010010
,
000000
000100
000001
001000
,
000000
100000
000000
100000
,
000000
000010
000000
010010
,
000000
010000
000000
010010
,
000000
000010
000000
000010
,
000000
000010
000000
000000
,
000100
000000
010010
000000
,
100001
000000
001000
000000
,
000100
000000
001000
000000
,
100001
000000
010010
000000
,
000100
000000
010000
000000
,
000100
000000
000010
000000
,
100001
000000
001000
000000
,
000001
000000
000000
000000
,
000100
000000
010010
000000
,
100001
000000
001000
000000
,
000100
000000
001000
000000
,
100001
000000
010010
000000
,
000100
000000
000010
000000
,
000100
000000
010000
000000
,
100001
000000
001000
000000
,
100000
000000
000000
000000
,
000000
000000
000000
010000
000000
000000
000000
010010
,
000000
000000
000000
000010
000000
000000
000000
010010
,
000000
000000
000000
100000
000000
000001
000000
001000
,
000000
000010
000000
000000
000000
000000
000000
000000
;

//---------------dance-solo - ----------------
#NOTES:
     dance-solo:
     :
     Medium:
     7:
     0.445,0.474,0.178,0.000,0.000:
000000
000000
000000
000000
,
000000
000000
000000
000000
,
000000
000000
000000
000000
,
000000
000000
000000
000000
,
000000
000000
000000
000000
,
000000
000000
000000
000000
,
000000
000000
000000
000000
,
000000
000000
000000
000000
,
000000
000000
000000
000000
,
000100
000000
100010
000000
,
000100
000000
000001
000000
,
000100
000000
010001
000000
,
000100
000000
100000
000000
,
000100
000000
100010
000000
,
000100
000000
000001
000000
,
000100
000000
010001
000000
,
000100
000000
100000
000000
,
000100
000000
100000
000000
,
001000
000000
000001
000000
,
010000
000010
000100
000000
,
000001
001000
000001
000100
,
000010
010000
000100
000000
,
100000
001000
100000
000100
,
010000
000010
000100
000000
,
000001
001000
000001
000100
,
000010
010000
000100
000000
,
100000
001000
100000
000000
,
000100
010000
000100
100000
,
000100
001000
000100
100000
,
000100
010000
000100
100000
,
000000
001000
000000
000001
,
001000
000001
001000
000010
,
001000
000100
001000
000010
,
001000
000001
000000
100000
,
000000
001100
000000
000010
100000
000000
000000
000000
,
000100
000010
000100
000001
,
000100
001000
000100
000001
,
000100
000010
000100
000001
,
000000
001000
000000
100000
,
001000
100000
001000
010000
,
001000
000100
001000
010000
,
001000
100000
000000
000001
,
000000
001100
000000
010000
000001
000000
000000
000000
,
000100
100000
000001
000100
,
000001
100000
000100
000000
,
010000
000010
000100
000000
,
000001
000100
000010
000000
,
000010
010000
000100
000000
,
100000
000100
010000
000000
,
010000
000010
000100
000000
,
000001
000100
000010
000000
,
000010
010000
000100
000000
,
100000
000100
010000
000000
,
100010
000000
000100
000000
,
010001
000000
000100
000000
,
100010
000000
000100
000000
,
010001
000000
000100
100000
,
000010
000100
000001
010000
,
000100
100000
000010
000100
,
000001
010000
000100
100000
,
000010
000100
000001
010000
,
000000
000000
000010
000000
,
100001
000000
000100
000000
,
001000
000000
001001
000000
,
101000
000000
000001
001000
,
100000
001000
000001
000000
,
000100
000000
100000
000000
,
000100
000000
000001
000000
,
000000
010010
000000
000100
001000
000000
000000
000000
,
000010
000000
010000
000000
,
100001
000000
000100
000000
,
001000
000000
101000
000000
,
001001
000000
100000
001000
,
000001
001000
100000
000000
,
000100
000000
000001
000000
,
000100
000000
100000
000000
,
000000
010010
000000
000100
001000
000000
000000
000000
,
000000
100000
000100
010000
,
000001
001000
000000
001000
,
000000
100000
001000
000001
,
001000
000100
001000
000100
,
100000
000001
000100
000010
,
100000
001000
000000
001000
,
000000
000100
000000
000001
,
000000
001000
000000
001000
,
000000
000100
000000
100000
,
000000
001000
000000
000000
,
000001
010000
000001
100000
,
000001
001000
000001
100000
,
000010
100000
000001
100000
,
001000
100000
000001
100000
,
000100
100000
000001
000100
,
000001
001000
000001
100000
,
001000
100000
000001
001000
,
000100
000000
000000
000000
,
010000
000100
001000
000100
,
010000
000010
000100
001000
,
000100
000010
010000
000100
,
001000
010000
000010
000100
,
000001
000100
000010
010000
,
000100
100000
000100
010000
,
000010
000100
000001
000100
,
000010
010000
000100
100000
,
000000
000000
000000
001000
000000
100000
000000
000001
,
000000
001000
000000
000001
000000
000100
000000
000001
,
000000
001000
000000
000100
000000
100000
000000
000010
,
000000
010000
000000
000000
000000
000000
000000
000000
;

//---------------dance-solo - ----------------
#NOTES:
     dance-solo:
     :
     Hard:
     8:
     0.643,0.947,0.565,0.000,0.010:
000000
000000
000000
000000
,
000000
000000
000000
000000
,
000000
000000
000000
000000
,
000000
000000
000000
000000
,
000000
000000
000000
000000
,
000000
000000
000000
000000
,
000000
000000
000000
000000
,
000000
000000
000000
000000
,
000000
000000
000000
000000
,
000000
010010
000000
000000
,
000000
000100
000000
100000
000001
000000
000000
000000
,
000000
010010
000000
000000
,
000000
000100
000000
000001
100000
000000
000000
000000
,
000000
010010
000000
000000
,
000000
000100
000000
100000
000001
000000
000000
000000
,
000000
010010
000000
000000
,
000000
000100
000000
000001
100000
000000
000000
000000
,
000010
001000
000001
100000
,
001000
010000
000010
000000
,
010000
000100
001100
000000
,
000100
100000
000001
000100
,
000010
000100
001100
000000
,
000100
000001
100000
000100
,
001000
100000
100001
000000
,
010000
000100
100000
000001
,
001000
000001
100001
000000
,
000100
000010
010000
000000
,
010100
010010
010100
010010
,
100001
010010
100001
010010
,
000110
010010
000110
010010
,
100001
010010
100001
010010
,
100000
000001
010000
000010
,
001000
000100
100000
000001
,
000100
001000
010000
000010
,
000000
100001
000000
000100
001000
000000
000000
000000
,
001100
011000
001100
001010
,
001001
001010
001001
001010
,
001100
001010
001100
011000
,
101000
011000
101000
011000
,
001000
000100
001000
000010
,
000001
000010
001000
000100
,
001000
010000
100000
010000
,
000000
001100
000000
100000
000001
000000
000000
000000
,
000010
010000
000100
000010
,
000100
010000
000001
100000
,
001000
100000
000100
000000
,
010000
000010
000100
000001
,
001000
000001
000100
000000
,
000010
010000
000100
100000
,
001000
100000
000100
000000
,
010000
000010
000100
000001
,
001000
000001
000100
000000
,
000010
010000
000100
100000
,
000010
000100
000101
000000
,
010000
000100
100100
000000
,
000010
000100
000101
000000
,
010000
000100
100000
000010
,
000100
001000
000001
001000
,
010000
000001
001000
000010
,
100000
000001
000100
000010
,
010000
000000
000100
000000
100000
000001
100000
000001
,
000000
010000
000100
010000
,
000010
010000
000001
010000
,
001000
010000
100000
010000
,
001000
000000
010000
000000
000001
000000
010000
000010
,
010000
000010
010000
000000
000100
000000
000001
000000
,
000010
000100
100000
010000
,
000100
000001
000010
000100
,
000000
100001
000000
000001
100000
000000
000000
000000
,
000000
000010
000100
000010
,
010000
000010
100000
000010
,
001000
000010
000001
000010
,
001000
000000
000010
000000
100000
000000
000010
010000
,
000010
010000
000010
000000
000100
000000
100000
000000
,
010000
000100
000001
000010
,
000100
100000
010000
000100
,
000000
100001
000000
100000
000001
000000
000000
000000
,
000000
001000
000010
010000
,
001000
100000
000001
001000
,
000010
010000
001000
100000
,
000001
001000
000010
010000
,
001000
010000
000010
001000
,
000001
100000
001000
010000
,
000010
001000
000001
100000
,
001000
010000
000010
001000
,
000001
000000
000000
000000
100000
000000
000000
000000
000000
000000
000000
100000
000000
000000
000000
000000
,
000000
000000
000000
000000
000000
100000
000000
000000
000000
000000
000000
000000
000000
000000
000000
000000
,
000100
001000
000100
000000
000010
100000
000010
000000
,
000001
000100
000001
000000
000010
010000
000010
000000
,
000100
100000
000100
000000
000001
010000
000001
000000
,
001000
000100
001000
000000
000001
010000
000001
000000
,
000010
100000
000010
000000
000100
001000
000100
000000
,
000010
100000
000010
000000
000001
000100
000001
000000
,
001000
000010
001000
000000
001000
010000
001000
000000
,
000001
100000
000001
000000
001000
000000
000000
000000
,
000000
000000
000100
001000
000100
001000
010000
000001
,
010000
000001
000100
001000
000100
001000
100000
000001
,
100000
000001
001000
000010
001000
000010
100000
000001
,
100000
000001
010000
001000
010000
001000
000100
000001
,
000100
000001
010000
000010
010000
000010
100000
000100
,
100000
000100
010000
000010
010000
000010
100000
000001
,
100000
000001
000100
001000
000100
001000
010000
000001
,
010000
000001
100000
000010
100000
000010
001000
000000
,
000000
000000
000000
100001
000000
010010
000000
010100
,
000000
010010
000000
000110
000000
010010
000000
010001
,
000000
100001
000000
100010
000000
010010
000000
000100
,
000000
001000
000000
000000
000000
000000
000000
000000
;

//---------------dance-double - ----------------
#NOTES:
     dance-double:
     :
     Beginner:
     1:
     0.126,0.202,0.010,0.000,0.000:
00000000
00000000
00000000
00000000
,
00000000
00000000
00000000
00000000
,
00000000
00000000
00000000
00000000
,
00000000
00000000
00000000
00000000
,
00000000
00000000
00000000
00000000
,
00000000
00000000
00000000
00000000
,
00000000
00000000
00000000
00000000
,
00000000
00000000
00000000
00000000
,
00000000
00000000
00000000
00000000
,
00010000
00000000
00000000
00000000
,
00000000
00000000
00000000
00000000
,
00001000
00000000
00000000
00000000
,
00000000
00000000
00000000
00000000
,
00100000
00000000
00000000
00000000
,
00000000
00000000
00000000
00000000
,
00000100
00000000
00000000
00000000
,
00000000
00000000
00000000
00000000
,
00100000
00000000
00000000
00000000
,
01000000
00000000
00000000
00000000
,
00001000
00000000
00000000
00000000
,
00000001
00000000
00000000
00000000
,
00000100
00000000
00000000
00000000
,
00001000
00000000
00000000
00000000
,
00100000
00000000
00000000
00000000
,
01000000
00000000
00000000
00000000
,
00000001
00000000
00000000
00000000
,
00000100
00000000
00000000
00000000
,
00001000
00000000
00000000
00000000
,
01000000
00000000
00000000
00000000
,
00010000
00000000
00000000
00000000
,
10000000
00000000
00000000
00000000
,
00010000
00000000
00000000
00000000
,
00000100
00000000
00000000
00000000
,
00001000
00000000
00000000
00000000
,
00010000
00000000
00000000
00000000
,
10000000
00000000
00000000
00000000
,
00001000
00000000
00000000
00000000
,
00000001
00000000
00000000
00000000
,
00010000
00000000
00000000
00000000
,
10000000
00000000
00000000
00000000
,
00001000
00000000
00000000
00000000
,
00000010
00000000
00000000
00000000
,
00001001
00000000
00000000
00000000
,
00010000
00000000
00000000
00000000
,
10000000
00000000
00000000
00000000
,
00010000
00000000
00000000
00000000
,
10000000
00000000
00000000
00000000
,
00010000
00000000
00000000
00000000
,
00000001
00000000
00000000
00000000
,
00010000
00000000
00000000
00000000
,
10000000
00000000
00000000
00000000
,
00010000
00000000
00000000
00000000
,
00000001
00000000
00000000
00000000
,
00010000
00000000
00000000
00000000
,
10000000
00000000
00000000
00000000
,
00010000
00000000
00000000
00000000
,
00001000
00000000
00000000
00000000
,
00000001
00000000
00000000
00000000
,
00001000
00000000
00000000
00000000
,
00010000
00000000
00000000
00000000
,
00100000
00000000
00000000
00000000
,
00000000
01000000
00000000
00000000
,
00000000
01000000
00000000
00000000
,
00000000
00001000
00000000
00000000
,
00000000
01000000
00000000
00000000
,
00000000
00001000
00000000
00000000
,
00000000
00001000
00000000
00000000
,
00000000
00000001
00000000
00000000
,
00000000
00000010
00000000
00000000
,
00000000
00001000
00000000
00000000
,
00000000
00001000
00000000
00000000
,
00000000
00001000
00000000
00000000
,
00000000
01000000
00000000
00000000
,
00000000
01000000
00000000
00000000
,
00000000
00100000
00000000
00000000
,
00000000
00010000
00000000
00000000
,
00000000
01000000
00000000
00000000
,
00000000
00010000
00000000
00000000
,
00000000
00000010
00000000
00000000
,
00000000
00000001
00000000
00000000
,
00000000
00000001
00000000
00000000
,
00000000
00000100
00000000
00000000
,
00000000
00001000
00000000
00000000
,
00000000
01000000
00000000
00000000
,
00000000
01000000
00000000
00000000
,
00000000
00000000
00000000
00000000
,
00000000
00000000
00000000
00000000
,
10000000
00000000
00000000
00000000
,
00010000
00000000
00000000
00000000
,
00001000
00000000
00000000
00000000
,
00000001
00000000
00000000
00000000
,
00001000
00000000
00000000
00000000
,
00010000
00000000
00000000
00000000
,
10000000
00000000
00000000
00000000
,
00001000
00000000
00000000
00000000
,
00001000
00000000
00000000
00000000
,
00000100
00000000
00000000
00000000
,
00010000
00000000
00000000
00000000
,
01000000
00000000
00000000
00000000
,
00010000
00000000
00000000
00000000
,
01000000
00000000
00000000
00000000
,
00001000
00000000
00000000
00000000
,
00000001
00000000
00000000
00000000
;

//---------------dance-single - Edit by silenttype01----------------
#NOTES:
     dance-single:
     Edit by silenttype01:
     Challenge:
     10:
     0.867,0.947,0.694,0.050,0.000:
0000
0000
0000
0000
,
0000
0000
0000
0000
,
0000
0000
0000
0000
,
0000
0000
0000
0000
,
0000
0000
0000
0000
,
0000
0000
0000
0000
,
0000
0000
0000
0000
,
0000
0000
0000
0000
,
0000
0000
0000
0000
,
0000
1001
0000
0000
,
0000
0010
0000
1000
0001
0000
0000
0000
,
0000
1001
0000
0000
,
0000
0010
0000
0001
1000
0000
0100
0000
,
0010
0001
0100
1000
,
0100
0001
0010
1000
,
0010
0001
0100
0010
,
1000
0001
1000
0001
1000
0001
1000
0001
,
0100
0010
0001
0010
0100
0001
0010
0100
,
1000
0100
0010
0001
0000
1001
0000
0000
,
1000
0000
0010
1000
0100
0000
0011
0000
,
0001
0010
0000
0100
0000
0000
0000
0000
,
1000
0000
0001
0100
0010
0000
1100
0000
,
0100
0010
0000
0001
0000
0000
0000
0000
,
1000
0000
0001
0100
0001
0000
1010
0000
,
0100
0001
0000
1000
0000
0000
0000
0000
,
0010
0000
0100
1000
0100
0000
1001
0000
,
0010
1000
0000
0100
0000
0010
0000
0000
,
0011
1100
0110
1001
,
0110
1100
0101
0011
,
0110
1010
1010
0011
,
1002
0010
0100
0013
,
0001
0000
1001
0000
0000
1000
0000
0010
,
0100
0000
1001
0000
0000
0001
0000
0010
,
0100
0000
1001
0000
0000
1000
0000
0010
,
0100
1000
0000
0001
0100
0000
1000
0000
,
1010
0110
0101
0011
,
0110
1100
1001
1010
,
0110
0011
0110
1010
,
2001
0010
0100
3010
,
1000
0000
1001
0000
0000
0100
0000
1000
,
0001
0000
0110
0000
0000
0010
0000
0001
,
1000
0000
0110
0000
0000
0001
0000
0100
,
0010
0001
0000
1000
0010
0000
0001
0000
,
0010
1000
0010
0001
0010
1000
0010
0001
,
0010
1000
0010
0001
0000
1001
0000
0000
,
1000
0010
0100
0010
0001
0000
0000
0000
,
0010
0100
0010
0100
0010
0100
0000
0000
,
0001
0100
0010
0100
1000
0000
0000
0000
,
0100
0010
0100
0010
0100
0010
0000
0000
,
0100
0001
0010
0001
1000
0000
0000
0000
,
0010
1000
0010
1000
0010
1000
0000
0000
,
0010
1000
0100
1000
0001
0000
0000
0000
,
1000
0100
1000
0100
1000
0100
0000
0100
,
1000
1100
0100
0110
,
0010
0011
0001
0101
,
0100
0110
0010
1010
,
1000
1100
0101
0110
,
1001
0101
1001
1100
,
1001
0011
1001
1010
,
1001
0100
0001
1000
0001
1000
0001
1000
,
0010
0100
0010
0100
0010
0100
0010
0100
,
0000
0000
1000
0000
0010
1000
0001
0000
,
1000
0001
1000
0000
0100
0010
1000
0000
,
0010
0100
1000
0000
0001
1000
0001
0000
,
0100
0010
0002
0000
0013
1000
0100
0010
,
0001
1000
0001
0000
0010
0001
0100
0000
,
0010
1000
0100
0000
1000
0001
1000
0000
,
0010
0100
0001
0000
0010
0001
1000
0000
,
0001
0100
0010
1000
0100
0010
0001
0000
,
1000
0000
0001
0000
0010
0001
1000
0000
,
1000
0001
0010
0000
0100
1000
0001
0000
,
0001
1000
0100
0000
0010
1000
0001
0000
,
0001
1000
0020
0000
0031
0100
0010
1000
,
1000
0010
0100
0000
0001
1000
0100
0000
,
0100
1000
0001
0000
0100
1000
0001
0000
,
0001
1000
0100
0000
0001
0010
1000
0000
,
1000
0010
0001
0100
1000
0100
0001
0000
,
0010
0000
0001
0100
0001
0100
0001
0100
,
0001
0100
0001
0100
0001
0100
0001
0100
,
0001
0100
0001
0100
0001
0100
0001
0100
,
0001
0100
0001
0100
0001
0100
0001
0100
,
0001
1000
0100
1000
0100
1000
0100
1000
,
0100
1000
0100
1000
0100
1000
0100
1000
,
0100
1000
0100
1000
0100
1000
0100
1000
,
0100
1000
0001
0100
0010
1000
0001
0010
,
0100
1000
0020
0000
0000
0000
0000
0000
,
0000
0000
0000
0000
,
0030
0000
0010
1000
0001
0100
0001
0010
,
0001
1000
0100
1000
0010
0100
0001
1000
,
0100
1000
0010
0100
0001
1000
0001
0010
,
0001
1000
0010
1000
0001
0100
0010
1000
,
0100
0010
0001
0100
0001
1000
0010
0100
,
0001
0010
0001
0010
0100
1000
0100
1000
,
0001
0100
0001
0100
0010
1000
0010
1000
,
0001
0100
0010
1000
0100
0000
0000
0000
,
0000
0000
0010
0001
0100
1000
0100
0001
,
0010
0100
1000
0010
0001
0010
1000
0100
,
0010
0001
0100
1000
0100
0001
0010
0100
,
1000
0010
0001
0010
1000
0100
0010
0001
,
0100
1000
0100
0010
1000
0100
0001
0100
,
1000
0010
0001
0010
1000
0100
0010
0001
,
1000
0010
0001
0010
1000
0100
0001
0100
,
1000
0001
0100
1000
0100
0001
0010
1000
,
0010
0001
0000
0101
0000
1100
0000
0110
,
0000
1010
0000
1100
0000
0101
0000
1100
,
0000
0011
0000
0101
0000
1100
0000
1001
,
0000
0110
0000
0000
0000
0000
0000
0000
;

//---------------dance-double - Edit by silenttype01----------------
#NOTES:
     dance-double:
     Edit by silenttype01:
     Challenge:
     9:
     0.691,0.947,0.605,0.050,0.000: // measure 1
00000000
00000000
00000000
00000000
,  // measure 2
00000000
00000000
00000000
00000000
,  // measure 3
00000000
00000000
00000000
00000000
,  // measure 4
00000000
00000000
00000000
00000000
,  // measure 5
00000000
00000000
00000000
00000000
,  // measure 6
00000000
00000000
00000000
00000000
,  // measure 7
00000000
00000000
00000000
00000000
,  // measure 8
00000000
00000000
00000000
00000000
,  // measure 9
00000000
00000000
00000000
00000000
,  // measure 10
00000000
00011000
00000000
00000000
,  // measure 11
00000000
00100000
00000000
10000000
00010000
00000000
00000000
00000000
,  // measure 12
00000000
00011000
00000000
00000000
,  // measure 13
00000000
00000010
00000000
00001000
00000001
00000000
00000000
00000000
,  // measure 14
00000000
00000110
00000000
00000000
,  // measure 15
00000000
00001000
00000000
00001000
00010000
00000000
00000000
00000000
,  // measure 16
00000000
01100000
00000000
00000000
,  // measure 17
00000000
00010000
00000000
00010000
00001000
00000000
00000000
00000000
,  // measure 18
00000010
00001000
00000100
00001000
,  // measure 19
00010000
00001000
01000000
00000000
,  // measure 20
00100000
00000000
10000000
01000000
10000000
00000000
00110000
00000000
,  // measure 21
00010000
00100000
00000000
01000000
00000000
00000000
00000000
00000000
,  // measure 22
00010000
00000000
00001000
00010000
00001000
00000000
00011000
00000000
,  // measure 23
00010000
00000010
00000000
00000100
00000000
00000000
00000000
00000000
,  // measure 24
00000010
00000000
00001000
00000100
00001000
00000000
00000011
00000000
,  // measure 25
00000001
00000010
00000000
00000100
00000000
00000000
00000000
00000000
,  // measure 26
00001000
00000000
00010000
00001000
00010000
00000000
00011000
00000000
,  // measure 27
00001000
00100000
00000000
00010000
00000000
01000000
00000000
00000000
,  // measure 28
00110000
11000000
01100000
10010000
,  // measure 29
01100000
11000000
01010000
00011000
,  // measure 30
00001010
00000011
00000011
00000101
,  // measure 31
00001002
00000010
00000100
00000013
,  // measure 32
00000001
00001001
00001000
00001010
,  // measure 33
00000010
00000110
00000100
00001100
,  // measure 34
00001000
00011000
00010000
00110000
,  // measure 35
00100000
10000000
00000000
00010000
00000000
00000000
00000000
00000000
,  // measure 36
00110000
11000000
01100000
10010000
,  // measure 37
01100000
11000000
01010000
00011000
,  // measure 38
00001010
00000011
00000011
00000101
,  // measure 39
00001002
00000010
00000100
00000013
,  // measure 40
00000001
00001001
00001000
00001010
,  // measure 41
00000010
00000110
00000100
00001100
,  // measure 42
00001000
00011000
00010000
00110000
,  // measure 43
00100000
10000000
00000000
00010000
00000000
00000000
00000000
00000000
,  // measure 44
00020000
00000000
00000000
00000000
,  // measure 45
00000000
20030000
00000000
00000000
,  // measure 46
30100000
10000000
01000000
00000000
,  // measure 47
00001000
00010000
00000000
00001000
00000000
00000000
00000000
00000000
,  // measure 48
00000010
00000001
00000100
00000000
,  // measure 49
00010000
00001000
00000000
00010000
00000000
00000000
00000000
00000000
,  // measure 50
00100000
10000000
01000000
00000000
,  // measure 51
00001000
00010000
00000000
00001000
00000000
00000000
00000000
00000000
,  // measure 52
00000010
00000001
00000100
00000000
,  // measure 53
00010000
00001000
00000000
00010000
00000000
00011000
00000000
00000000
,  // measure 54
00000000
00001000
00001000
00100000
,  // measure 55
00100000
00010000
00010000
00000100
,  // measure 56
00000100
00001000
00001000
01000000
,  // measure 57
01000000
00010000
00010000
00000010
,  // measure 58
00001000
00010000
00000100
00010000
,  // measure 59
00001000
00100000
00001000
00010000
,  // measure 60
00000010
00010000
00001000
01000000
00001000
00010000
00000010
00010000
,  // measure 61
00001000
01000000
00001000
00010000
00000010
00010000
00001000
00010000
,  // measure 62
00000000
00000010
00000100
00000010
,  // measure 63
00001000
00000001
00001000
00000001
,  // measure 64
00000100
00001000
00010000
00010000
,  // measure 65
00100000
00000000
10000000
00000000
00010000
00100000
00010000
01000000
,  // measure 66
00010000
01000000
00010000
00000000
10000000
00000000
01000000
00000000
,  // measure 67
00010000
00001000
00000100
00000001
,  // measure 68
00000010
00000100
00000001
00000100
,  // measure 69
00001001
00000000
00000100
00001000
00000000
00010000
00000000
00000000
,  // measure 70
00000000
00100000
10000000
01000000
,  // measure 71
10000000
00010000
10000000
00010000
,  // measure 72
01000000
00001000
00010000
00000010
,  // measure 73
00001000
00000000
00000001
00000000
00001000
00000010
00001000
00000100
,  // measure 74
00001000
00000100
00001000
00000000
00000001
00000000
00000100
00000000
,  // measure 75
00001000
00010000
01000000
10000000
,  // measure 76
00100000
01000000
10000000
01000000
,  // measure 77
10010000
00000000
01000000
10000000
00000000
00010000
00000000
00000000
,  // measure 78
00000000
01000000
00001000
00010000
,  // measure 79
00000100
00000001
00000100
00001000
,  // measure 80
00010000
01000000
00100000
10000000
,  // measure 81
01000000
00010000
00001000
00000100
,  // measure 82
00000001
00001000
00000100
00000010
,  // measure 83
00000001
00000100
00001000
00010000
,  // measure 84
00001000
00000100
00001000
00010000
,  // measure 85
01000000
10000000
00010000
01000000
,  // measure 86
00001000
00020000
00000000
00000000
,  // measure 87
00000000
00000000
00000000
00000000
,  // measure 88
00031000
00100000
00001000
00100000
01000000
00100000
01000000
00100000
,  // measure 89
00001000
00010000
00001000
00010000
00000010
00001000
00000010
00001000
,  // measure 90
00000001
00000100
00000001
00000100
00000010
00010000
00000010
00010000
,  // measure 91
00001000
01000000
00001000
01000000
00010000
00100000
00010000
00100000
,  // measure 92
01000000
10000000
01000000
10000000
00100000
01000000
00100000
01000000
,  // measure 93
00001000
00100000
00001000
00100000
00010000
10000000
00010000
10000000
,  // measure 94
00100000
10000000
00100000
10000000
01000000
00010000
01000000
00010000
,  // measure 95
01000000
10000000
01000000
00010000
01000000
00000000
00000000
00000000
,  // measure 96
00000000
00000000
10000000
01000000
10000000
01000000
10000000
00010000
,  // measure 97
10000000
00010000
01000000
00001000
01000000
00001000
00010000
00000100
,  // measure 98
00010000
00000100
00001000
00000001
00001000
00000001
00000100
00000010
,  // measure 99
00000100
00000010
00001000
00000100
00001000
00000100
00010000
00001000
,  // measure 100
00010000
00001000
00100000
01000000
00100000
01000000
10000000
00010000
,  // measure 101
10000000
00010000
01000000
00010000
01000000
00010000
10000000
01000000
,  // measure 102
10000000
01000000
00100000
00010000
00100000
00010000
01000000
00001000
,  // measure 103
01000000
00001000
00010000
00001000
00010000
00001000
00010000
00001000
,  // measure 104
00010000
00001000
00000000
00011000
00000000
00011000
00000000
00101000
,  // measure 105
00000000
00110000
00000000
01010000
00000000
01010000
00000000
01001000
,  // measure 106
00000000
00011000
00000000
00010100
00000000
00010100
00000000
00001100
,  // measure 107
00000000
00000110
00000000
00000000
00000000
00000000
00000000
00000000
;
