#TITLE:DROP OUT;
#SUBTITLE:(FROM NONSTOP MEGAMIX);
#ARTIST:NW260;
#TITLETRANSLIT:;
#SUBTITLETRANSLIT:;
#ARTISTTRANSLIT:;
#CREDIT:;
#BANNER:DROP OUT(FROM NONSTOP MEGAMIX).png;
#BACKGROUND:DROP OUT(FROM NONSTOP MEGAMIX)-bg.png;
#LYRICSPATH:;
#CDTITLE:./CDTITLES/DDRMAX2 -Dance Dance Revolution 7thMIX-.PNG;
#MUSIC:DROP OUT(FROM NONSTOP MEGAMIX).mp3;
#OFFSET:-0.513;
#SAMPLESTART:20.780;
#SAMPLELENGTH:15.000;
#SELECTABLE:YES;
#DISPLAYBPM:130.000;
#BPMS:0.000=129.990;
#STOPS:;
#BGCHANGES:;

//---------------dance-single - Not accessible in Su----------------
#NOTES:
     dance-single:
     Not accessible in Su:
     Medium:
     1:
     0.431,0.434,0.157,0.045,0.079:
0000
0000
0000
0000
,
0000
0000
0000
0000
,
0010
0000
1001
0000
0001
0100
1000
0000
,
0001
1000
0100
0000
1000
0001
0100
0000
,
1000
0100
0010
0001
1000
0001
0100
0000
,
1000
0000
1000
0000
1000
0000
0001
0100
0001
0100
0001
0000
1000
0000
0000
0000
,
1000
0001
0100
0000
1000
0000
1100
0000
,
0001
1000
0100
0000
0001
0000
0101
0000
,
1000
0001
0100
0000
0001
1000
0100
0000
,
1000
0001
0100
0000
0001
1000
0100
0000
,
0010
0001
0100
0100
,
1000
0001
0100
0000
0010
0000
0010
0000
,
0001
1000
0100
0000
0010
0000
0010
0000
,
1000
0001
0100
0000
0001
1000
0001
1000
,
0001
1000
0100
0000
0020
0000
0030
0000
,
1000
0000
0000
0000
0000
0000
0000
0000
0000
0000
0000
0100
0000
0000
0000
0000
0000
0000
0000
0000
0000
0000
0001
0000
0000
0000
0000
0000
0000
0000
0000
0000
0000
0000
0000
0000
0000
0000
0000
0000
1000
0000
0000
0000
0000
0000
0000
0000
0100
0000
0000
0000
0000
0000
0000
0000
0000
0000
0000
0000
0000
0000
0000
0000
,
0001
0000
0000
0000
0000
0000
0000
0000
0000
0000
0000
0100
0000
0000
0000
0000
0000
0000
0000
0000
0000
0000
1000
0000
0000
0000
0000
0000
0000
0000
0000
0000
0000
0000
0000
0000
0000
0000
0000
0000
0001
0000
0000
0000
0000
0000
0000
0000
0100
0000
0000
0000
0000
0000
0000
0000
0000
0000
0000
0000
0000
0000
0000
0000
,
0010
1000
0000
0000
0010
0001
0000
0000
,
0010
1000
0000
0000
0010
0001
1000
0000
,
1000
0000
0000
0000
0000
0000
0000
0000
0000
0000
0000
0100
0000
0000
0000
0000
0000
0000
0000
0000
0000
0000
0010
0000
0000
0000
0000
0000
0000
0000
0000
0000
0000
0000
0000
0000
0000
0000
0000
0000
0001
0000
0000
0000
0000
0000
0000
0000
1100
0000
0000
0000
0000
0000
0000
0000
0000
0000
0000
0000
0000
0000
0000
0000
,
0010
0000
0000
0000
0000
0000
0000
0000
0000
0000
0000
0001
0000
0000
0000
0000
0000
0000
0000
0000
0000
0000
0100
0000
0000
0000
0000
0000
0000
0000
0000
0000
0000
0000
0000
0000
0000
0000
0000
0000
1000
0000
0000
0000
0000
0000
0000
0000
0101
0000
0000
0000
0000
0000
0000
0000
0000
0000
0000
0000
0000
0000
0000
0000
,
0001
0000
0000
0000
0000
0000
0000
0000
0000
0000
0000
0100
0000
0000
0000
0000
0000
0000
0000
0000
0000
0000
0010
0000
0000
0000
0000
0000
0000
0000
0000
0000
0000
0000
0000
0000
0000
0000
0000
0000
1000
0000
0000
0000
0000
0000
0000
0000
0101
0000
0000
0000
0000
0000
0000
0000
0000
0000
0000
0000
0000
0000
0000
0000
,
0010
0000
0000
0000
0000
0000
0000
0000
0000
0000
0000
1000
0000
0000
0000
0000
0000
0000
0000
0000
0000
0000
0100
0000
0000
0000
0000
0000
0000
0000
0000
0000
0000
0000
0000
0000
0000
0000
0000
0000
0001
0000
0000
0000
0000
0000
0000
0000
1100
0000
0000
0000
0000
0000
0000
0000
0000
0000
0000
0000
0000
0000
0000
0000
,
0001
1000
0010
0100
0010
0000
0010
0000
,
1001
0000
0010
0000
0001
0000
0001
0001
,
0001
1000
0100
0010
0100
0000
0100
0000
,
1001
0100
1001
0200
,
0000
0000
0000
0300
,
0001
0100
1000
1100
,
0001
0000
0101
0000
1000
0001
0100
0000
,
0010
0001
0100
0000
0010
0001
0010
0000
,
0010
0001
1000
0010
0100
0001
1000
0000
,
1000
0100
0001
0101
,
1000
0000
1100
0000
0001
1000
0100
0000
,
0010
1000
0100
0000
0010
1000
0010
0000
,
0010
1000
0001
0010
0100
1000
0001
0000
,
0001
1000
0001
1000
0001
0100
0001
1000
,
0001
1000
0001
1000
0100
1000
0001
1000
,
0010
1000
0001
0010
0001
0100
0001
1000
,
0100
1000
0001
0200
0020
0000
0330
0000
,
0010
0010
1000
1000
0010
0010
1000
1000
,
0100
0100
1000
1000
1000
1000
0010
0010
,
1000
1000
0100
0100
1000
1000
0010
0010
,
1000
1000
0100
0100
0010
0010
0010
0000
,
1000
1000
0100
0100
0001
0001
0100
0100
,
1000
0100
0001
0100
1000
0000
0000
0000
;

//---------------dance-single - Not accessible in Su----------------
#NOTES:
     dance-single:
     Not accessible in Su:
     Beginner:
     1:
     0.146,0.178,0.000,0.000,0.000:
0000
0000
0000
0000
,
0000
0000
0000
0000
,
0010
0000
0001
0000
,
0001
0000
1000
0000
,
1000
0000
1000
0000
,
1000
1000
0000
1000
,
1000
0000
1000
1000
,
0000
0100
0000
0001
,
0000
0100
0000
0100
,
0000
0100
0000
0100
,
0000
0001
0000
0100
,
0000
0100
0000
0010
,
0000
0100
0000
0010
,
0000
0100
0000
0001
,
0001
0000
0010
0000
,
1000
0000
0000
0100
,
0000
0000
0000
0100
,
0000
0000
0010
0000
,
0010
0000
0010
0000
,
1000
0000
0000
1000
,
0000
0000
0000
0001
,
0001
0000
0000
0001
,
0000
0000
0000
1000
,
0000
0010
0010
0010
,
0000
0010
0000
0001
,
0001
0000
0100
0100
,
0000
0100
0000
0100
,
0000
0000
0000
0000
,
0001
0000
1000
1000
,
0000
0001
0000
0100
,
0000
0100
0000
0010
,
0010
0000
0100
0000
,
1000
0000
0001
0001
,
0000
1000
0000
0100
,
0000
0100
0000
0010
,
0010
0000
0100
0000
,
0001
0001
0001
0001
,
0001
0001
0000
0001
,
0000
0001
0001
0001
,
0000
0001
0000
0000
,
0010
0000
0010
0000
,
0100
0000
1000
0000
,
1000
0000
1000
0000
,
1000
0000
0010
0010
,
0000
0100
0000
0100
,
0000
0001
0000
0000
;

//---------------dance-single - ----------------
#NOTES:
     dance-single:
     :
     Challenge:
     9:
     0.479,0.842,0.157,0.045,0.247:
0000
0000
0000
0000
,
0000
0000
0000
0000
,
0010
0000
1001
0000
0001
0100
1000
0000
,
0001
1000
0100
0000
1000
0001
0100
0000
,
1000
0100
0010
0001
1000
0001
0100
0000
,
1000
0000
1000
0000
1000
0000
0001
0100
0001
0100
0001
0000
1000
0000
0000
0000
,
1000
0001
0100
0000
1000
0000
1100
0000
,
0001
1000
0100
0000
0001
0000
0101
0000
,
1000
0001
0100
0000
0001
1000
0100
0000
,
1000
0001
0100
0000
0001
1000
0100
0000
,
0010
0001
0100
0100
,
1000
0001
0100
0000
0010
0000
0010
0000
,
0001
1000
0100
0000
0010
0000
0010
0000
,
1000
0001
0100
0000
0001
1000
0001
1000
,
0001
1000
0100
0000
0020
0000
0030
0000
,
1000
0000
0000
0000
0000
0000
0000
0000
0000
0000
0000
0100
0000
0000
0000
0000
0000
0000
0000
0000
0000
0000
0001
0000
0000
0000
0000
0000
0000
0000
0000
0000
0000
0000
0000
0000
0000
0000
0000
0000
1000
0000
0000
0000
0000
0000
0000
0000
0100
0000
0000
0000
0000
0000
0000
0000
0000
0000
0000
0000
0000
0000
0000
0000
,
0001
0000
0000
0000
0000
0000
0000
0000
0000
0000
0000
0100
0000
0000
0000
0000
0000
0000
0000
0000
0000
0000
1000
0000
0000
0000
0000
0000
0000
0000
0000
0000
0000
0000
0000
0000
0000
0000
0000
0000
0001
0000
0000
0000
0000
0000
0000
0000
0100
0000
0000
0000
0000
0000
0000
0000
0000
0000
0000
0000
0000
0000
0000
0000
,
0010
1000
0000
0000
0010
0001
0000
0000
,
0010
1000
0000
0000
0010
0001
1000
0000
,
1000
0000
0000
0000
0000
0000
0000
0000
0000
0000
0000
0100
0000
0000
0000
0000
0000
0000
0000
0000
0000
0000
0010
0000
0000
0000
0000
0000
0000
0000
0000
0000
0000
0000
0000
0000
0000
0000
0000
0000
0001
0000
0000
0000
0000
0000
0000
0000
1100
0000
0000
0000
0000
0000
0000
0000
0000
0000
0000
0000
0000
0000
0000
0000
,
0010
0000
0000
0000
0000
0000
0000
0000
0000
0000
0000
0001
0000
0000
0000
0000
0000
0000
0000
0000
0000
0000
0100
0000
0000
0000
0000
0000
0000
0000
0000
0000
0000
0000
0000
0000
0000
0000
0000
0000
1000
0000
0000
0000
0000
0000
0000
0000
0101
0000
0000
0000
0000
0000
0000
0000
0000
0000
0000
0000
0000
0000
0000
0000
,
0001
0000
0000
0000
0000
0000
0000
0000
0000
0000
0000
0100
0000
0000
0000
0000
0000
0000
0000
0000
0000
0000
0010
0000
0000
0000
0000
0000
0000
0000
0000
0000
0000
0000
0000
0000
0000
0000
0000
0000
1000
0000
0000
0000
0000
0000
0000
0000
0101
0000
0000
0000
0000
0000
0000
0000
0000
0000
0000
0000
0000
0000
0000
0000
,
0010
0000
0000
0000
0000
0000
0000
0000
0000
0000
0000
1000
0000
0000
0000
0000
0000
0000
0000
0000
0000
0000
0100
0000
0000
0000
0000
0000
0000
0000
0000
0000
0000
0000
0000
0000
0000
0000
0000
0000
0001
0000
0000
0000
0000
0000
0000
0000
1100
0000
0000
0000
0000
0000
0000
0000
0000
0000
0000
0000
0000
0000
0000
0000
,
0001
1000
0010
0100
0010
0000
0010
0000
,
1001
0000
0010
0000
0001
0000
0001
0001
,
0001
1000
0100
0010
0100
0000
0100
0000
,
1001
0100
1001
0200
,
0000
0000
0000
0300
,
0001
0100
1000
1100
,
0001
0000
0101
0000
1000
0001
0100
0000
,
0010
0001
0100
0000
0010
0001
0010
0000
,
0010
0001
1000
0010
0100
0001
1000
0000
,
1000
0100
0001
0101
,
1000
0000
1100
0000
0001
1000
0100
0000
,
0010
1000
0100
0000
0010
1000
0010
0000
,
0010
1000
0001
0010
0100
1000
0001
0000
,
0001
1000
0001
1000
0001
0100
0001
1000
,
0001
1000
0001
1000
0100
1000
0001
1000
,
0010
1000
0001
0010
0001
0100
0001
1000
,
0100
1000
0001
0200
0020
0000
0330
0000
,
0010
0100
0010
0100
1000
0001
1000
0001
0010
0100
0010
0100
1000
0001
1000
0001
,
0100
0001
0100
0001
1000
0001
1000
0001
1000
0100
1000
0100
0010
0001
0010
0001
,
1000
0001
1000
0001
0100
0010
0100
0010
1000
0001
1000
0001
0010
0100
0010
0100
,
1000
0010
1000
0010
0100
0001
0100
0001
0010
0100
0010
0100
0010
0000
0000
0000
,
1000
1000
0100
0100
0001
0001
0100
0100
,
1000
0100
0001
0100
1000
0000
0000
0000
;

//---------------dance-double - ----------------
#NOTES:
     dance-double:
     :
     Challenge:
     9:
     0.490,0.842,0.280,0.045,0.247:
00000000
00000000
00000000
00000000
,
00000000
00000000
00000000
00000000
,
10010000
00000000
01000000
00000000
00010000
00001000
00000100
00000000
,
00000010
00010000
00001000
00000000
00000100
00001000
00010000
00000000
,
01100000
10000000
01000000
00010000
00001000
00000100
00000001
00000000
,
00000010
00000000
00001000
00000000
00000100
00000000
00000001
00000100
00000001
00000100
00001000
00000000
00000001
00000000
00000000
00000000
,
00000010
00000001
00000100
00000000
00001000
00000000
00010000
00000000
,
01000000
10000000
00100000
00000000
00100000
10000000
00100000
00000000
,
00100000
10000000
01000000
00000000
00010000
00000000
00001000
00000000
,
00001000
00000100
00000001
00000000
00000001
00000100
00001000
00000000
,
00000101
00000000
00001100
00000000
00000001
00001000
00000100
00000000
,
00000010
00001000
00000100
00000000
00010100
00000000
00001100
00000000
,
00000010
00001000
00000100
00000000
00010100
00000000
00001100
00000000
,
00000010
00001000
00000100
00000000
00000010
00001000
00000010
00001000
,
00000010
00001000
00000100
00000000
00020100
00000000
00031000
00000000
,
00010100
00000000
00000000
00000000
00000000
00000000
00000000
00000000
00000000
00000000
00000000
00001000
00000000
00000000
00000000
00000000
00000000
00000000
00000000
00000000
00000000
00000000
00000100
00000000
00000000
00000000
00000000
00000000
00000000
00000000
00000000
00000000
00000000
00000000
00000000
00000000
00000000
00000000
00000000
00000000
00000100
00000000
00000000
00000000
00000000
00000000
00000000
00000000
00001000
00000000
00000000
00000000
00000000
00000000
00000000
00000000
00000000
00000000
00000000
00000000
00000000
00000000
00000000
00000000
,
01001000
00000000
00000000
00000000
00000000
00000000
00000000
00000000
00000000
00000000
00000000
00010000
00000000
00000000
00000000
00000000
00000000
00000000
00000000
00000000
00000000
00000000
01000000
00000000
00000000
00000000
00000000
00000000
00000000
00000000
00000000
00000000
00000000
00000000
00000000
00000000
00000000
00000000
00000000
00000000
01000000
00000000
00000000
00000000
00000000
00000000
00000000
00000000
00010000
00000000
00000000
00000000
00000000
00000000
00000000
00000000
00000000
00000000
00000000
00000000
00000000
00000000
00000000
00000000
,
00001000
00000100
00000000
00000000
00010000
01000000
00000000
00000000
,
00001000
00000100
00000000
00000000
01000000
00010000
00001000
00000000
,
00010010
00000000
00000000
00000000
00000000
00000000
00000000
00000000
00000000
00000000
00000000
00001000
00000000
00000000
00000000
00000000
00000000
00000000
00000000
00000000
00000000
00000000
00000001
00000000
00000000
00000000
00000000
00000000
00000000
00000000
00000000
00000000
00000000
00000000
00000000
00000000
00000000
00000000
00000000
00000000
00000100
00000000
00000000
00000000
00000000
00000000
00000000
00000000
00001000
00000000
00000000
00000000
00000000
00000000
00000000
00000000
00000000
00000000
00000000
00000000
00000000
00000000
00000000
00000000
,
00101000
00000000
00000000
00000000
00000000
00000000
00000000
00000000
00000000
00000000
00000000
00010000
00000000
00000000
00000000
00000000
00000000
00000000
00000000
00000000
00000000
00000000
10000000
00000000
00000000
00000000
00000000
00000000
00000000
00000000
00000000
00000000
00000000
00000000
00000000
00000000
00000000
00000000
00000000
00000000
01000000
00000000
00000000
00000000
00000000
00000000
00000000
00000000
00010000
00000000
00000000
00000000
00000000
00000000
00000000
00000000
00000000
00000000
00000000
00000000
00000000
00000000
00000000
00000000
,
00001000
00000000
00000000
00000000
00000000
00000000
00000000
00000000
00000000
00000000
00000000
00000100
00000000
00000000
00000000
00000000
00000000
00000000
00000000
00000000
00000000
00000000
00000001
00000000
00000000
00000000
00000000
00000000
00000000
00000000
00000000
00000000
00000000
00000000
00000000
00000000
00000000
00000000
00000000
00000000
00000100
00000000
00000000
00000000
00000000
00000000
00000000
00000000
00001000
00000000
00000000
00000000
00000000
00000000
00000000
00000000
00000000
00000000
00000000
00000000
00000000
00000000
00000000
00000000
,
00010000
00000000
00000000
00000000
00000000
00000000
00000000
00000000
00000000
00000000
00000000
01000000
00000000
00000000
00000000
00000000
00000000
00000000
00000000
00000000
00000000
00000000
10000000
00000000
00000000
00000000
00000000
00000000
00000000
00000000
00000000
00000000
00000000
00000000
00000000
00000000
00000000
00000000
00000000
00000000
01000000
00000000
00000000
00000000
00000000
00000000
00000000
00000000
00010000
00000000
00000000
00000000
00000000
00000000
00000000
00000000
00000000
00000000
00000000
00000000
00000000
00000000
00000000
00000000
,
00010000
01000000
10000000
00100000
01000000
00000000
01000000
00000000
,
10010000
00000000
01100000
00000000
10000000
00000000
01000000
00010000
,
00001000
00000100
00000001
00000010
00000100
00000000
00000100
00000000
,
00001001
00000110
00000010
00000020
,
00000000
00000000
00000000
00000030
,
00000010
00001001
00001100
00000101
,
00001000
00010000
01100000
10000000
,
01000000
00010000
00001000
00000000
00100000
00001000
00010000
00000000
,
01000000
00000000
10000000
00000000
00010000
10000000
01000000
00000000
,
00100000
10010000
01010000
11000000
,
00010000
00001000
00000110
00000001
,
00000100
00001000
00010000
00000000
00000010
00010000
00001000
00000000
,
00000100
00000000
00000001
00000000
00001000
00000001
00000100
00000000
,
00001000
00010000
00001000
00010000
00100000
01000000
10000000
01000000
,
00010000
01000000
00010000
01000000
00001000
00010000
00001000
00000100
,
00000001
00000100
00000001
00000100
00001000
00010000
01000000
00100000
,
00001000
00010000
00000100
00002000
00000002
00000000
00003003
00000000
,
00000001
00000100
00000001
00000100
00000001
00001000
00000001
00001000
00000100
00010000
00000100
00010000
00001000
01000000
00001000
01000000
,
00010000
10000000
00010000
10000000
01000000
00100000
01000000
00100000
00010000
01000000
00010000
01000000
00001000
00010000
00001000
00010000
,
00000010
00000100
00000010
00000100
00000001
00001000
00000001
00001000
00000100
00001000
00000100
00001000
00000001
00000100
00000001
00000100
,
00000010
00001000
00000010
00001000
00000100
00010000
00000100
00010000
00001000
00010000
00001000
00010000
00001000
00000000
00000000
00000000
,
00010000
01000000
00010000
01000000
00010000
00001000
00010000
00001000
,
00010000
00001000
00000100
00000100
00000100
00000000
00000000
00000000
;

//---------------dance-single - ----------------
#NOTES:
     dance-single:
     :
     Hard:
     9:
     0.609,0.842,0.056,0.213,0.684: // measure 1
0000
0000
0000
0000
,  // measure 2
0000
0000
0000
0000
,  // measure 3
2000
3000
2000
3000
,  // measure 4
2000
3000
2000
3000
,  // measure 5
0002
0003
0002
0003
,  // measure 6
0002
0003
0002
0003
,  // measure 7
0020
0100
0030
0100
0020
0100
0030
0100
,  // measure 8
0020
0100
0030
0100
0020
0100
0030
1000
,  // measure 9
0200
1000
0300
1000
0200
1000
0300
1000
,  // measure 10
0200
1000
0300
1000
0200
1000
0300
1000
,  // measure 11
0001
1000
0001
1000
0001
1000
0001
1000
0001
1000
0010
0000
0010
0000
0000
0000
,  // measure 12
1000
0000
0001
0100
0001
0000
0000
1000
0000
0000
0000
0000
0000
0000
0000
0000
,  // measure 13
0001
0000
1000
0100
1000
0000
0000
0001
0000
0000
0000
0000
0000
0000
0000
0000
,  // measure 14
1000
0000
0100
1000
0100
0000
0000
0010
0000
0000
0001
0100
0001
0000
0100
1000
,  // measure 15
0100
0000
1000
0010
1000
0000
0000
0010
0000
0000
0001
0000
0000
0001
0000
0000
,  // measure 16
1000
0000
0000
0100
0000
0000
0010
0000
0010
0000
0000
0100
0000
0000
0000
0000
,  // measure 17
0001
0000
0000
0000
0000
0000
0000
0000
0000
0000
0000
0000
0100
0000
0000
0000
0000
0000
0000
0000
0000
0000
0000
0000
0010
0000
0000
0000
0000
0000
0000
0000
0020
0000
0000
0000
0000
0000
0000
0000
0000
0000
0000
0000
0100
0000
0000
0000
0000
0000
0000
0000
1000
0000
0000
0000
0030
0000
0000
0000
0000
0001
0000
0000
,  // measure 18
0100
0000
0000
0000
0000
0000
0000
0000
0000
0000
0000
0000
0000
0000
0000
0000
0000
0000
0000
0000
0001
0000
0000
0000
0000
0000
0000
0000
0000
1000
0000
0000
0100
0000
0000
0000
0000
0000
0000
0000
0000
0000
0000
0000
0000
0000
0000
0000
0000
0000
0000
0000
0010
0000
0000
0000
0000
0000
0000
0000
0000
0001
0000
0000
,  // measure 19
0100
0000
0000
0000
0000
0000
0000
0000
0000
0000
0000
0000
0000
0000
0000
0000
0000
0000
0000
0000
0010
0000
0000
0000
0000
0000
0000
0000
0000
1000
0000
0000
0100
0000
0000
0000
0000
0000
0000
0000
0000
0000
0000
0000
0000
0000
0000
0000
0000
0000
0000
0000
0000
0000
0000
0000
0000
0000
0000
0000
0000
0000
0000
0000
,  // measure 20
0010
0000
0000
0001
0000
0000
1000
0000
1000
0000
0000
0100
0000
0000
0000
0000
,  // measure 21
1000
0000
0000
0001
0000
0000
0010
0000
0020
0000
0000
0100
0000
0000
0030
0000
,  // measure 22
0001
0000
0000
0100
0000
0000
1000
0000
1000
0000
0000
0010
0000
0000
0000
0000
,  // measure 23
0001
0000
0000
0100
0000
0000
1000
0000
1000
0000
0000
0001
0000
0000
1000
1000
,  // measure 24
1000
0001
0100
1000
0100
0000
0010
0000
,  // measure 25
1010
0000
0000
0000
1001
0000
0000
0000
1100
0000
0000
0001
0001
0000
0010
0010
,  // measure 26
0010
0100
1000
0001
0100
0010
0100
0001
,  // measure 27
1000
0100
1000
0100
1000
0100
1000
0100
1000
0001
0100
0010
1000
0001
0010
0100
,  // measure 28
0020
0000
0000
0030
,  // measure 29
0100
0000
1000
0000
0001
0000
0100
0010
1000
0000
0001
0000
0010
0000
0001
1000
,  // measure 30
0001
0000
0100
0000
0010
0000
1000
0100
1000
0000
0001
0000
0010
0000
0100
0000
,  // measure 31
0010
0000
0001
0000
1000
0000
0010
0100
0010
0000
1000
0000
0100
0000
1000
0000
,  // measure 32
0010
0000
0100
0000
0001
0000
1000
0010
0100
0000
0001
0000
0110
0000
0000
0000
,  // measure 33
0100
0000
0010
0000
1000
0001
1000
0001
0000
0100
0000
0010
1000
0100
1000
0100
,  // measure 34
1000
0000
0001
0000
0100
0010
0100
0010
0000
1000
0000
0100
0010
0001
0010
0001
,  // measure 35
0010
0000
0001
1000
0100
0000
1000
0010
0100
0000
0001
0010
0100
0000
0001
0100
,  // measure 36
1000
1000
0010
0010
0100
0100
0001
0001
,  // measure 37
1000
0000
0100
0000
1000
0010
0100
0001
1000
0000
0010
0000
0100
0001
0100
0010
,  // measure 38
0000
1000
0000
0001
0010
0001
0100
0010
1000
0000
0100
0000
1000
0001
0010
0100
,  // measure 39
1000
0010
0100
0001
0000
1000
0000
0100
1000
0001
0100
0001
1000
0000
0010
0000
,  // measure 40
0100
0001
1000
0100
0000
0010
0000
0001
1000
0000
0010
0000
1001
0000
0000
0000
,  // measure 41
0001
0010
0001
0010
0001
0100
0001
0100
0010
1000
0010
1000
0100
1000
0100
1000
,  // measure 42
0001
0010
0100
1000
0100
0001
0100
1000
0010
0100
0001
1000
0010
0001
0010
1000
,  // measure 43
0100
0010
0001
0100
0010
1000
0100
1000
0001
0010
0001
0100
1000
0100
0001
1000
,  // measure 44
0100
0001
0100
1000
0010
0001
0010
1000
0001
0010
1000
0010
0001
0000
0000
0000
,  // measure 45
0010
0010
0001
0001
1000
1000
0001
0010
,  // measure 46
0100
1000
0100
1000
0100
1000
0100
1000
0100
0000
0000
0000
0000
0000
0000
0000
;
