#TITLE:DRIFTING AWAY;
#SUBTITLE:;
#ARTIST:LANGE feat. SKYE;
#TITLETRANSLIT:;
#SUBTITLETRANSLIT:;
#ARTISTTRANSLIT:;
#CREDIT:;
#BANNER:DRIFTING AWAY.png;
#BACKGROUND:DRIFTING AWAY-bg.png;
#LYRICSPATH:;
#CDTITLE:./CDTITLES/Dancemania The Best of World Trance -FANTASIA 2-.PNG;
#MUSIC:DRIFTING AWAY.mp3;
#OFFSET:-0.064;
#SAMPLESTART:62.460;
#SAMPLELENGTH:14.000;
#SELECTABLE:YES;
#DISPLAYBPM:136.000;
#BPMS:0.000=136.000;
#STOPS:;
#BGCHANGES:;

//---------------dance-single - ----------------
#NOTES:
     dance-single:
     :
     Beginner:
     1:
     0.143,0.195,0.053,0.000,0.000:
0000
0000
0000
0000
,
0000
0000
0000
0000
,
0100
0000
0100
0000
,
0100
0000
0100
0000
,
0000
0001
0000
0000
,
0001
0000
0010
0000
,
0100
0000
0010
0000
,
0001
0000
0100
0000
,
1000
0000
0100
0000
,
0001
0000
0100
0000
,
0001
0000
1000
0000
,
1000
0000
0001
0000
,
0100
0000
0100
0000
,
0001
0000
0010
0000
,
0100
0000
0010
0000
,
0001
0000
0100
0000
,
1000
0000
0100
0000
,
0001
0000
0100
0000
,
0001
0000
1000
0000
,
1000
0000
0010
0000
,
1001
0000
0000
0000
,
0000
0000
0000
0000
,
0100
0000
0000
0000
,
0000
0000
0000
0000
,
0001
0000
0000
0000
,
0000
0000
0000
0000
,
0001
0000
0000
0000
,
0000
0000
0000
0010
,
0000
0000
0010
0000
,
0100
0000
0010
0000
,
0100
0000
0010
0000
,
0100
0000
0010
0000
,
0100
0000
1000
1000
,
0000
0000
0001
0001
,
0000
0000
1000
1000
,
0000
0000
0001
0000
,
1001
0000
0010
0000
,
0100
0000
0010
0000
,
0100
0000
0010
0000
,
0100
0000
0010
0000
,
1000
0000
0100
0000
,
0010
0000
0100
0000
,
0010
0000
0100
0000
,
0110
0000
0001
0000
,
0110
0000
0001
0000
,
1000
0000
1000
0000
,
0001
0000
0100
0000
,
1000
0000
0010
0000
,
0001
0000
0100
0000
,
0100
0000
0010
0000
,
0100
0000
1000
0000
,
1000
0000
0010
0000
,
1001
0000
0100
0000
,
0010
0000
0000
0000
;

//---------------dance-single - ----------------
#NOTES:
     dance-single:
     :
     Easy:
     2:
     0.197,0.251,0.137,0.042,0.000:
0000
0000
0000
0000
,
0000
0000
0000
0000
,
0100
0000
0100
0000
,
0100
0000
0100
0000
,
0000
0001
0100
0000
,
0001
0000
0010
0000
,
0100
0000
0010
0000
,
0001
0000
0100
0000
,
1000
0000
0100
0000
,
0001
0000
0100
0000
,
0101
0000
1000
0000
,
1100
0000
0001
0000
,
0100
0001
0100
0000
,
0001
0000
0010
0000
,
0100
0000
0010
0000
,
0001
0000
0100
0000
,
1000
0000
0100
0000
,
0001
0000
0100
0000
,
0101
0000
1000
0000
,
1100
0000
0010
0000
,
1001
0020
0000
0000
,
0000
0000
0000
0000
,
0230
0000
0000
0000
,
0000
0000
0000
0300
,
0001
0020
0000
0000
,
0000
0000
0000
0030
,
0001
0200
0000
0000
,
0000
0000
0300
0010
,
1001
0000
0010
1000
,
0100
0000
0010
0001
,
0100
0000
0010
1000
,
0100
0000
0010
0001
,
0100
0000
1000
1000
,
0100
0000
0001
0001
,
0100
0000
1000
1000
,
0100
0000
0001
0010
,
1001
0000
0010
1000
,
0100
0000
0010
0001
,
0100
0000
0010
1000
,
0100
0000
0010
0001
,
1000
0000
0100
1000
,
0010
0000
0100
0001
,
0010
0000
0100
1000
,
0010
0000
0100
0000
,
0110
0000
0001
0000
,
1000
0000
1000
0000
,
0001
0000
0011
0000
,
1000
0000
1010
0000
,
0001
0000
0011
1000
,
0100
0000
1010
0001
,
0100
0000
1000
0001
,
1000
0000
0010
0000
,
1001
0000
0100
0000
,
0010
0000
0000
0000
;

//---------------dance-single - ----------------
#NOTES:
     dance-single:
     :
     Medium:
     6:
     0.363,0.358,0.074,0.084,0.000:
0000
0000
0000
0000
,
0000
0000
0000
0000
,
1000
0000
0100
0000
,
0100
0000
0100
0000
,
0100
0000
1000
0001
0100
0000
0001
0010
,
0000
0001
0000
1000
0000
0010
0000
0100
,
0000
0000
0001
0100
0000
0001
0000
0010
,
0000
0001
0000
1000
0000
0100
0000
0001
,
0000
0000
1000
0100
0000
1000
0000
0010
,
0000
1000
0000
0001
0000
0010
0000
0002
,
0000
0100
0000
0010
,
0000
0203
0000
0301
,
0110
0000
1000
0100
0000
1000
0000
0010
,
0000
1000
0000
0001
0000
0010
0000
0100
,
0000
0000
1000
0100
0000
1000
0000
0010
,
0000
1000
0000
0001
0000
0100
0000
1000
,
0000
0000
0001
0100
0000
0001
0000
0010
,
0000
0001
0000
1000
0000
0010
0000
2000
,
0000
0001
0000
3010
,
0000
0000
0100
0000
0010
1000
0001
0100
,
0002
0000
2000
0000
3003
0000
0010
0100
,
0000
0000
0010
0000
0100
0001
1000
0100
,
0000
0100
0000
1000
0000
0001
0000
0100
,
0000
0010
0000
0000
0010
1000
0001
0100
,
0000
0000
1001
0000
0000
0000
0010
0100
,
0000
0000
0010
0000
0100
0001
1000
0100
,
0000
0100
0000
0100
0000
0010
0000
0100
,
0000
0010
0000
0001
0000
1000
0000
0000
,
0000
1000
0100
0000
0010
0100
0010
0000
,
0000
0001
0100
0000
0010
0100
0010
0000
,
0000
1000
0100
0000
0010
0001
0100
0000
,
0000
0001
0100
0000
0010
1000
0100
0000
,
0000
1000
0100
0000
1000
0001
0010
0000
,
0000
0001
0100
0000
0001
1000
0010
0000
,
0000
1000
0100
0000
1000
0002
2000
0000
,
0000
3003
0000
0100
0000
1000
0001
1000
,
0020
0000
0000
0030
0000
0010
1000
0001
,
0000
1000
0000
0100
0000
1000
0000
0010
,
0000
1000
0100
0000
0110
0000
0010
0001
,
0000
0001
0100
0000
0110
0000
0010
1000
,
0000
1000
0100
0000
1001
0000
0001
0100
,
0000
0001
0100
0000
1001
0000
1000
0100
,
0000
0010
0001
0000
0101
0000
0010
0100
,
0000
1000
0100
0001
0000
0010
0100
1000
,
0000
1000
0100
0010
0001
0000
0001
0010
,
0000
0001
0000
0100
0000
0010
0000
1000
,
0000
1000
0100
0000
1000
0100
0010
0001
,
0000
0001
0100
0000
0001
0010
0100
1000
,
0000
0001
0100
0000
0010
0100
0010
1000
,
0000
1000
0100
0000
0001
0100
0010
0001
,
0000
0001
0100
0000
1000
0100
0010
1000
,
0000
1000
0100
0000
1000
0010
0100
0001
,
1000
0010
0100
0001
0000
0000
0000
0000
;

//---------------dance-single - ----------------
#NOTES:
     dance-single:
     :
     Hard:
     8:
     0.581,0.606,0.252,0.074,0.489: // measure 1
0000
0000
0000
0000
,  // measure 2
0000
0000
0000
0000
,  // measure 3
0100
0011
0100
1010
,  // measure 4
0100
0011
0100
1010
,  // measure 5
0001
1000
0100
0000
0010
0000
1001
0000
,  // measure 6
0010
1000
0100
0000
0010
0001
0010
1000
,  // measure 7
0001
0100
0010
0000
0001
0010
1000
0000
,  // measure 8
0010
0001
0100
1000
0010
0100
0001
1000
,  // measure 9
0000
0000
0001
1000
0000
0000
0001
0100
0000
0000
0010
1000
0000
0000
0010
0100
,  // measure 10
0000
0000
0001
1000
0000
0000
0001
0010
0000
0000
0100
1000
0000
0000
0100
0010
,  // measure 11
0000
0110
0001
0110
,  // measure 12
1000
0110
0001
0110
,  // measure 13
1000
0100
0000
0000
1100
0000
0000
0000
0001
0100
0000
0000
0101
0000
0000
0000
,  // measure 14
1000
0010
0000
0000
0010
0001
0000
0000
1000
0010
0000
0000
0110
0000
0000
0000
,  // measure 15
0100
0001
0000
0000
0101
0000
0000
0000
0100
1000
0000
0000
1100
0000
0000
0000
,  // measure 16
0100
0010
0000
0000
0010
1000
0000
0000
0001
0100
0000
0000
1001
0000
0000
0000
,  // measure 17
1000
0100
1000
0000
1100
0000
0000
0000
0010
0100
0010
0000
0110
0000
0000
0000
,  // measure 18
1000
0100
1000
0000
0010
0100
0010
0000
1000
0001
1000
0000
0110
0000
0000
0000
,  // measure 19
0001
0110
1000
0110
,  // measure 20
0001
0000
0110
0000
1000
1000
0010
0001
,  // measure 21
0000
0210
0000
0301
,  // measure 22
0010
0200
0000
1300
,  // measure 23
0010
0200
0000
0301
,  // measure 24
0010
0001
0100
0000
1000
0100
0010
0000
,  // measure 25
1000
0100
0001
0000
0100
1000
0002
0000
,  // measure 26
0000
2003
0000
3020
,  // measure 27
0000
0230
0000
0301
,  // measure 28
0000
0110
0000
1001
,  // measure 29
0001
0100
0001
0000
0100
0000
0000
0010
0000
1000
0001
0000
0010
0000
0100
0000
,  // measure 30
1000
0100
1000
0000
0100
0000
0000
0010
0000
0001
1000
0000
0010
0000
0100
0000
,  // measure 31
0001
0100
0001
0000
0100
0000
0000
0010
0000
1000
0001
0000
0010
0000
0100
0000
,  // measure 32
1000
0100
1000
0000
0100
0000
0000
0010
0000
0001
1000
0000
0010
0000
1000
0000
,  // measure 33
0100
1000
0001
0000
0100
0000
0000
0010
0000
1000
0001
0000
0010
0000
0001
0000
,  // measure 34
0100
0001
1000
0000
0100
0000
0000
0010
0000
0001
1000
0000
0010
0000
1000
0000
,  // measure 35
0100
1000
0001
0000
0100
0000
0000
0010
0000
1000
0001
0000
0010
0000
0001
0000
,  // measure 36
0100
0001
1000
0000
0100
0000
0000
0010
0000
0001
1000
0000
0001
0000
0010
0000
,  // measure 37
0001
1000
0001
0000
1000
0000
0000
0010
0000
1000
0001
0000
0010
0000
0100
0000
,  // measure 38
1000
0001
1000
0000
0001
0000
0000
0010
0000
0001
1000
0000
0010
0000
0100
0000
,  // measure 39
0001
0100
0001
0000
0100
0000
0000
0010
0000
1000
0001
0000
0010
0000
0100
0000
,  // measure 40
1000
0100
1000
0000
0100
0000
0000
0010
0000
0001
1000
0000
0010
0000
1000
0000
,  // measure 41
0100
1000
0100
0000
1000
0000
0000
0010
0000
1000
0001
0000
0010
0000
0001
0000
,  // measure 42
0100
0001
0100
0000
0001
0000
0000
0010
0000
0001
1000
0000
0010
0000
1000
0000
,  // measure 43
0100
1000
0100
0000
1000
0000
0000
0010
0000
1000
0001
0000
0010
0000
0001
0000
,  // measure 44
0100
0001
0100
0000
0001
0000
0000
0010
0000
0001
1000
0000
0001
0000
0010
0000
,  // measure 45
0001
1000
0001
0000
1000
0000
0000
0010
0000
1000
0001
0000
1000
0000
0100
0000
,  // measure 46
1000
0001
1000
0000
0001
0000
0000
0010
0000
0001
1000
0000
0001
0000
0100
0000
,  // measure 47
0001
0100
0001
0000
0100
0000
0000
0010
0000
1000
0001
0000
1000
0000
0100
0000
,  // measure 48
1000
0100
1000
0000
0100
0000
0000
0010
0000
0001
1000
0000
0001
0000
0100
0000
,  // measure 49
0100
0001
0100
0000
0001
0000
0000
0010
0000
0001
1000
0000
0001
0000
0100
0000
,  // measure 50
0100
0001
0100
0000
0001
0000
0000
0010
0000
0001
1000
0000
0001
0000
0100
0000
,  // measure 51
0100
0001
0100
0000
0001
0000
0000
0010
0000
0001
1000
0000
0001
0000
0100
0000
,  // measure 52
0100
0001
0100
0000
0001
0000
0000
0000
0010
0000
0001
0000
1000
0000
0100
0000
,  // measure 53
0010
0001
1000
0100
0000
0000
0000
0000
;

//---------------dance-double - ----------------
#NOTES:
     dance-double:
     :
     Easy:
     3:
     0.210,0.247,0.095,0.074,0.000:
00000000
00000000
00000000
00000000
,
00000000
00000000
00000000
00000000
,
00001000
00000000
00001000
00000000
,
00001000
00000000
00001000
00000000
,
00010000
00000100
00001000
00000000
,
00000001
00000000
00000010
00000000
,
00000100
00000000
00010000
00000000
,
00001000
00000000
00100000
00000000
,
01000000
00000000
10000000
00000000
,
01000000
00000000
00010000
00000000
,
00001000
00000000
00001000
00000000
,
00001000
00000000
00001000
00000000
,
00000100
00000001
00000100
00000000
,
00001000
00000000
00010000
00000000
,
01000000
00000000
10000000
00000000
,
00100000
00000000
01000000
00000000
,
00001000
00000000
00010000
00000000
,
00000010
00000000
00001000
00000100
,
00000001
00000000
00001000
00000000
,
00000001
00000000
00000010
00000000
,
00000101
00002000
00000000
00000000
,
00023000
00000000
00000000
00000000
,
00030100
00000010
00000000
00000000
,
00000002
00000000
00000000
00000000
,
00000103
00002000
00000000
00000000
,
00023000
00000000
00000000
00000000
,
01030000
00200000
00000000
00000000
,
00320000
00000000
00000000
00030000
,
00011000
00000000
00000010
00001000
,
00010000
00000000
00100000
00010000
,
00001000
00000000
00010000
00001000
,
00000100
00000000
00001000
00010000
,
01000000
00000000
00010000
00001000
,
01000000
00000000
00001000
00010000
,
00000100
00000000
00001000
00001000
,
00000100
00000000
00001000
00000010
,
00011000
00000000
00000010
00001000
,
00000001
00000000
00000010
00000001
,
00001000
00000100
00010000
00100000
,
10000000
00000000
00100000
10000000
,
01010000
00000000
00001000
00001000
,
01000000
00000000
00010000
00010000
,
00000100
00000000
00001000
00001000
,
01000000
00000000
00010000
00000010
,
00001000
00000000
00110000
00000000
,
00001000
00000000
00001010
00000000
,
00000100
00000000
00010000
00001000
,
01000000
00000000
00010000
00100000
,
01000000
00000000
00011000
00000010
,
00000100
00000000
00011000
00100000
,
01000000
00000000
00011000
00000010
,
00000100
00000000
00000010
00010000
,
00001000
01000000
00000000
00000000
;

//---------------dance-double - ----------------
#NOTES:
     dance-double:
     :
     Medium:
     6:
     0.369,0.359,0.221,0.095,0.000:
00000000
00000000
00000000
00000000
,
00000000
00000000
00000000
00000000
,
00010000
00001000
00010000
00001000
,
00010000
00001000
00010000
00000010
,
00001001
00000100
00010000
00010000
,
00000010
00000100
00001000
00100000
,
00010000
10000000
00010000
01000000
,
00001000
00010000
00000010
00001000
,
00010000
00001000
01000000
00010000
,
00001000
00000100
00000010
00000100
,
00010000
00110000
00001000
00011000
,
00000010
00000110
00001000
00011000
,
01000000
10000000
00100000
10000000
,
01000000
00010000
00001000
00010000
,
00000010
00000100
00000100
00001000
,
00010000
00000010
00000100
00010000
,
00001000
00010000
00100000
10000000
,
01000000
00100000
10000000
00010000
,
00001000
00020000
00000000
00230000
,
00000000
10300000
01000000
00010000
,
00001000
00011000
00000010
00000110
,
00000001
00000011
00000100
00001100
,
00010000
00011000
00100000
00110000
,
10000000
11000000
00100000
01100000
,
00010000
00011000
00000010
00000110
,
00000001
00000101
00001000
00011000
,
00100000
01010000
10000000
11000000
,
00010000
00011000
00000010
00000100
,
00022000
00000000
00033000
00000000
00000010
00000000
00001000
00010000
,
00001000
00000000
01000000
00000000
00100000
00000000
00010000
00001000
,
00010000
00000000
00000100
00000000
00000010
00000000
00000001
00001000
,
00000001
00000000
00000100
00000000
00000010
00000000
00010000
00001000
,
00010000
00000000
01000000
00000000
00100000
00000000
10000000
00010000
,
10000000
00000000
01000000
00000000
00100000
00000000
00010000
01000000
,
00001000
00000000
00010000
00000000
00000010
00000000
00010000
00001000
,
00000000
00001000
00010000
00000000
00000000
00000000
01000000
10000000
,
00200000
00000000
00000000
00300000
00000000
00100000
10000000
00010000
,
00000000
00001000
00010000
00000000
00001000
00000000
00000010
00000100
,
00000000
00000001
00000100
00000000
00000001
00000000
00001000
00000100
,
00000000
00001000
00010000
00000000
00100000
00000000
10000000
01000000
,
00000000
10000000
00100000
00000000
01000000
00000000
00001000
00010000
,
00000000
00010000
00001000
00000000
00000010
00000000
00000100
00000010
,
00000000
00000001
00001000
00000000
00000100
00000000
00010000
00001000
,
00000000
00001000
00010000
00000000
00000000
00000000
10000000
01000000
,
00020000
00001000
00001000
00031000
,
00000000
00010000
00001000
00000000
00000010
00000000
00000001
00000000
,
00000001
00000000
00000100
00000000
00001000
00000000
00010000
00002000
,
00000000
00000000
00100000
00000000
00013000
00000000
00100000
00010000
,
00000000
10000000
02000000
00000000
10000000
00000000
13000000
00000000
,
00000000
00001000
00010000
00000000
00000200
00000000
00000010
00000010
,
00000300
00000010
00000001
00000000
00000001
00000000
00000100
00000100
,
00000000
00001000
00010000
00000000
00100000
00000000
00001000
00000000
,
00100000
00001000
00010000
00000000
;

//---------------dance-double - ----------------
#NOTES:
     dance-double:
     :
     Hard:
     9:
     0.572,0.496,0.305,0.147,0.520:
00000000
00000000
00000000
00000000
,
00000000
00000000
00000000
00000000
,
00011000
00000000
00000000
00010000
00100000
00000000
00000000
00000000
00011000
00000000
00000000
00010000
00100000
00000000
00000000
00000000
,
00011000
00000000
00000000
00010000
00100000
00000000
00000000
00000000
00011000
00000000
00000000
00010000
00100000
00000000
00000000
00000000
,
02100000
03010000
10200000
01300000
,
00021000
00030100
00001010
00000100
,
00002001
00003100
00012000
01003000
,
00210000
00301000
00010010
00001000
,
00000101
00000000
00000000
00000000
00000010
00001000
00000000
00000000
00000100
00010000
00000000
00000000
00001000
00100000
00000000
00000000
,
00010000
01000000
00000000
00000000
00100000
10000000
00000000
00000000
00010000
01000000
00000000
00000000
00001000
00010000
00000000
00000000
,
00000100
00001010
00000010
00011000
,
00100000
01010000
00100000
11000000
,
10100000
00000000
00000000
00000000
01000000
10000000
00000000
00000000
00100000
10000000
00000000
00000000
00010000
01000000
00000000
00000000
,
00001000
00100000
00000000
00000000
00000100
00010000
00000000
00000000
00000010
00001000
00000000
00000000
00000001
00000100
00000000
00000000
,
00000011
00000000
00000000
00000000
00000100
00000001
00000000
00000000
00001000
00000010
00000000
00000000
00010000
00000100
00000000
00000000
,
00100000
00001000
00000000
00000000
01000000
00010000
00000000
00000000
10000000
00100000
00000000
00000000
01000000
00010000
00000000
00000000
,
00011000
00000000
00000000
00000000
00000010
00001000
00000000
00000000
00000010
00000100
00000000
00000000
00000001
00000100
00000000
00000000
,
00000010
00000100
00000000
00000000
00000001
00001000
00000000
00000000
00000100
00010000
00000000
00000000
00001000
00010000
00000000
00000000
,
00012000
00103000
20010000
31000000
,
00102000
00000000
00013000
00000000
00100000
00010000
00001000
00000100
,
00002000
00020000
00033000
00000110
,
00000001
00001100
00010000
01010000
,
00001000
00010100
00001000
00110000
,
10000000
00010000
01000000
00000000
00100000
00010000
00001000
00000000
,
00000010
00000001
00000100
00000000
00000010
00010000
00001000
00000000
,
00100000
00010000
10000000
00000000
01000000
00100000
00001000
00000000
,
00010000
00000010
00001000
00000000
00000100
00010000
00001000
02000000
,
00000000
03100000
00000000
00000000
00010000
10000000
00010000
00000000
,
00000000
10000000
01000000
00000000
10000000
00000000
00000000
00100000
00000000
10000000
00010000
00000000
00100000
00000000
01000000
00000000
,
00000000
00010000
00001000
00000000
00010000
00000000
00000000
00000010
00000000
00001000
00000001
00000000
00000010
00000000
00000001
00000000
,
00000000
00000100
00000001
00000000
00000100
00000000
00000000
00000010
00000000
00001000
00000100
00000000
00010000
00000000
00001000
00000000
,
00000000
01000000
00010000
00000000
01000000
00000000
00000000
00100000
00000000
10000000
00010000
00000000
00100000
00000000
00001000
00000000
,
00000000
00010000
00000100
00000000
00010000
00000000
00000000
00000010
00000000
00001000
00000001
00000000
00000010
00000000
00000100
00000000
,
00000000
00010000
00001000
00000000
00010000
00000000
00000000
00100000
00000000
10000000
00010000
00000000
00100000
00000000
00001000
00000000
,
00000000
00010000
00001000
00000000
00010000
00000000
00000000
00000010
00000000
00001000
00000001
00000000
00000010
00000000
00000100
00000000
,
00000000
00000010
00000001
00000000
00001000
00000000
00000001
00000000
00000000
00000000
00000100
00000000
00001000
00000000
00010000
00000000
,
00100000
01000000
00100000
00000000
10000000
00000000
00000000
00100000
00000000
00010000
00001000
00000000
00000010
00000000
00000001
00000000
,
00000000
00000010
00000100
00000000
00001000
00000000
00000000
00000010
00000000
00010000
00001000
00000000
00100000
00000000
00010000
00000000
,
00000000
01000000
00010000
00000000
01000000
00000000
00000000
00100000
00000000
10000000
00010000
00000000
10000000
00000000
01000000
00000000
,
00000000
01000000
10000000
00000000
01000000
00000000
00000000
00100000
00000000
00001000
00010000
00000000
00000010
00000000
00001000
00000000
,
00000000
00000100
00001000
00000000
00000100
00000000
00000000
00000010
00000000
00000001
00001000
00000000
00000010
00000000
00000100
00000000
,
00000000
00000100
00000001
00000000
00000100
00000000
00000000
00000010
00000000
00010000
00001000
00000000
00100000
00000000
00010000
00000000
,
00000000
01000000
00010000
00000000
01000000
00000000
00000000
00100000
00000000
10000000
00010000
00000000
00100000
00000000
01000000
00000000
,
00000000
00010000
00001000
00000000
00010000
00000000
00001000
00000000
00000000
00000000
00000100
00000000
00000001
00000000
00000010
00000000
,
00002002
00000000
00000000
00000000
00003003
00000000
00000000
00000010
00000000
00001000
00000000
00000100
00010000
00000000
00001000
00000000
,
00000000
00010000
00001000
00000000
00010000
00000000
00000000
00100000
00000000
10000000
00000000
01000000
00100000
00000000
00010000
00000000
,
00000000
01000000
00001000
00000000
00010000
00000000
00000000
00000010
00000000
00010000
00001000
00000000
00100000
00000000
01000000
00000000
,
00000000
10000000
01000000
00000000
10000000
00000000
00000000
00100000
00000000
00010000
00001000
00000000
00000010
00000000
00000001
00000000
,
00000000
00000100
00000001
00000000
00000100
00000000
00000000
00000010
00000000
00001000
00000001
00000000
00000010
00000000
00000100
00000000
,
00000000
00010000
00001000
00000000
00010000
00000000
00000000
00000010
00000000
00010000
00001000
00000000
00100000
00000000
00010000
00000000
,
00000000
01000000
00010000
00000000
01000000
00000000
00000000
00100000
00000000
10000000
00010000
00000000
00100000
00000000
01000000
00000000
,
00000000
10000000
00010000
00000000
01000000
00000000
00000000
00000000
00100000
00000000
00010000
00000000
00001000
00000000
00000100
00000000
,
00000010
00010000
00001000
01000000
00000000
00000000
00000000
00000000
;

//---------------dance-single - ----------------
#NOTES:
     dance-single:
     :
     Challenge:
     9:
     0.658,0.650,0.063,0.305,0.710: // measure 1
0000
0000
0000
0000
,  // measure 2
0000
0010
0000
0100
1000
0000
1000
0010
0000
0100
0000
0001
0010
0000
0010
0100
,  // measure 3
0000
1000
0000
0010
0100
0000
0100
0001
0000
0010
0000
0100
1000
0000
1000
0010
,  // measure 4
0000
0100
0000
0001
0010
0000
0010
0100
0000
1000
0000
0010
0100
0000
0100
0000
,  // measure 5
0001
0001
0001
0001
,  // measure 6
2000
3020
0230
2300
,  // measure 7
3002
0203
0320
0032
,  // measure 8
2003
3020
0230
0302
,  // measure 9
1003
0000
0100
1000
0000
0000
0001
0100
0000
0000
0010
1000
0000
0000
0001
0010
,  // measure 10
0000
0000
0001
1000
0000
0000
0010
0100
0000
0000
0001
0010
0000
0000
0100
1000
,  // measure 11
0000
0011
0000
0101
,  // measure 12
0000
1100
0000
0011
,  // measure 13
0001
0010
1000
0010
0001
0100
0010
1000
,  // measure 14
0001
0000
1000
0100
0000
0000
1000
0010
0000
0000
0100
0001
0000
0000
0010
0001
,  // measure 15
0100
0010
1000
0100
0001
0100
1000
0001
,  // measure 16
0100
0000
0010
1000
0000
0000
0001
0010
0000
0000
0001
0100
0000
0000
0010
1000
,  // measure 17
0100
0010
0100
1000
0010
0100
0001
0010
,  // measure 18
0100
0000
1000
0001
0000
0000
0100
0010
0000
0000
0001
1000
0000
0000
0010
0100
,  // measure 19
1000
0001
0200
0001
0000
0001
0000
0001
,  // measure 20
0000
0001
0300
0001
0010
0100
1000
0002
,  // measure 21
0000
0000
0000
0000
0203
0000
0000
0000
0010
0300
0010
0000
0002
0000
0000
0000
,  // measure 22
0100
0003
0100
0000
2000
0000
0000
0000
0010
3000
0010
0000
0200
0000
0000
0000
,  // measure 23
0001
0300
0001
0000
0020
0000
0000
0000
1000
0030
1000
0000
0002
0000
0000
0000
,  // measure 24
0100
0003
0100
0000
2000
0000
0000
0000
0010
3000
0010
0000
0200
0000
0000
0300
,  // measure 25
0001
1000
0000
0001
1000
0000
0001
0010
0000
0001
0010
0000
0002
0000
1000
0000
,  // measure 26
0013
0010
0200
0000
0301
0001
2000
0000
,  // measure 27
3100
0100
0020
0000
0031
0001
0200
0000
,  // measure 28
1300
1000
0200
0000
0301
0001
0110
1001
,  // measure 29
0000
0001
0000
0000
0001
0000
0000
0010
0000
0010
0100
0000
1000
0000
0001
0000
,  // measure 30
0000
1000
0000
0000
1000
0000
0000
0010
0000
0010
0100
0000
0001
0000
1000
0000
,  // measure 31
0000
0100
0000
0000
0100
0000
0000
0010
0000
0010
0001
0000
1000
0000
0001
0000
,  // measure 32
0000
0100
0000
0000
0100
0000
0000
0010
0000
0010
1000
0000
0001
0000
1000
0000
,  // measure 33
0000
0100
0000
0000
0100
0000
0000
0010
0000
0010
0001
0000
0100
0000
1000
0000
,  // measure 34
0000
0100
0000
0000
0100
0000
0000
0010
0000
0010
1000
0000
0100
0000
0001
0000
,  // measure 35
0000
0100
0000
0000
0100
0000
0000
0010
0000
0010
1000
0000
0010
0000
0001
0000
,  // measure 36
0000
0100
0000
0000
0100
0000
0000
0010
0000
0010
0001
0000
0010
0000
1000
0000
,  // measure 37
0001
0100
0000
0001
0100
0000
0001
0010
0000
0001
0010
0000
0001
0000
1000
0000
,  // measure 38
0100
1000
0000
0100
1000
0000
0001
0010
0000
0001
0010
0000
0001
0000
1000
0000
,  // measure 39
0100
1000
0000
0100
1000
0000
0100
0010
0000
0100
0010
0000
0001
0000
1000
0000
,  // measure 40
0001
0100
0000
0001
0100
0000
0010
0100
0000
0010
0100
0000
0001
0000
1000
0000
,  // measure 41
0100
1000
0000
0100
1000
0000
0010
1000
0000
0010
1000
0000
0001
0000
0010
0000
,  // measure 42
0001
0100
0000
0001
0100
0000
0001
0010
0000
0001
0010
0000
0001
0000
0100
0000
,  // measure 43
1000
0100
0000
1000
0100
0000
0001
0100
0000
0001
0100
0000
0010
0000
1000
0000
,  // measure 44
0100
0001
0000
0100
0001
0000
0100
1000
0000
0100
1000
0000
0001
0000
1000
0000
,  // measure 45
0100
1000
0000
0001
0100
0000
0010
1000
0000
0001
0010
0001
0010
0000
0100
0000
,  // measure 46
1000
0100
0000
0010
0001
0000
0100
0001
0000
1000
0010
1000
0010
0000
0100
0000
,  // measure 47
0001
1000
0000
0100
1000
0000
0001
1000
0000
0010
0100
0010
0100
0000
0001
0000
,  // measure 48
1000
0100
0000
1000
0010
0000
1000
0001
0000
0100
0001
0100
0001
0000
1000
0000
,  // measure 49
0100
1000
0000
0001
0010
0000
0001
0100
0000
0001
1000
0100
0010
0000
0001
0000
,  // measure 50
0100
0001
0000
1000
0010
0000
1000
0100
0000
0010
0001
1000
0001
0000
0100
0000
,  // measure 51
0010
1000
0000
0100
1000
0000
0010
0100
0000
0001
0010
0100
1000
0000
0001
0000
,  // measure 52
1000
0100
0000
1000
0001
0000
0010
0001
0010
0000
0100
0000
1000
0000
0002
0000
,  // measure 53
0000
0000
0000
0000
,  // measure 54
0000
0000
0000
0003
;
