#TITLE:DESTINY;
#SUBTITLE:;
#ARTIST:NAOKI feat.PAULA TERRY;
#TITLETRANSLIT:;
#SUBTITLETRANSLIT:;
#ARTISTTRANSLIT:;
#CREDIT:;
#BANNER:DESTINY.png;
#BACKGROUND:DESTINY-bg.png;
#LYRICSPATH:;
#CDTITLE:./CDTITLES/DDRMAX2 -Dance Dance Revolution 7thMIX-.PNG;
#MUSIC:DESTINY.mp3;
#OFFSET:-1.626;
#SAMPLESTART:69.630;
#SAMPLELENGTH:15.000;
#SELECTABLE:YES;
#DISPLAYBPM:155.000;
#BPMS:0.000=154.970;
#STOPS:;
#BGCHANGES:;

//---------------dance-single - ----------------
#NOTES:
     dance-single:
     :
     Easy:
     2:
     0.168,0.245,0.058,0.000,0.000:
0000
0000
0000
0000
,
0000
0000
0000
0000
,
0000
0000
0000
0000
,
0000
0000
0000
0000
,
0010
0000
0100
0000
,
0010
0000
0100
0000
,
0001
0000
1000
0000
,
0001
0001
0001
0000
,
0001
0000
0000
0000
,
0100
0000
0000
0000
,
0010
0000
1000
0000
,
0001
0001
0001
0000
,
1000
0000
1000
0000
,
1000
0000
1000
0000
,
0010
0000
0100
0000
,
0010
0010
0010
0000
,
0001
0000
0100
0100
,
1000
0000
0100
0100
,
0001
0000
0001
0000
,
0100
0100
0100
0000
,
0010
0000
0000
0000
,
0100
0000
0000
0000
,
0001
0000
1000
0000
,
0010
0010
0010
0000
,
1001
0000
0100
0000
,
1001
0000
0100
0000
,
1000
0000
0100
0000
,
0001
0000
0100
0000
,
0010
0000
0100
0100
,
1000
0000
0001
0001
,
0100
0000
0010
0000
,
1000
0000
0001
0000
,
0001
0000
0000
0000
,
1000
0000
0000
0000
,
0001
0000
1000
0000
,
0100
0000
0000
0000
,
1001
0000
0100
0000
,
1001
0000
0100
0000
,
0001
1000
0100
0000
,
0001
1000
0100
0100
,
0100
0000
0000
0000
,
1000
0000
0000
0000
,
0001
0000
0000
0000
,
1000
0010
0100
0100
,
0100
0000
0000
0000
,
0001
0000
0100
0000
,
1000
0000
0000
0000
,
1000
0000
0100
0000
,
0001
0000
0000
0000
,
0000
0000
0000
0000
,
0010
0000
0100
0000
,
0001
0000
0100
0100
,
1000
0000
0000
0000
,
0100
0000
0010
0000
,
0001
0000
0000
0000
,
1000
0000
0100
0000
,
0010
0000
0000
0000
,
0001
0000
0000
0000
,
1000
0000
1000
0000
,
1000
1000
1000
0000
,
0110
0000
0000
0000
,
1001
0000
0000
0000
,
0010
0000
0100
0000
,
0001
1000
0100
0000
;

//---------------dance-single - ----------------
#NOTES:
     dance-single:
     :
     Medium:
     5:
     0.378,0.427,0.193,0.154,0.043:
0000
0000
0000
0000
,
0000
0000
0000
0000
,
0000
0000
0000
0000
,
0000
0000
0000
0000
,
0010
0000
1001
0000
0010
1000
0100
0000
,
0010
0000
1001
0000
0010
1000
0100
0000
,
0001
0001
1000
1000
,
0010
0000
0101
0000
0010
1000
0100
0000
,
0002
0000
0000
0003
,
0200
0000
0000
0300
,
0010
0010
1000
1000
,
0002
0003
0010
0010
,
1000
0101
1000
0101
,
1000
0000
0100
0000
1000
0001
0100
0000
,
0001
1100
0001
1100
,
0010
0001
0010
0000
1000
0100
1000
0000
,
2001
0001
0100
0100
,
0001
0100
0001
3100
,
1002
1000
0100
0100
,
1000
0100
1000
0103
,
0002
1000
0000
1003
,
2000
0001
0000
3001
,
0000
0100
0000
0100
,
0010
0010
0010
1001
,
0010
0000
0100
0000
0010
1000
0100
0000
,
0001
0100
1000
0100
,
0020
0030
0100
0100
,
1000
0100
0001
0100
,
2000
3000
0100
0100
,
0002
0003
0100
0100
,
1000
0000
0001
0000
0010
1000
0100
0000
,
0001
0000
1000
0000
0010
1000
0100
0000
,
0002
0000
0000
0003
,
1000
0000
1000
0000
0010
1000
0100
0000
,
0001
0000
0000
0001
0000
0000
0001
0000
1000
0000
0000
1000
0000
0000
1000
0000
,
0100
0000
0100
0100
,
1001
0000
0110
0000
0010
1000
0100
0000
,
0002
0003
0100
0100
,
2000
3000
0100
0100
,
0010
1001
0110
1001
,
0020
0000
0030
0000
0010
1000
0100
0000
,
0020
0000
0030
0000
0010
0001
0100
0000
,
0002
0003
1000
0100
,
0000
0000
0001
0000
0000
0001
0000
0000
1000
0000
0000
1000
0000
0000
0100
0000
,
0100
0000
0100
0000
0010
1000
0100
0000
,
0001
0000
1000
0100
,
0001
0010
0100
1000
,
0001
0000
0001
0000
0010
0100
1000
0000
,
0001
0000
0010
0000
0100
1000
0010
0000
,
0001
0000
1000
0010
,
0100
0001
0010
0100
,
1000
0000
1000
0000
0001
0010
0100
0000
,
1001
0000
0100
0000
0001
1000
0100
0000
,
0010
1000
0001
0000
0010
1000
0001
0000
,
0010
0000
0100
0000
0001
1000
0100
0000
,
0001
1000
0100
0000
1001
0000
0100
0000
,
0010
0000
1001
0000
0000
0100
0100
0000
,
1000
0000
0110
0000
0000
0001
0001
0000
,
1000
0100
0001
0101
,
1000
0100
0001
0100
,
1000
0000
0000
1000
0000
0000
1000
0000
0000
0000
0000
0000
0000
0000
0000
0000
,
0001
0000
0000
0001
0000
0000
0001
0000
0000
0000
0000
0000
0000
0000
0000
0000
,
0010
0000
0000
1000
0000
0000
0100
0000
0000
0010
0000
0000
0001
0000
0001
0000
,
1000
0000
0000
0100
0000
0000
0100
0000
0000
0000
0000
0000
0000
0000
0000
0000
;

//---------------dance-single - ----------------
#NOTES:
     dance-single:
     :
     Hard:
     7:
     0.547,0.610,0.520,0.116,0.082:
0000
0000
0000
0000
,
0000
0000
0000
0000
,
0000
0000
0000
0000
,
0000
0000
0000
0000
,
0010
1000
0100
0000
0010
0001
0100
0000
,
0010
1000
0001
0100
0010
1000
0100
0000
,
0001
1000
0100
0000
1000
0001
0100
0000
,
0001
0010
0100
1000
0000
0001
0100
0000
,
0001
0000
0100
0000
0010
1000
0100
0000
,
1000
0000
0100
0000
0010
0001
0100
0000
,
0001
0100
1000
0100
,
0010
0010
0010
1001
,
0010
1001
0010
1100
,
0010
1001
0010
0101
,
0010
1000
0100
0000
0001
1000
0100
0000
,
0010
1000
0100
0010
0001
1000
0100
0000
,
0220
0000
0330
0000
0001
1000
0100
0000
,
0220
0000
0330
0000
1000
0001
0100
0000
,
1000
0100
0010
0000
0001
0100
0010
0000
,
1000
0100
0010
0001
0100
1000
0100
0000
,
1000
0101
0000
0101
0000
1000
0010
0010
,
0100
0101
0000
0101
0000
0001
1000
0100
,
0010
1001
0000
1001
0000
0010
0010
0000
,
0001
1000
0000
0010
0000
1000
0001
0100
,
0010
0000
1001
0000
0010
1000
0100
0000
,
1001
0100
0010
0000
0110
1000
0001
0000
,
1000
0001
1000
0010
0100
0001
0001
0000
,
0001
1000
0001
0010
0100
1000
1000
0000
,
0010
0100
0002
0000
0000
1000
1000
0000
,
0000
0000
0100
0000
0000
1000
1003
0000
,
0010
0000
0100
0000
0010
1000
0100
0000
,
1000
0010
0001
0010
1000
0100
0001
0000
,
0100
0000
0000
1000
0000
0000
0001
0000
0000
0000
0000
0000
0000
0000
0000
0000
,
0001
1000
0010
0001
0010
1000
0100
0000
,
1001
0000
0000
1001
0000
0000
0010
0000
0100
0000
0000
0001
0000
0000
1000
0000
,
1001
0000
0000
0000
0010
1000
0100
0010
,
1001
0000
0000
0000
0110
0000
0000
0000
0010
1000
0000
0000
0101
0000
0000
0000
,
1001
0000
0000
0000
1100
0000
0000
0000
1000
0001
0000
0000
0101
0000
0000
0000
,
1001
0000
0000
0000
0011
0000
0000
0000
0100
1000
0000
0000
0101
0000
0000
0000
,
0010
1000
0100
0001
0100
1000
0010
0000
,
1000
0100
1000
0020
0000
0100
0130
0000
,
0001
1000
0100
0020
0000
0001
0031
0000
,
0001
0010
0100
2000
0000
0010
0010
3010
,
0000
0000
0101
0000
0000
1001
0000
0000
1100
0000
0000
1001
0000
0000
1001
0000
,
0110
0000
0000
0000
1001
0000
0000
0000
0010
1000
0000
0000
0100
0000
0000
0000
,
1001
0000
0000
0000
0101
0000
0000
0000
0001
0010
0000
0000
0100
0000
0000
0000
,
1000
0000
0010
0000
0100
0000
0000
0000
0001
1000
0000
0000
0100
0000
0000
0000
,
0010
0000
0001
0000
0100
0000
0000
0000
0001
1000
0000
0000
0100
0000
0000
0000
,
0001
0010
0100
0000
0100
1000
0010
0000
,
1000
0010
0001
0010
1000
0100
0001
0000
,
1100
0000
0001
0010
0100
1000
0001
0000
,
0101
0000
1000
0010
0100
0001
1000
0000
,
0010
0100
0001
0100
0010
0100
0001
0100
,
0010
1000
0010
0100
0010
1000
0010
0100
,
0001
0010
0001
1000
0001
0010
0001
1000
,
0100
0010
0100
0001
0100
0010
0100
0001
,
0000
0110
0110
0000
0000
0100
0100
1000
,
0000
0110
1001
0000
0000
0001
1000
0100
,
1000
0000
0001
0101
0000
0000
0010
0000
,
1000
1001
0000
0000
0010
0000
0010
0000
,
1001
0000
0000
1100
0000
0000
2002
0000
0000
0000
0000
0000
3003
0000
0000
0000
,
0110
0000
0000
1100
0000
0000
0220
0000
0000
0000
0000
0000
0330
0000
0000
0000
,
0110
0000
0000
1000
0000
0000
0001
0000
0000
0010
0000
0000
0100
0000
0100
0000
,
1000
0000
0000
0110
0000
0000
1001
0000
0000
0000
0000
0000
0000
0000
0000
0000
;

//---------------dance-double - ----------------
#NOTES:
     dance-double:
     :
     Easy:
     2:
     0.221,0.306,0.087,0.048,0.000:
00000000
00000000
00000000
00000000
,
00000000
00000000
00000000
00000000
,
00100000
00000000
10000000
00000000
,
01000000
00000000
00010000
00010000
,
00011000
00000000
00000010
00000010
,
00000110
00000000
00000001
00000001
,
00001001
00000100
00000100
00000100
,
00000100
00000000
00002000
00000000
,
00013000
00000000
00020000
00000000
,
01030000
00000000
20000000
00000000
,
31000000
00000000
00020000
00000000
,
00031000
00001000
00000100
00000000
,
00001001
00000000
00000100
00000000
,
00011000
00000000
00010000
00000000
,
00100000
00000000
10000000
00000000
,
01000000
01000000
00010000
00010000
,
00001000
00000000
00000100
00000000
,
00000001
00000000
00000100
00000000
,
00001000
00000000
00010000
00000000
,
01000000
01000000
01000000
00000000
,
10000000
00000000
01000000
00000000
,
00010000
00000000
00001000
00000000
,
00000010
00000000
00000100
00000000
,
00000001
00000001
00000100
00000100
,
00010000
00000000
00100000
00000000
,
01000000
00000000
10000000
00000000
,
01000000
00000000
00010000
00000000
,
00001000
00000000
00000100
00000000
,
00000010
00000010
00000010
00000000
,
00000100
00000000
00001000
00000000
,
00010000
00010000
00010000
00000000
,
01000000
00000000
10000000
00000000
,
00100000
00000000
01000000
00000000
,
00001000
00000000
00010000
00000000
,
00000010
00000000
00000100
00000000
,
00001000
00000000
00010000
00010000
,
00010000
00000000
01000000
00100000
,
01000000
00000000
00010000
00001000
,
00010000
00000000
00000100
00000000
,
00000010
00000010
00000001
00000001
,
00000100
00000000
00010000
00000000
,
01000000
00000000
00100000
00000000
,
10000000
00000000
01000000
00000000
,
00020000
00000000
00000000
00030000
,
00011000
00000000
00000100
00000000
,
00000110
00000000
00001000
00000000
,
00011000
00000000
01000000
00000000
,
01100000
00000000
00010000
00000000
,
00001000
00000000
00001000
00000000
,
00000100
00000000
00000100
00000000
,
00001000
00100000
01000000
00000000
,
00010000
00000010
00000100
00000000
,
00000001
00000000
00000001
00000000
,
00000001
00000000
00000001
00000000
,
00000100
00000000
00001000
00000000
,
00010000
00000000
00010000
00000000
,
01000000
10000000
10000000
00000000
,
00010000
01000000
01000000
00000000
,
00001000
00000000
00010000
00000000
,
00000010
00000000
00000100
00000000
,
00000001
00000001
00000001
00000000
,
00000100
00001000
00010000
00000000
,
00100000
00000000
01000000
00000000
,
10000000
00000000
00010000
00000000
;

//---------------dance-double - ----------------
#NOTES:
     dance-double:
     :
     Medium:
     6:
     0.406,0.458,0.241,0.019,0.043:
00000000
00000000
00000000
00000000
,
00000000
00000000
00000000
00000000
,
00000000
00000000
00000000
00000000
,
00001000
00000000
00010000
00000000
00000000
00001000
00010000
00000000
,
00011000
00000000
00101000
00000000
00000000
00001000
00010000
00000000
,
00011000
00000000
00010010
00000000
00000000
00001000
00010000
00000000
,
00010100
00000000
00001100
00000000
00000000
00000001
00000100
00000000
,
00001000
00010000
01000000
10000000
,
10000000
00000000
01000000
00010000
,
00001000
00000000
00001000
00000100
,
00000001
00000010
00000100
00000000
00001000
00000010
00000100
00000000
,
00001000
00010000
01000000
00000000
,
11000000
00000000
10010000
00000000
01000000
00010000
00001000
00000000
,
00011000
00000000
00010100
00000000
00000010
00000001
00000100
00000000
,
00001000
00000000
00001000
00010000
01000000
00000000
01000000
00000000
,
01000000
10000000
00100000
00000000
00100000
00000000
10010000
00000000
,
10000000
00000000
01000000
00000000
00100000
00010000
01000000
00000000
,
00001000
00000000
00010000
00000000
00000010
00001000
00000100
00000000
,
00000010
00000001
00000100
00001000
,
00010000
01000000
10000000
00100000
,
10000000
10000000
00000000
01000000
00000000
00010000
00000000
00001000
,
00000000
00000100
00000000
00000001
00000000
00000010
00000000
00001000
,
00000000
00010000
00000000
00100000
00000000
10000000
00000000
01000000
,
01000000
01000000
00000000
00010000
00000000
00010000
00001000
00000000
,
00011000
00000000
00000010
00000000
00001000
00000001
00000100
00000000
,
00000110
00000000
00001000
00000000
00010000
01000000
10000000
00000000
,
11000000
00000000
00100000
00000000
00001000
00010000
00001000
00000000
,
00010010
00000000
00001000
00000000
00000001
00000010
00000100
00000000
,
00001000
00000000
00000010
00000000
00000100
00001000
00010000
00000000
,
00100000
00000000
10000000
00000000
00010000
00100000
01000000
00000000
,
00020000
00000000
00002000
00033000
,
00010010
00000000
00011000
00000000
00001000
00000010
00000001
00000000
,
00000001
00000000
00000000
00000001
00000000
00000000
00000001
00000000
00000000
00000000
00000000
00000000
00000000
00000000
00000000
00000000
,
00000010
00001000
00010000
00100000
,
10000000
00000000
00000000
10000000
00000000
00000000
10000000
00000000
01000000
00000000
00000000
01000000
00000000
00000000
01000000
00000000
,
00010000
00000000
00001000
00001000
,
00010010
00000000
00011000
00000000
00001000
00000100
00000001
00000000
,
00000110
00000000
00010000
00000000
00001000
00100000
01000000
00000000
,
10000000
00000000
00010000
00000000
10000000
00100000
01000000
00000000
,
00001000
00010000
00000010
00000100
,
00000001
00000000
00000100
00000000
00001000
00000000
00010000
01000000
,
10000000
00100000
10000000
00000000
00010000
00000000
10000000
00000000
,
10000000
01000000
00010000
00001000
00000000
00000100
00000001
00000001
,
00000000
00000000
00000010
00000000
00000000
00001000
00000000
00000000
00010000
00000000
00000000
00100000
00000000
00000000
10000000
00000000
,
11000000
00000000
10000000
00000000
00000000
10000000
00000000
01000000
,
00000000
00100000
00000000
00010000
00000000
01000000
00000000
00001000
,
00000000
00000010
00000000
00000001
00000000
00000100
00000000
00001000
,
00000000
00010000
00000000
01000000
00000000
10000000
00000000
00100000
,
00000000
10000000
00010000
00000000
00000000
00010000
00001000
00000000
,
00000000
00001000
00000001
00000000
00000000
00000000
00000001
00000000
,
00000100
00001000
00010000
00001000
,
00000010
00001000
00011000
00101000
,
01000000
00000000
01000000
00000000
10000000
00100000
01000000
00000000
,
00001000
00000000
00010000
00000000
00000010
00001000
00000001
00000000
,
00000010
00000001
00000100
00000000
00000010
00001000
00000100
00000000
,
00010000
00000000
00001000
00000000
00100000
01000000
10000000
00000000
,
00000000
00010000
01000000
00000000
00000000
00001000
00010000
00000000
,
00000000
00000100
00000010
00000000
00000000
00001000
00000001
00000000
,
00000100
00001000
00010000
01000000
,
10000000
00100000
00010000
00001000
,
00011000
00000000
00000000
00000010
00000000
00000000
00000100
00000000
00000000
00000000
00000000
00000000
00000000
00000000
00000000
00000000
,
00000110
00000000
00000000
00000100
00000000
00000000
00001000
00000000
00000000
00000000
00000000
00000000
00000000
00000000
00000000
00000000
,
00010000
00000000
00000000
01000000
00000000
00000000
10000000
00000000
00000000
00000000
00010000
00000000
00100000
00000000
01000000
00000000
,
10000000
00000000
00000000
10000000
00000000
00000000
10000000
00000000
00000000
00000000
00000000
00000000
00000000
00000000
00000000
00000000
;

//---------------dance-double - ----------------
#NOTES:
     dance-double:
     :
     Hard:
     8:
     0.481,0.519,0.096,0.039,0.144:
00000000
00000000
00000000
00000000
,
00000000
00000000
00000000
00000000
,
00000000
00000000
00000000
00000000
,
00001000
00000000
00000000
00001000
00010000
00000000
00000010
00000000
00000000
00000000
00000100
00000000
00000001
00000000
00000000
00000000
,
00000010
00000000
00000000
00000001
00000100
00000000
00001000
00000000
00000000
00000000
00010000
00000000
01000000
00000000
00000000
00000000
,
10000000
00000000
00000000
00100000
01000000
00000000
00010000
00000000
00000000
00000000
10000000
00000000
01000000
00000000
00000000
00000000
,
00100000
00000000
00000000
00001000
00010000
00000000
01000000
00000000
00000000
00000000
00010000
00000000
00001000
00000000
00000000
00000000
,
00000010
00000000
00000000
00000001
00000100
00000000
00001000
00000000
00000000
00000000
00001000
00000000
00010000
00000000
00000000
00000000
,
00200000
00000000
00000000
10000000
00300000
10000000
01000000
00010000
,
00002000
00000000
00000000
00010000
00003000
00010000
00000100
00000010
,
00000002
00000000
00000000
00000010
00000003
00000000
00000000
00000000
,
00000100
00001000
00010000
01000000
,
10100000
00000000
00000000
00000000
10010000
00000000
00000000
00010000
10000000
00000000
01000000
00000000
00010000
00000000
00000000
00000000
,
00011000
00000000
00000000
00000000
00010100
00000000
00000000
00001000
00000100
00000000
00000010
00000000
00000001
00000000
00000000
00000000
,
00000100
00000000
00000000
00001000
00010000
00000000
00000000
00000000
00100000
00000000
10000000
00000000
01000000
00000000
00000000
00000000
,
10000000
00000000
00000000
01000000
00010000
00000000
00000000
00000000
00001000
00000000
00010000
00000000
01000000
00000000
00000000
00000000
,
00100000
00000000
00001000
00000000
00010000
00001000
00000100
00000000
,
00000001
00000000
00000010
00000000
00000100
00010000
00001000
00000000
,
00000010
00000001
00000100
00001000
,
00010000
00000000
01000000
00000000
10000000
00100000
01000000
00000000
,
00000000
00010000
00000000
00100000
00000000
00001000
00010000
00000010
,
00000000
00000100
00000000
00000001
00000000
00000100
00001000
00010000
,
00000000
00100000
00000000
10000000
00000000
01000000
00010000
01000000
,
10000000
00100000
00000000
00010000
00000000
00001000
00000010
00000001
,
00000101
00000000
00000000
00000000
00000010
00000000
00000000
00000000
00001000
00000010
00001000
00000000
00000100
00000000
00000000
00000000
,
00010000
00000000
00001000
00000000
01000000
00000000
00000000
00000000
00010000
01000000
00010000
00000000
10000000
00000000
00000000
00000000
,
10000000
01000000
00100000
00000000
00001000
00010000
01000000
00000000
,
00010000
00001000
00000100
00000000
00000001
00001000
00000100
00000000
,
00001000
00000010
00000100
00000000
00001000
00010000
01000000
00000000
,
10000000
00100000
00010000
00000000
00100000
10000000
01000000
00000000
,
00010000
00000000
00001000
00010000
00000000
00000010
00000000
00000100
,
00000000
00000001
00000001
00000001
,
00000010
00000000
00000000
00000001
00000000
00000000
00000100
00000000
00000000
00000000
00000000
00000000
00001000
00000000
00000000
00000000
,
00010000
00000000
01000000
00000000
10000000
00100000
00010000
00000000
,
00100000
00000000
00000000
10000000
00000000
00000000
01000000
00000000
10000000
00000000
00000000
00010000
00000000
00000000
00001000
00000000
,
00000100
00000000
00000000
00000001
00000000
00000100
00000100
00000000
,
00000100
00001000
00000000
00000000
00010000
00000000
00000000
00000000
01000000
00000000
10000000
00000000
10000000
00000000
00000000
00000000
,
01000000
00010000
00000000
00000000
00001000
00000000
00000000
00000000
00000100
00000000
00000001
00000000
00000001
00000000
00000000
00000000
,
00001000
00000100
00000001
00000100
00001000
00000010
00000100
00000000
,
00001000
00010000
01000000
10000000
00100000
00010000
00100000
00000000
,
10000000
01000000
00010000
01000000
10000000
00100000
00010000
00000000
,
00001000
00010000
01000000
00010000
00001000
00000100
00000001
00000000
,
00001000
00000010
00000001
00000010
00001000
00000100
00000001
00000100
,
00000000
00000000
00001000
00000000
00000000
00000010
00000000
00000000
00000100
00000000
00000000
00001000
00000000
00000000
00010000
00000000
,
01000000
00000000
10010000
00000000
00100000
10000000
01000000
00000000
,
00010000
00000000
00001000
00000000
00001000
00000100
00000010
00000000
,
00000001
00000100
00001000
00000000
00001000
00010000
01000000
00000000
,
10000000
00100000
10000000
01000000
00010000
00001000
00000100
00000000
,
00000001
00000010
00001000
00000010
00000001
00000100
00001000
00000000
,
00010000
01000000
10000000
00100000
00010000
00100000
10000000
00000000
,
01000000
00000000
00010000
00001000
00000000
00000100
00000000
00000002
,
00000000
00000000
00000103
00000110
,
00010010
00000000
00000000
00000000
00001000
00000000
00010000
00000000
01000000
00010000
00000000
00000000
00001000
00000000
00000000
00000000
,
00001000
00000000
00000000
00000000
00000100
00000000
00000001
00000000
00000010
00000100
00000000
00000000
00001000
00000000
00000000
00000000
,
00000010
00000000
00000100
00000000
00001000
00000000
00010000
00000000
01000000
00100000
00000000
00000000
00010000
00000000
00000000
00000000
,
10000000
00000000
01000000
00000000
00010000
00000000
00001000
00000000
00010000
00001000
00000000
00000000
00000100
00000000
00000000
00000000
,
00001001
00000100
00000010
00000000
00001000
00000100
00010000
00000000
,
00011000
00010000
01000000
00000000
10000000
00100000
01000000
00000000
,
00100000
00000000
10000000
01000000
00000000
00000000
00010000
00000000
,
00001000
00000100
00000000
00000000
00000001
00000010
00000100
00000000
,
00000001
00000100
00000000
00000010
00000000
00000000
00000100
00000000
00000000
00000000
00000000
00000000
00000000
00000000
00000000
00000000
,
00001000
00010000
00000000
01000000
00000000
00000000
10000000
00000000
00000000
00000000
00000000
00000000
00000000
00000000
00000000
00000000
,
00100000
00000000
00000000
00010000
00000000
00000000
00001000
00000000
00000000
00000010
00000000
00000000
00000001
00000000
00000100
00000000
,
00000001
00001000
00000000
00000100
00000000
00000000
00000100
00000000
00000000
00000000
00000000
00000000
00000000
00000000
00000000
00000000
;

//---------------dance-single - ----------------
#NOTES:
     dance-single:
     :
     Beginner:
     1:
     0.169,0.245,0.077,0.000,0.000:
0000
0000
0000
0000
,
0000
0000
0000
0000
,
0000
0000
0000
0000
,
0000
0000
0000
0000
,
0010
0000
0100
0000
,
0010
0000
0100
0000
,
0001
0000
1000
0000
,
0001
0001
0001
0000
,
0001
0000
0000
0000
,
0100
0000
0000
0000
,
0010
0000
1000
0000
,
0001
0001
0001
0000
,
1000
0000
1000
0000
,
1000
0000
1000
0000
,
0010
0000
0100
0000
,
0010
0010
0010
0000
,
0001
0000
0100
0000
,
1000
0000
0100
0000
,
0001
0000
0100
0000
,
0100
0100
0100
0000
,
0010
0010
0010
0000
,
0100
0100
0100
0000
,
0001
0000
1000
0000
,
0010
0010
0010
0000
,
1001
0000
0100
0000
,
1001
0000
0100
0000
,
1000
0000
0100
0000
,
0001
0000
0100
0000
,
0010
0000
0100
0100
,
0100
0000
0001
0001
,
0001
0000
0010
0000
,
1000
0000
0001
0001
,
0001
0000
0000
0000
,
1000
0000
0000
0000
,
0001
0000
1000
0000
,
0100
0000
0000
0000
,
1001
0000
0100
0000
,
1001
0000
0100
0000
,
1001
0000
0100
0000
,
0001
0000
0100
0100
,
0100
0000
0000
0000
,
1000
0000
0000
0000
,
0001
0000
0000
0000
,
1000
0000
0100
0100
,
0100
0000
0000
0000
,
0001
0000
0100
0000
,
1000
0000
0000
0000
,
1000
0000
0100
0000
,
0001
0000
0000
0000
,
0000
0000
0000
0000
,
0010
0000
0100
0000
,
0001
0000
0100
0100
,
0100
0000
0000
0000
,
0100
0000
0010
0000
,
0001
0000
0000
0000
,
1000
0000
0100
0000
,
0010
0000
0000
0000
,
0001
0000
0000
0000
,
1000
0000
1000
0000
,
1000
1000
1000
0000
,
0110
0000
0000
0000
,
1001
0000
0000
0000
,
0010
0000
0100
0000
,
0001
0000
1001
0000
;

//---------------dance-single - ----------------
#NOTES:
     dance-single:
     :
     Challenge:
     9:
     0.587,0.763,0.433,0.154,0.246: // measure 1
0000
0000
0000
0000
,  // measure 2
0000
0000
0000
0000
,  // measure 3
0000
0000
0000
0000
,  // measure 4
0120
0000
0000
0030
,  // measure 5
0001
0100
0010
1000
,  // measure 6
0100
1000
0010
0100
,  // measure 7
0001
0010
0001
1000
,  // measure 8
2001
0000
0000
3010
0000
0100
0001
1000
,  // measure 9
0100
0000
0000
0010
0000
0100
1000
0001
,  // measure 10
1000
0000
0000
0010
0000
0100
0001
1000
,  // measure 11
0100
0000
0010
0001
0000
0001
0000
0001
,  // measure 12
0000
0000
0001
0000
0000
0000
0001
0000
0000
0000
1000
0100
1000
0000
0001
0100
,  // measure 13
0001
0110
0100
1001
,  // measure 14
0001
1100
1000
0011
,  // measure 15
0001
1010
1000
0101
,  // measure 16
0001
1001
1100
0110
,  // measure 17
0011
0000
0000
0000
0000
0001
1000
0100
,  // measure 18
0010
0000
0000
0000
0000
0001
0100
0010
,  // measure 19
1000
0001
1000
0001
0010
0001
0010
0001
,  // measure 20
0010
0100
0010
0100
1000
0100
1000
0100
,  // measure 21
1000
1100
0000
1100
0000
1100
0000
1100
,  // measure 22
0000
1001
0000
1001
0000
1001
0000
1001
,  // measure 23
0000
0000
0110
0000
0000
0000
0110
0000
0000
0000
0110
0000
0000
0000
0100
0010
,  // measure 24
0100
0000
0000
0000
0000
0000
0001
1000
0001
0000
1000
0000
0100
0000
0010
0000
,  // measure 25
0002
0203
0320
2030
,  // measure 26
3002
0000
0203
1000
0300
1000
0000
0100
,  // measure 27
0000
0010
1000
0001
0100
0001
1000
0100
,  // measure 28
0010
0001
0100
0001
0000
1000
0100
1000
,  // measure 29
1001
0100
0001
0000
0100
0000
1000
0000
,  // measure 30
0100
0000
0001
0100
0000
0100
0010
1000
,  // measure 31
0010
0000
0100
0002
0000
2003
0000
3002
,  // measure 32
0000
0003
0000
0000
,  // measure 33
0100
0000
0000
0001
0000
0000
0010
0000
0000
0000
0000
0000
0000
0000
0000
0000
,  // measure 34
0000
0000
0100
1000
0100
1000
0001
0100
0001
0100
0010
1000
0010
0100
0001
1000
,  // measure 35
0100
0000
0000
1000
0000
0000
0001
0000
0010
0000
0000
0001
0000
0000
1000
0100
,  // measure 36
1000
0001
0000
0000
1000
0000
0000
0000
,  // measure 37
0001
0100
0001
0100
0001
0000
1000
0010
1000
0010
1000
0000
0100
0000
0010
0000
,  // measure 38
0001
0010
0001
0010
0001
0000
1000
0010
1000
0010
1000
0000
0100
0000
0010
0000
,  // measure 39
0001
0010
0001
0010
0001
0000
0010
0001
0010
0001
0010
0000
0100
0000
0010
0000
,  // measure 40
0000
0010
0001
1000
,  // measure 41
0001
0100
0001
0100
0001
0000
1000
0100
1000
0100
1000
0000
0001
0000
0100
0000
,  // measure 42
0010
1000
0010
1000
0010
0000
0100
0010
0000
0010
0100
0000
0001
0000
1000
0000
,  // measure 43
0100
0010
0100
0010
0100
0000
0010
0100
0000
0100
0010
0000
0001
0000
0010
0000
,  // measure 44
0000
0000
0110
0000
0000
0110
0000
0000
0110
0000
0000
0110
0000
0000
0100
0000
,  // measure 45
1000
0001
0100
0010
1000
0100
0001
0100
,  // measure 46
1000
0010
0100
0001
0000
0001
1000
0100
,  // measure 47
0000
0100
1000
0010
0000
0010
0100
0001
,  // measure 48
1000
0100
1000
0001
0000
0001
1000
0100
,  // measure 49
0000
0010
0110
0000
0100
1000
0001
0100
,  // measure 50
1000
0100
0001
1000
0000
1000
0001
0100
,  // measure 51
0010
0000
0010
2000
0000
3002
0000
2003
,  // measure 52
0000
0000
3000
0000
0000
0000
1000
0100
1000
0100
1000
0100
1000
0100
1000
0100
,  // measure 53
1000
0001
0100
0010
0100
0001
1000
0100
,  // measure 54
0010
0100
0001
0100
1000
0001
0100
0010
,  // measure 55
0100
0001
0010
1000
0010
0001
1000
0100
,  // measure 56
1000
0010
0100
0001
0000
0001
0010
0100
,  // measure 57
0000
1000
1100
0000
0001
0000
0100
0101
,  // measure 58
0000
1001
0101
0000
0000
0100
0001
1000
,  // measure 59
0010
0100
0001
2000
0000
0000
3010
0000
,  // measure 60
0010
2000
0000
0000
0000
0000
3000
0000
,  // measure 61
0101
0000
0000
0101
0000
0000
1001
0000
0000
0000
0000
0000
0000
0000
0110
0000
,  // measure 62
1100
0000
0000
1100
0000
0000
1001
0000
0000
0000
0000
0000
0000
0000
0110
0000
,  // measure 63
0010
0000
0000
0100
0000
0000
0010
0000
0000
0001
0000
0000
0010
0000
0110
0000
,  // measure 64
1010
0000
0000
0101
0000
0000
1001
0000
0000
0000
0000
0000
0000
0000
0000
0000
;
