#TITLE:CLUB TROPICANA;
#SUBTITLE:;
#ARTIST:CYDNEY-D;
#TITLETRANSLIT:;
#SUBTITLETRANSLIT:;
#ARTISTTRANSLIT:;
#CREDIT:;
#BANNER:CLUB TROPICANA.png;
#BACKGROUND:CLUB TROPICANA-bg.png;
#LYRICSPATH:;
#CDTITLE:Dance Dance Revolution Solo.png;
#MUSIC:CLUB TROPICANA.ogg;
#OFFSET:0.000;
#SAMPLESTART:60.889;
#SAMPLELENGTH:15.000;
#SELECTABLE:YES;
#DISPLAYBPM:130.000;
#BPMS:0.000=130.072;
#STOPS:;
#BGCHANGES:;

//---------------dance-single - ----------------
#NOTES:
     dance-single:
     :
     Easy:
     2:
     :
0000
0000
0000
0000
,
0000
0000
0000
0000
,
0000
0000
0000
0000
,
0000
0000
0000
0000
,
0000
0000
0000
0000
,
0010
0010
0000
0000
,
0010
0010
0000
0000
,
0010
0010
0000
0000
,
0001
0010
0000
0000
,
1000
0000
1000
0000
,
0001
0000
0001
0000
,
0100
0000
0100
0000
,
0100
0000
0010
0000
,
0010
0000
1000
0000
,
0010
0000
0001
0000
,
0100
0000
0100
0000
,
0001
0010
0001
0010
,
0000
0100
0000
0100
,
0000
1000
0001
1000
,
0001
0001
1000
1000
,
0001
1000
0001
1000
,
0000
0010
0000
0010
,
0000
1000
0001
1000
,
0001
0001
1000
1000
,
0001
1000
0001
1000
,
1000
0000
1000
0000
,
0001
0000
0001
0000
,
0100
0000
0100
0000
,
0100
0000
0010
0000
,
0010
0000
1000
0000
,
0010
0000
0001
0000
,
0100
0000
0100
0000
,
1000
0010
1000
0010
,
0000
0100
0000
0100
,
0000
1000
0001
1000
,
0001
0001
1000
1000
,
0001
1000
0001
1000
,
0000
0010
0000
0010
,
0000
1000
0001
1000
,
0001
0001
1000
1000
,
0001
1000
0001
1000
,
0010
0000
0100
0000
,
0010
0000
0100
0000
,
0010
0000
0100
0000
,
0010
0000
0100
0000
,
0001
0000
1000
0000
,
1000
0000
0001
0000
,
0100
0000
0010
0000
,
0001
0010
1000
0010
;

//---------------dance-single - ----------------
#NOTES:
     dance-single:
     :
     Medium:
     4:
     :
0000
0000
0000
0000
,
0000
0000
0000
0000
,
0000
0000
0000
0000
,
0000
0000
0000
0000
,
0000
0000
0000
0000
,
1001
0100
1000
1001
,
0101
1000
1100
0001
,
0001
0101
1000
1100
,
1001
0100
0010
1001
,
0010
0000
0010
0100
,
1000
0000
0001
0100
,
0010
0000
0100
0000
0001
0010
0010
0000
,
0010
0000
0100
0000
1000
0010
0010
0000
,
0100
0000
0100
0010
,
0001
0000
1000
0100
,
0010
0000
0100
0000
1000
0010
0010
0000
,
0010
0000
0100
0000
0001
0010
0001
0000
,
0010
0000
0001
0000
0001
1000
1000
0000
,
0001
0100
0100
0100
,
0010
0000
0100
0000
0001
0100
0100
0000
,
0010
0000
0100
0000
1000
0100
0100
0000
,
0010
0000
1000
0000
1000
0001
0001
0000
,
1000
0100
0100
0100
,
0010
0000
0100
0000
1000
0100
0100
0000
,
0010
0100
0001
0011
,
0001
0010
0100
1000
,
1000
0010
0100
0001
,
1000
0001
0100
0010
,
0001
0000
1000
0000
0010
1000
0001
0000
,
1000
0010
0100
0001
,
0001
0010
0100
1000
,
0001
1000
0010
0100
,
1000
0000
0001
0000
0010
0001
1000
0000
,
0010
0000
0001
0000
0001
0001
1000
0000
,
0001
0100
0100
0100
,
0010
0000
0100
0000
0001
0100
0100
0000
,
0010
0000
0100
0000
1000
0100
0100
0000
,
0010
0000
1000
0000
1000
0001
0001
0000
,
1000
0100
0100
0100
,
0010
0000
0100
0000
1000
0100
0100
0000
,
0010
0100
0001
0011
,
1000
1100
0001
0101
,
0001
1001
0100
0110
,
1000
0001
1001
0100
,
0001
0101
1000
0100
,
0011
0100
0010
1010
,
0101
1000
1100
0001
,
0001
0101
0010
1100
,
1001
0101
1001
1001
;

//---------------dance-single - ----------------
#NOTES:
     dance-single:
     :
     Hard:
     6:
     :
0000
0000
0000
0000
,
0000
0000
0000
0000
,
0000
0000
0000
0000
,
0000
0000
0000
0000
,
0000
0000
0000
0000
,
0001
0010
0001
1000
0001
1000
0001
0100
,
0010
1000
0010
0100
0001
1000
0001
0000
,
0010
0001
0010
0100
1000
0001
1000
0001
,
1000
0010
1000
0001
1000
0100
1000
0000
,
0010
0010
0100
0000
0101
0000
1010
0000
,
0100
0100
0010
0000
1100
0000
0101
0000
,
0010
0100
0001
1000
,
0010
0100
1000
0101
,
0100
0100
0010
0000
0101
0000
1010
0000
,
0010
0010
0100
0000
1010
0000
0101
0000
,
0010
0000
1000
0010
1000
0000
0010
0000
,
1000
0100
0010
0001
0010
0100
1000
1000
,
0001
0000
0001
0000
1000
1000
0001
1000
,
0001
0000
0010
0001
0010
0000
0001
0000
,
0011
0000
0010
0100
1000
0000
1000
0000
,
0010
0010
0100
0000
0001
0010
0100
0000
,
1000
0000
0001
0000
1000
0001
1000
0001
,
1000
0000
0010
1000
0010
0000
1000
0000
,
1100
0000
0010
0000
0001
0010
0100
0000
,
1000
0010
1000
0000
0001
0001
0001
0000
,
1000
0001
1000
0000
0110
0000
1001
0000
,
1000
0001
0010
0000
0001
0000
1000
0000
,
0001
0000
0011
0011
0011
0000
0011
0000
,
1000
0000
1100
1100
1100
0000
1100
0000
,
0001
1000
0001
0000
0110
0000
1001
0000
,
0001
1000
0010
0000
0001
0000
1000
0000
,
0100
0000
1100
0100
0001
0000
0101
0000
,
0101
0000
0100
0010
1000
0001
0100
0010
,
1000
0000
1000
0000
0100
1000
0001
1000
,
0001
0000
0010
0001
0010
0000
0001
0000
,
1001
0000
0010
0100
0001
0000
1000
0000
,
0010
0010
0100
0000
1000
0010
0001
0000
,
1000
0000
0001
0000
1000
0001
1000
0001
,
1000
0000
0010
1000
0010
0000
1000
0000
,
1100
0000
0010
0000
0001
0100
1000
0000
,
0100
0010
1000
0000
1000
1000
1000
0000
,
0001
0000
0010
0100
1000
0000
0110
0000
,
0001
0000
1000
1000
0100
0000
0110
0000
,
1000
0000
0001
0100
0010
0000
1001
0000
,
0100
0000
1100
0010
0100
0000
1001
0000
,
0001
0010
0001
1000
0001
1000
0001
0100
,
0010
1000
0010
0100
0001
1000
0001
0000
,
0010
0001
0010
0100
1000
0001
1000
0001
,
1000
0010
1000
0001
1000
0100
1001
0000
;

//---------------dance-solo - ----------------
#NOTES:
     dance-solo:
     :
     Easy:
     2:
     :
000000
000000
000000
000000
,
000000
000000
000000
000000
,
000000
000000
000000
000000
,
000000
000000
000000
000000
,
000000
000000
000000
000000
,
000100
000100
000000
000000
,
000100
000100
000000
000000
,
000100
000100
000000
000000
,
000010
000010
000000
000000
,
100000
000000
100000
000000
,
000001
000000
000001
000000
,
001000
000000
001000
000000
,
001000
000000
000100
000000
,
000100
000000
100000
000000
,
000100
000000
000001
000000
,
001000
000000
001000
000000
,
000010
000010
000010
000010
,
000000
001000
000000
001000
,
000000
100000
000001
100000
,
000001
000001
100000
100000
,
000001
100000
000001
100000
,
000000
000100
000000
000100
,
000000
100000
000001
100000
,
000001
000001
100000
100000
,
000001
100000
000001
100000
,
100000
000000
100000
000000
,
000001
000000
000001
000000
,
001000
000000
001000
000000
,
001000
000000
000100
000000
,
000100
000000
100000
000000
,
000100
000000
000001
000000
,
001000
000000
001000
000000
,
010000
010000
010000
010000
,
000000
001000
000000
001000
,
000000
100000
000001
100000
,
000001
000001
100000
100000
,
000001
100000
000001
100000
,
000000
000100
000000
000100
,
000000
100000
000001
100000
,
000001
000001
100000
100000
,
000001
100000
000001
100000
,
000100
000000
001000
000000
,
000100
000000
001000
000000
,
000100
000000
001000
000000
,
000100
000000
001000
000000
,
000001
000000
100000
000000
,
100000
000000
000001
000000
,
001000
000000
000100
000000
,
000010
000010
010000
010000
;

//---------------dance-solo - ----------------
#NOTES:
     dance-solo:
     :
     Medium:
     4:
     :
000000
000000
000000
000000
,
000000
000000
000000
000000
,
000000
000000
000000
000000
,
000000
000000
000000
000000
,
000000
000000
000000
000000
,
000101
000010
010000
100100
,
101000
001000
001001
000001
,
000001
001001
001000
101000
,
100100
010000
000010
100001
,
000100
000000
000100
001000
,
100000
000000
000001
001000
,
000100
000000
000010
000000
000001
000100
000100
000000
,
000100
000000
010000
000000
100000
000100
000100
000000
,
001000
000000
001000
000100
,
000001
000000
100000
001000
,
000100
000000
010000
000000
100000
000100
000100
000000
,
000100
000000
000010
000000
000001
000100
000001
000000
,
000100
000000
000001
000000
000001
100000
100000
000000
,
000001
001000
001000
001000
,
000100
000000
000010
000000
000001
001000
001000
000000
,
000100
000000
010000
000000
100000
001000
001000
000000
,
000100
000000
100000
000000
100000
000001
000001
000000
,
100000
001000
001000
001000
,
000100
000000
010000
000000
100000
001000
001000
000000
,
000100
000010
000001
000101
,
000001
000100
010000
100000
,
100000
000100
000010
000001
,
100000
000001
001000
000100
,
000001
000000
100000
000000
000100
100000
000001
000000
,
100000
000100
000010
000001
,
000001
000100
010000
100000
,
000001
100000
000100
001000
,
100000
000000
000001
000000
000100
000001
100000
000000
,
000100
000000
000001
000000
000001
000001
100000
000000
,
000001
001000
001000
001000
,
000100
000000
000010
000000
000001
001000
001000
000000
,
000100
000000
010000
000000
100000
001000
001000
000000
,
000100
000000
100000
000000
100000
000001
000001
000000
,
100000
001000
001000
001000
,
000100
000000
010000
000000
100000
001000
001000
000000
,
000100
000010
000001
000101
,
100000
000110
100000
000110
,
000001
010100
000001
010100
,
100000
000110
000110
100000
,
000001
010100
010100
000001
,
000101
000010
010000
100100
,
101000
001000
001001
000001
,
000001
001001
001000
101000
,
100100
000101
010010
100001
;

//---------------dance-solo - ----------------
#NOTES:
     dance-solo:
     :
     Hard:
     8:
     :
000000
000000
000000
000000
,
000000
000000
000000
000000
,
000000
000000
000000
000000
,
000000
000000
000000
000000
,
000000
000000
000000
000000
,
000010
000100
000010
010000
000010
100000
000010
001000
,
000010
000001
000010
001000
000010
100000
000010
000000
,
010000
100000
010000
001000
010000
000001
010000
000010
,
010000
000100
010000
000001
010000
001000
110000
000000
,
000100
000100
001000
000000
000101
000000
100100
000000
,
001000
001000
000100
000000
101000
000000
001001
000000
,
000100
000010
000001
010000
,
000100
010000
100000
001001
,
001000
001000
000100
000000
001010
000000
010100
000000
,
000100
000100
001000
000000
000110
000000
011000
000000
,
000100
000000
010000
010000
100000
000000
000010
000000
,
000011
000010
000110
000100
010100
010000
110000
100000
,
000010
000000
010000
000000
000101
100000
000001
100000
,
000001
000000
000100
000010
000100
000000
000001
000000
,
001001
000000
000010
000010
000001
000000
010000
000000
,
000100
000100
010000
000000
100000
010000
000010
000000
,
010000
000000
000010
000000
100100
000001
100000
000001
,
100000
000000
000100
010000
000100
000000
100000
000000
,
101000
000000
010000
000000
100000
010000
000010
000000
,
000100
000010
000010
000000
000001
000001
001001
000000
,
010000
000010
010000
000000
010100
000000
000110
000000
,
010000
000010
010000
000000
110000
000000
000011
000000
,
000001
000000
000101
000001
001001
000000
000101
000000
,
100000
000000
100100
100000
101000
000000
100100
000000
,
000010
010000
000010
000000
000110
000000
010100
000000
,
000010
010000
000010
000000
000011
000000
110000
000000
,
001000
000000
101000
001000
001001
000000
101000
000000
,
101000
000000
001000
000001
000100
100000
001000
000001
,
000010
000000
010000
000000
000101
100000
000001
100000
,
000001
000000
000100
000010
000100
000000
000001
000000
,
001001
000000
000010
000010
000001
000000
010000
000000
,
000100
000100
010000
000000
100000
010000
000010
000000
,
010000
000000
000010
000000
100100
000001
100000
000001
,
100000
000000
000100
010000
000100
000000
100000
000000
,
101000
000000
010000
000000
100000
010000
000010
000000
,
000100
000010
000010
000000
000001
000001
001001
000000
,
100000
000000
000110
000100
100000
000000
000110
000000
,
000001
000000
010100
000100
000001
000000
010100
000000
,
100000
000000
000110
000100
001000
000000
000110
000000
,
000001
000000
010100
000100
001000
000000
010100
000000
,
000010
000100
000010
010000
000010
100000
000010
001000
,
000010
000001
000010
001000
000010
100000
000010
000000
,
010000
100000
010000
001000
010000
000001
010000
000010
,
010000
000100
010000
000001
010000
001000
100001
000000
;

//---------------dance-double - Edit by silenttype01----------------
#NOTES:
     dance-double:
     Edit by silenttype01:
     Easy:
     3:
     0.177,0.211,0.000,0.000,0.000:
00000000
00000000
00000000
00000000
,
00000000
00000000
00000000
00000000
,
00000000
00000000
00000000
00000000
,
00000000
00000000
00000000
00000000
,
00000000
00000000
00000000
00000000
,
00000100
00000100
00000000
00000000
,
00000100
00000100
00000000
00000000
,
00000100
00000100
00000000
00000000
,
00001000
00010000
00000000
00000000
,
00010000
00000000
00010000
00000000
,
10000000
00000000
10000000
00000000
,
00100000
00000000
00100000
00000000
,
00100000
00000000
01000000
00000000
,
01000000
00000000
00010000
00000000
,
01000000
00000000
10000000
00000000
,
00100000
00000000
00100000
00000000
,
10000000
01000000
10000000
01000000
,
00000000
00100000
00000000
00100000
,
00000000
00001000
00010000
00001000
,
00010000
00010000
00001000
00001000
,
00010000
00001000
00010000
00001000
,
00000000
00000100
00000000
00000100
,
00000000
00000001
00001000
00000001
,
00001000
00001000
00000001
00000001
,
00001000
00000001
00001000
00000001
,
00000001
00000000
00001000
00000000
,
00000001
00000000
00000001
00000000
,
00000100
00000000
00000100
00000000
,
00000100
00000000
00000010
00000000
,
00000010
00000000
00001000
00000000
,
00000010
00000000
00000001
00000000
,
00000100
00000000
00000100
00000000
,
00001000
00000010
00001000
00000010
,
00000000
00000100
00000000
00000100
,
00000000
00010000
00001000
00010000
,
00001000
00001000
00010000
00010000
,
00001000
00010000
00001000
00010000
,
00000000
00100000
00000000
00100000
,
00000000
00010000
10000000
00010000
,
10000000
10000000
00010000
00010000
,
10000000
00010000
10000000
00010000
,
01000000
00000000
00100000
00000000
,
01000000
00000000
00100000
00000000
,
01000000
00000000
00100000
00000000
,
01000000
00000000
00100000
00000000
,
10000000
00000000
00010000
00000000
,
00010000
00000000
00001000
00000000
,
00000001
00000000
00000100
00000000
,
00001000
00000100
00000001
00000100
;

//---------------dance-double - Edit by silenttype01----------------
#NOTES:
     dance-double:
     Edit by silenttype01:
     Medium:
     5:
     0.325,0.370,0.238,0.000,0.000:
00000000
00000000
00000000
00000000
,
00000000
00000000
00000000
00000000
,
00000000
00000000
00000000
00000000
,
00000000
00000000
00000000
00000000
,
00000000
00000000
00000000
00000000
,
00001001
00000010
00000001
00001001
,
00000011
00001000
00001010
00010000
,
00010000
00101000
00010000
00101000
,
00011000
00100000
01000000
10010000
,
01000000
00000000
01000000
00100000
,
00010000
00000000
10000000
00100000
,
01000000
00000000
00100000
00000000
10000000
01000000
01000000
00000000
,
01000000
00000000
00100000
00000000
00010000
01000000
01000000
00000000
,
01000000
00000000
00100000
01000000
,
00001000
00000000
00010000
00000010
,
00000100
00000000
00000010
00000000
00001000
00000100
00000100
00000000
,
00000100
00000000
00000010
00000000
00000001
00000100
00000100
00000000
,
00000100
00000000
00000010
00000000
00000010
00001000
00001000
00000000
,
00001000
00000100
00000100
00000100
,
00010000
00000000
00001000
00000000
00010000
00100000
00100000
00000000
,
01000000
00000000
00100000
00000000
10000000
00100000
00100000
00000000
,
01000000
00000000
00010000
00000000
00010000
10000000
10000000
00000000
,
00010000
01000000
01000000
01000000
,
00100000
00000000
01000000
00000000
00001000
00010000
00010000
00000000
,
00000010
00010000
00000100
00010100
,
00010000
00000100
00000010
00000001
,
00000001
00000100
00000010
00001000
,
00000001
00001000
00000010
00000100
,
00000001
00000000
00001000
00000000
00000100
00001000
00001000
00000000
,
00000001
00000100
00001000
00010000
,
00010000
01000000
10000000
01000000
,
00010000
00001000
00010000
01000000
,
10000000
00000000
00010000
00000000
01000000
00100000
00100000
00000000
,
01000000
00000000
00010000
00000000
00010000
10000000
10000000
00000000
,
00010000
00001000
00001000
00001000
,
00000001
00000000
00000010
00000000
00001000
00000010
00000010
00000000
,
00000100
00000000
00000010
00000000
00000001
00000010
00000010
00000000
,
00000100
00000000
00010000
00000000
00010000
00001000
00001000
00000000
,
00010000
00001000
00001000
00001000
,
00000100
00000000
00000010
00000000
00000001
00000010
00000010
00000000
,
00000100
00000010
00001000
00000100
,
00000010
00000001
00001000
00001010
,
00001000
00000001
00000010
00000110
,
00000100
00010000
00001000
00011000
,
00001000
00100000
00010000
00110000
,
10010000
00100000
10000000
10010000
,
10100000
00010000
00110000
00001000
,
00001000
00010010
00001000
00010010
,
00001000
00010010
00011000
00011000
;

//---------------dance-double - Edit by silenttype01----------------
#NOTES:
     dance-double:
     Edit by silenttype01:
     Hard:
     7:
     0.440,0.449,0.369,0.000,0.000:
00000000
00000000
00000000
00000000
,
00000000
00000000
00000000
00000000
,
00000000
00000000
00000000
00000000
,
00000000
00000000
00000000
00000000
,
00000000
00000000
00000000
00000000
,
00000001
00000010
00000001
00001000
00000001
00001000
00000001
00000100
,
00000010
00001000
00000010
00000100
00000001
00001000
00000001
00000000
,
00000010
00000001
00000010
00000100
00010000
00001000
00010000
00001000
,
00010000
00100000
10000000
00010000
10000000
01000000
10000000
00000000
,
00100000
00100000
01000000
00000000
01010000
00000000
10100000
00000000
,
01000000
01000000
00100000
00000000
11000000
00000000
01010000
00000000
,
00100000
01000000
00001000
00010000
,
00000010
00000100
00000001
00000101
,
00000100
00000100
00000010
00000000
00000101
00000000
00001010
00000000
,
00000010
00000010
00000100
00000000
00001010
00000000
00000101
00000000
,
00000010
00000000
00001000
00000010
00001000
00000000
00000010
00000000
,
00001000
00000100
00000010
00000001
00000010
00000100
00010000
00000000
,
00001000
00000000
00010000
00000000
00001000
00001000
00010000
00001000
,
00010000
00000000
00100000
00010000
00100000
00000000
10000000
00000000
,
10100000
00000000
00100000
01000000
00010000
00000000
10000000
00000000
,
00100000
00100000
01000000
00000000
00010000
00100000
01000000
00000000
,
10000000
00000000
00010000
00000000
10000000
00010000
10000000
00010000
,
10000000
00000000
00100000
10000000
00100000
00000000
10000000
00000000
,
11000000
00000000
00100000
00000000
00001000
00100000
01000000
00000000
,
10000000
00100000
10000000
00000000
00100000
00100000
00100000
00000000
,
00010000
00001000
00010000
00000000
00000110
00000000
00001001
00000000
,
00001000
00000001
00000010
00000000
00000001
00000000
00001000
00000000
,
00000001
00000000
00000011
00000011
00000011
00000000
00000011
00000000
,
00001000
00000000
00010100
00010100
00010100
00000000
00010100
00000000
,
00001000
00010000
00001000
00000000
01100000
00000000
10010000
00000000
,
00010000
10000000
00100000
00000000
00010000
00000000
10000000
00000000
,
01000000
00000000
11000000
01000000
00010000
00000000
01010000
00000000
,
01010000
00000000
01000000
00100000
10000000
00010000
01000000
00100000
,
10000000
00000000
10000000
00000000
01000000
10000000
00010000
10000000
,
00010000
00000000
00100000
00001000
00100000
00000000
00001000
00000000
,
00011000
00000000
00000010
00000100
00000001
00000000
00001000
00000000
,
00000010
00000010
00000100
00000000
00001000
00000010
00000001
00000000
,
00001000
00000000
00000001
00000000
00001000
00000001
00001000
00000001
,
00001000
00000000
00000010
00010000
00000010
00000000
00001000
00000000
,
00011000
00000000
00100000
00000000
00010000
01000000
10000000
00000000
,
01000000
00100000
10000000
00000000
10000000
10000000
10000000
00000000
,
00010000
00000000
00100000
01000000
10000000
00000000
01100000
00000000
,
00010000
00000000
00001000
00001000
00000100
00000000
00000110
00000000
,
00001000
00000000
00000001
00000100
00000010
00000000
00001001
00000000
,
00000100
00000000
00001100
00000010
00000100
00000000
00001001
00000000
,
00000001
00000010
00000001
00001000
00000001
00001000
00000001
00000100
,
00000010
00001000
00000010
00000100
00000001
00001000
00000001
00000000
,
00000010
00000001
00000010
00000100
00010000
00001000
00010000
00001000
,
00010000
00100000
10000000
00010000
10000000
01000000
10010000
00000000
;

//---------------dance-double - Edit by silenttype01----------------
#NOTES:
     dance-double:
     Edit by silenttype01:
     Challenge:
     9:
     0.587,0.608,0.423,0.347,0.331:
00000000
00000000
00000000
00000000
,
00000000
00000000
00000000
00000000
,
00000000
00000000
00000000
00000000
,
00000000
00000000
00000000
00000000
,
00000000
00000000
00000000
00000000
,
00000001
00000010
00000001
00001000
00000001
00000100
00000001
00000010
,
00000100
00010000
00000100
00001000
00000010
00010000
00000010
00000000
,
00000100
00000001
00000010
00000001
00000010
00000100
00000010
00001000
,
00010000
00001000
00010000
01000000
00010000
01000000
10000000
00000000
,
11000000
00000000
11000000
00000000
11000000
00000000
00000000
01000000
00000000
00000000
00100000
00000000
00010000
00000000
01000000
00000000
,
01010000
00000000
01010000
00000000
01010000
00000000
00000000
01000000
00000000
00000000
00001000
00000000
00010000
00000000
00000010
00000000
,
00001010
00000000
00001010
00000000
00001010
00000000
00000000
00000100
00000000
00000000
00000001
00000000
00000010
00000000
00000001
00000000
,
00000011
00000000
00000011
00000000
00000011
00000000
00000000
00000010
00000000
00000000
00000100
00000000
00001000
00000000
00000000
00000000
,
00000011
00000000
00001001
00000000
00000011
00000000
00000000
00000001
00000000
00000000
00000100
00000000
00001000
00000000
00010000
00000000
,
00011000
00000000
00010010
00000000
00011000
00000000
00000000
00001000
00000000
00000000
00010000
00000000
00100000
00000000
01000000
00000000
,
01100000
00000000
01010000
00000000
01100000
00000000
00000000
00100000
00000000
00000000
01000000
00000000
00001000
00000000
00010000
00000000
,
00011000
00000000
00101000
00000000
00011000
00000000
00000000
00100000
00000000
00000000
01000000
00000000
00100000
00000000
00010000
00000000
,
10000000
01000000
00010000
01000000
00100000
01000000
10000000
00010000
,
20000000
30020000
00032000
00003002
,
00001003
00000001
00001000
00000100
00000020
00000000
00000032
00000000
,
00002003
00000000
00000000
00000000
00023000
00000000
00000000
00000000
10030000
00000000
00010000
10000000
00000000
00010000
10000000
00000000
,
00000000
00100000
01000000
00001000
01000000
00100000
01000000
00010000
,
20000000
30020000
00032000
00003002
,
00001003
00000010
00000100
00000001
00000020
00000000
00000230
00000000
,
00002300
00000000
00000000
00000000
00003002
00000000
00000000
00000000
00001003
00000000
00000001
00000000
00001000
00000000
00000001
00001000
,
00000001
00000100
00000000
00000001
00000100
00000000
00000001
00000100
00000000
00000000
00000000
00000000
00000000
00000000
00000010
00000000
,
00000100
00000000
00000100
00000000
00000001
00000000
00000001
00000020
00000000
00000000
00001030
00000000
00010000
00000000
00001000
00000000
,
00010000
00001000
00000000
00010000
00001000
00000000
00010000
00001000
00000000
00000000
00000000
00000000
00000000
00000000
00010000
00000000
,
01000000
00000000
01000000
00000000
10000000
00000000
10000000
00200000
00000000
00000000
01300000
00000000
00100000
00000000
00010000
00000000
,
00001000
00000100
00000000
00001000
00010000
00000000
00001000
00000100
00000000
00000000
00000000
00000000
00000000
00000000
00000100
00000000
,
00000001
00000000
00000001
00000000
00001000
00000000
00001000
00020000
00000000
00000000
00130000
00000000
01000000
00000000
00100000
00000000
,
01000000
10000000
00000000
01000000
00100000
00000000
01000000
10000000
00000000
00000000
00000000
00000000
00000000
00000000
00000000
00000000
,
00011000
00000000
00000000
00001000
00010000
00001000
00000000
00010000
00001000
00010000
00001000
00010000
00001000
00010000
00001000
00010000
,
00001000
00000000
00010000
00000000
01000000
10000000
00000000
10000000
00000000
00100000
00000000
00100000
00000000
00010000
00000000
00000000
,
00020000
00000000
00000000
00000000
00001000
00032000
00000000
00000000
00000100
00003200
00000000
00000000
00000001
00000302
00000000
00000000
,
00001000
00000003
00001000
00000000
00001000
00000010
00000000
00000000
00001010
00000000
00000000
00000000
00000101
00000000
00000000
00000000
,
00000002
00000000
00000000
00000000
00000203
00000000
00000000
00000000
00001300
00000000
00010000
00001000
00000000
00010000
00001000
00000000
,
00000000
00000000
00010000
00000000
00010000
00001000
00000000
00001000
00000000
00000100
00000000
00000100
00000000
00000010
00000000
00000000
,
00002000
00000000
00000000
00000000
00000001
00003002
00000000
00000000
00000010
00000023
00000000
00000000
00001000
00002030
00000000
00000000
,
00013000
00000000
01000000
00000000
00100000
00000000
01100000
00000000
00000000
00020000
00000000
00000000
,
20030000
00000000
00000000
00000000
30020000
00000000
00000000
00000000
00130000
00000000
01000000
00000000
00100000
00000000
00010000
10000000
,
00010000
00000000
00000000
10010000
00000000
00000000
10010000
00000000
01000000
00000000
00100000
00000000
00010000
00000000
00001000
00000000
,
00011000
00000000
00000000
00011000
00000000
00000000
00011000
00000000
00000000
00000000
00010000
00000000
00100000
00000000
10000000
00000000
,
11000000
00000000
00000000
01010000
00000000
00000000
00011000
00000000
00001000
00000000
00010000
00000000
00001000
00000000
00000010
00000000
,
00000011
00000000
00000000
00000101
00000000
00000000
00001001
00000000
00000000
00000000
00000100
00000000
00000010
00000000
00000000
00000000
,
00000001
00000010
00000001
00001000
00000001
00000100
00000001
00000010
,
00000100
00010000
00000100
00001000
00000010
00010000
00000010
00000000
,
00000100
00000001
00000010
00000001
00000010
00000100
00000010
00001000
,
00010000
00000000
00001000
00000000
00010000
00000000
01000000
00000000
00010000
01000000
00000000
00000000
10000000
01000000
00000000
00000000
;

//---------------dance-single - Edit by silenttype01----------------
#NOTES:
     dance-single:
     Edit by silenttype01:
     Challenge:
     9:
     0.587,0.608,0.423,0.347,0.331: // measure 1
0000
0000
0000
0000
,  // measure 2
0000
0000
0000
0000
,  // measure 3
0000
0000
0000
0000
,  // measure 4
0000
0000
0000
0000
,  // measure 5
0000
0000
0000
0000
,  // measure 6
1000
0100
1000
0001
1000
0001
1000
0010
,  // measure 7
0100
0001
0100
0010
1000
0001
1000
0000
,  // measure 8
0100
1000
0100
0010
0001
1000
0001
1000
,  // measure 9
0001
0100
0001
1000
0001
0010
0001
0000
,  // measure 10
0011
0000
0011
0000
0011
0000
0000
0010
0000
0000
0100
0000
1000
0000
0010
0000
,  // measure 11
1010
0000
1010
0000
1010
0000
0000
0010
0000
0000
1000
0000
0001
0000
0100
0000
,  // measure 12
0101
0000
0101
0000
0101
0000
0000
0010
0000
0000
1000
0000
0100
0000
1000
0000
,  // measure 13
1100
0000
1100
0000
1100
0000
0000
0100
0000
0000
0010
0000
0001
0000
0000
0000
,  // measure 14
1100
0000
1001
0000
1100
0000
0000
1000
0000
0000
0010
0000
0001
0000
0010
0000
,  // measure 15
0011
0000
0110
0000
0011
0000
0000
0010
0000
0000
1000
0000
0001
0000
0100
0000
,  // measure 16
0110
0000
1001
0000
0110
0000
0000
0010
0000
0000
1000
0000
0001
0000
0010
0000
,  // measure 17
1100
0000
0110
0000
0011
0000
0000
0001
0000
0000
0010
0000
0100
0000
1000
0000
,  // measure 18
0001
0010
1000
0010
0100
0010
0001
1000
,  // measure 19
0002
0023
2030
3200
,  // measure 20
0301
0100
0010
0100
0002
0000
0023
0000
,  // measure 21
2030
0000
0000
0000
3020
0000
0000
0000
0031
0000
1000
0001
0000
1000
0001
0000
,  // measure 22
0000
1000
0100
0010
0100
1000
0100
0010
,  // measure 23
0002
0023
2030
3200
,  // measure 24
0301
0100
0010
0100
0002
0000
0023
0000
,  // measure 25
2030
0000
0000
0000
3020
0000
0000
0000
0031
0000
0001
0000
1000
0000
1000
0001
,  // measure 26
0010
0100
0000
0010
0100
0000
0010
0100
0000
0000
0000
0000
0000
0000
0100
0000
,  // measure 27
0010
0000
0010
0000
0001
0000
0001
0200
0000
0000
1300
0000
0100
0000
0001
0000
,  // measure 28
1000
0100
0000
1000
0100
0000
1000
0100
0000
0000
0000
0000
0000
0000
1000
0000
,  // measure 29
0100
0000
0100
0000
0001
0000
0001
0200
0000
0000
0310
0000
0100
0000
1000
0000
,  // measure 30
0001
0100
0000
0001
0100
0000
0010
1000
0000
0000
0000
0000
0000
0000
0001
0000
,  // measure 31
0010
0000
0010
0000
0100
0000
0100
2000
0000
0000
3001
0000
0100
0000
0010
0000
,  // measure 32
1000
0100
0000
1000
0100
0000
0010
0001
0000
0000
0000
0000
0000
0000
0000
0000
,  // measure 33
1001
0000
0000
0001
0100
0001
0000
1000
0100
1000
0100
1000
0100
1000
0100
1000
,  // measure 34
0100
0000
1000
0000
0100
0010
0000
0010
0000
0001
0000
0001
0000
0100
0000
0000
,  // measure 35
0200
0000
0000
0000
0001
0302
0000
0000
1000
2003
0000
0000
0100
3200
0000
0000
,  // measure 36
0310
0000
0010
0000
0010
0001
0000
0000
0011
0000
0000
0000
1100
0000
0000
0000
,  // measure 37
2000
0000
0000
0000
3200
0000
0000
0000
0310
0000
0001
1000
0000
0001
1000
0000
,  // measure 38
0000
0000
0001
0000
0001
0100
0000
0100
0000
0010
0000
0010
0000
1000
0000
0000
,  // measure 39
0002
0000
0000
0000
0013
0020
0000
0000
0001
0032
0000
0000
1000
2003
0000
0000
,  // measure 40
3100
0000
0001
0000
0010
0000
0110
0000
0000
2000
0000
0000
,  // measure 41
3002
0000
0000
0000
0023
0000
0000
0000
0031
0000
0001
0000
0001
0000
0001
1000
,  // measure 42
0010
0000
0000
1010
0000
0000
1010
0000
0100
0000
0001
0000
0010
0000
0001
0000
,  // measure 43
0101
0000
0000
0101
0000
0000
0101
0000
0000
0000
1000
0000
0010
0000
0001
0000
,  // measure 44
0011
0000
0000
1010
0000
0000
1001
0000
1000
0000
0100
0000
0010
0000
0001
0000
,  // measure 45
0011
0000
0000
0101
0000
0000
1010
0000
0000
0000
0100
0000
0001
0000
0000
0000
,  // measure 46
1000
0100
1000
0001
1000
0001
1000
0010
,  // measure 47
0100
0001
0100
0010
1000
0001
1000
0000
,  // measure 48
0100
1000
0100
0010
0001
1000
0001
1000
,  // measure 49
0001
0000
0100
0000
0001
0000
1000
0000
0001
0010
0000
0000
0001
0010
0000
0000
;
