#TITLE:CAPTAIN JACK;
#SUBTITLE:(GRANDALE REMIX);
#ARTIST:CAPTAIN JACK;
#TITLETRANSLIT:;
#SUBTITLETRANSLIT:;
#ARTISTTRANSLIT:;
#CREDIT:;
#BANNER:CAPTAIN JACK (GRANDALE REMIX).png;
#BACKGROUND:CAPTAIN JACK (GRANDALE REMIX)-bg.png;
#LYRICSPATH:;
#CDTITLE:Dance Dance Revolution 3rd Mix.png;
#MUSIC:CAPTAIN JACK (GRANDALE REMIX).ogg;
#OFFSET:0.000;
#SAMPLESTART:50.822;
#SAMPLELENGTH:15.000;
#SELECTABLE:YES;
#DISPLAYBPM:170.000;
#BPMS:0.000=170.005;
#STOPS:;
#BGCHANGES:3.75=CAPTAIN JACK (GRANDALE REMIX).avi=1=1=0=0;

//---------------dance-single - ----------------
#NOTES:
     dance-single:
     :
     Beginner:
     1:
     :
0000
0000
0000
0000
,
0000
0000
0000
0000
,
0000
0000
0000
0000
,
0000
0000
0000
0000
,
0000
0000
0000
0000
,
0000
0000
0000
0000
,
0001
0000
0000
0000
,
0001
0000
0000
0000
,
0100
0000
0000
0000
,
0100
0000
0000
0000
,
1000
0000
0000
0000
,
1000
0000
0000
0000
,
0010
0000
0000
0000
,
0100
0000
0000
0000
,
0001
0000
0001
0000
,
1000
0000
1000
0000
,
0010
0000
1001
0000
,
1001
0000
0100
0000
,
0010
0010
0010
0000
,
0100
0100
0100
0000
,
1000
0000
1000
0000
,
1000
0000
1000
0000
,
0001
0000
0100
0000
,
0001
0000
0100
0000
,
0010
0000
0100
0000
,
0010
0000
0100
0000
,
1000
0000
1001
0000
,
1000
0000
1001
0000
,
1001
0000
0000
0000
,
1000
0000
1000
0000
,
1000
0000
1000
0000
,
0001
0000
0100
0000
,
1001
0000
0000
0000
,
1000
0000
1000
0000
,
1000
0000
1000
0000
,
0001
0000
0100
0100
,
0100
0000
1000
1000
,
1000
0000
0100
0100
,
0100
0000
0001
0000
,
0100
0000
1000
0000
,
0100
0000
0001
0001
,
0001
0000
0100
0100
,
0100
0000
1000
0000
,
0100
0000
0001
0001
,
0000
0000
0000
0000
,
1000
1000
0000
0000
,
0001
0001
0000
0000
,
1000
1000
0000
0000
,
0000
0000
0000
0000
,
1000
1000
0000
0000
,
0001
0001
0000
0000
,
1000
1000
0000
0000
,
0001
0000
0001
0000
,
1000
0000
1000
0000
,
0001
0000
0100
0000
,
0001
0000
0100
0000
,
1000
0000
1000
0000
,
0001
0000
0001
0000
,
1000
0000
0100
0000
,
1000
0000
0100
0000
,
1001
0000
0000
0000
,
1000
0000
1000
0000
,
0001
0001
0001
0000
;

//---------------dance-single - ----------------
#NOTES:
     dance-single:
     :
     Easy:
     4:
     :
0000
0000
0000
0000
,
0000
0000
0000
0000
,
0000
0000
0000
0000
,
0000
0000
0000
0000
,
0000
0000
0000
0000
,
0000
0000
0000
0000
,
0010
0010
0100
0100
,
0010
0010
0100
0100
,
1001
1001
0100
0100
,
1001
1001
0100
0100
,
0001
0001
0100
0100
,
1000
1000
0100
0100
,
0010
1000
1001
0100
,
0100
0001
1001
0100
,
1000
0001
0110
0001
,
1000
0100
0110
0001
,
0001
0001
1000
0100
,
1000
1000
0001
0100
,
0010
0010
1001
0010
,
0100
0100
1001
0100
,
0010
0001
1001
0000
,
0100
1000
1001
0000
,
1000
0001
0110
0000
,
0001
1000
0110
0000
,
0001
1000
0100
0000
,
1000
0001
0100
0000
,
0010
0100
1001
0000
,
0010
0100
1001
0000
,
1001
0100
0100
0100
,
1001
0100
1001
0100
,
0010
0010
1001
0000
,
1000
1000
0100
0100
,
0110
0001
0001
0001
,
0110
0001
0110
1000
,
0100
0100
0110
0000
,
0001
0001
1000
0100
,
1000
1000
0100
0100
,
0001
0001
0100
0100
,
0010
1000
0010
1000
,
0100
0001
0010
1000
,
0001
0001
0100
0100
,
1000
1000
0100
0100
,
0010
0001
0010
0001
,
0100
1000
0010
0001
,
1001
1001
0100
0100
,
1001
1001
0001
0100
,
1001
1001
0100
0100
,
1001
1001
1000
0100
,
1000
0001
0100
0100
,
0001
1000
0100
0100
,
0010
0001
0100
0010
,
1000
0100
0010
0001
,
1000
1000
0100
0100
,
0001
0001
0100
1000
,
0100
0001
0100
1000
,
0100
0001
0100
1000
,
0100
0100
0001
0010
,
0100
0100
1000
0010
,
1000
1000
0010
0001
,
0001
0001
0010
1000
,
1001
0100
0100
0100
,
0001
0100
1000
0100
,
1001
1001
0110
0000
;

//---------------dance-single - ----------------
#NOTES:
     dance-single:
     :
     Medium:
     7:
     :
0000
0000
0000
0000
,
0000
0000
0000
0000
,
0000
0000
0000
0000
,
0000
0000
0000
0000
,
0000
0000
0000
0000
,
0000
0000
0000
0000
,
0000
0000
0000
0000
0000
0000
0000
0000
1000
0000
0000
0000
0000
0000
0000
0000
0001
0000
0000
0000
0000
0000
0000
0000
0000
0000
0000
0000
0000
0000
0000
0000
1000
0000
0000
0000
0000
0000
0000
0000
0000
0000
0000
1000
0000
0000
0000
0000
0000
0000
0000
0000
0000
0000
0100
0000
0000
0000
0000
0000
0000
0000
0000
0000
,
0000
0000
0000
0000
0000
0000
0000
0000
0001
0000
0000
0000
0000
0000
0000
0000
1000
0000
0000
0000
0000
0000
0000
0000
0000
0000
0000
0000
0000
0000
0000
0000
0001
0000
0000
0000
0000
0000
0000
0000
0000
0000
0000
0001
0000
0000
0000
0000
0000
0000
0000
0000
0000
0000
0100
0000
0000
0000
0000
0000
0000
0000
0000
0000
,
0000
0000
0000
0000
0000
0000
0000
0000
0010
0000
0000
0000
0000
0000
0000
0000
0100
0000
0000
0000
0000
0000
0000
0000
0000
0000
0000
0000
0000
0000
0000
0000
0100
0000
0000
0000
0000
0000
0000
0000
0000
0000
0000
0100
0000
0000
0000
0000
0000
0000
0000
0000
0000
0000
0001
0000
0000
0000
0000
0000
0000
0000
0000
0000
,
0000
0000
0000
0000
0000
0000
0000
0000
0100
0000
0000
0000
0000
0000
0000
0000
0010
0000
0000
0000
0000
0000
0000
0000
0000
0000
0000
0000
0000
0000
0000
0000
1000
0000
0000
0000
0000
0000
0000
0000
0000
0000
0000
1000
0000
0000
0000
0000
0000
0000
0000
0000
0000
0000
0100
0000
0000
0000
0000
0000
0000
0000
0000
0000
,
0000
0000
0000
0000
0000
0000
0000
0000
1000
0000
0000
0000
0000
0000
0000
0000
0100
0000
0000
0000
0000
0000
0000
0000
0000
0000
0000
0000
0000
0000
0000
0000
0100
0000
0000
0000
0000
0000
0000
0000
0000
0000
0000
0100
0000
0000
0000
0000
0000
0000
0000
0000
0000
0000
0010
0000
0000
0000
0000
0000
0000
0000
0000
0000
,
0000
0000
0000
0000
0000
0000
0000
0000
0001
0000
0000
0000
0000
0000
0000
0000
0100
0000
0000
0000
0000
0000
0000
0000
0000
0000
0000
0000
0000
0000
0000
0000
0100
0000
0000
0000
0000
0000
0000
0000
0000
0000
0000
0100
0000
0000
0000
0000
0000
0000
0000
0000
0000
0000
0010
0000
0000
0000
0000
0000
0000
0000
0000
0000
,
1001
0000
0100
0000
0010
0001
0100
0000
,
1001
0000
0010
0000
0100
1000
0010
0000
,
0001
0100
0010
0000
1000
0100
0010
0000
,
1000
0010
0100
0000
0001
0010
0100
0000
,
0001
0010
1000
0000
0001
0010
1000
0000
,
1000
0100
0001
0000
1000
0100
0001
0000
,
1000
0001
0100
0000
0001
1000
0100
0000
,
0001
1000
0010
0000
1000
0001
0010
0000
,
0010
0001
1000
0100
0010
0000
0000
0000
,
0100
1000
0001
0010
0100
0000
0000
0000
,
1000
0100
0010
0001
0100
0000
0000
0000
,
0001
0010
0100
1000
0010
0000
0000
0000
,
0001
1000
0001
1000
0100
0000
0000
0000
,
1000
0001
1000
0001
0010
0000
0000
0000
,
0010
0001
0100
0001
0010
0000
0000
0000
,
0100
1000
0010
1000
0100
0000
0000
0000
,
1001
0000
0000
0000
,
0010
0001
0100
0001
1000
0100
1000
0010
,
1000
0001
0100
0010
1000
0001
0000
0000
,
0100
0100
0100
0100
,
1001
0000
0000
0000
,
0100
1000
0010
1000
0001
0010
0001
0100
,
0001
1000
0010
0100
0001
1000
0000
0000
,
0010
0010
1001
1100
,
0001
0100
0001
0000
1000
0100
1000
0000
,
1000
0010
1000
0000
0001
0010
0001
0000
,
0010
0001
0100
0000
0010
0001
0100
0000
,
0010
0001
0010
0001
0010
0001
0100
0000
,
1000
0010
1000
0000
0001
0010
0001
0000
,
0001
0100
0001
0000
1000
0100
1000
0000
,
0100
1000
0010
0000
0100
1000
0010
0000
,
0100
1000
0100
1000
0100
1000
0010
0000
,
1001
0000
1001
0000
0010
0001
0100
0000
,
1001
0000
1001
0000
0100
1000
0001
0000
,
1001
0000
1001
0000
0010
1000
0100
0000
,
1001
0000
1001
0000
0100
0001
1000
0000
,
1001
0000
1100
0000
0010
0001
0100
0000
,
1001
0000
1010
0000
0100
1000
0001
0000
,
1001
0000
0101
0000
0010
1000
0100
0000
,
1001
0000
0011
0000
0100
0001
1000
0000
,
0000
0000
0000
0000
0000
0000
0000
0000
0001
0000
0000
0000
0000
0000
0000
0000
1000
0000
0000
0000
0000
0000
0000
0000
0000
0000
0000
0000
0000
0000
0000
0000
0001
0000
0000
0000
0000
0000
0000
0000
0000
0000
0000
0001
0000
0000
0000
0000
0000
0000
0000
0000
0000
0000
0010
0000
0000
0000
0000
0000
0000
0000
0000
0000
,
0000
0000
0000
0000
0000
0000
0000
0000
1000
0000
0000
0000
0000
0000
0000
0000
0001
0000
0000
0000
0000
0000
0000
0000
0000
0000
0000
0000
0000
0000
0000
0000
1000
0000
0000
0000
0000
0000
0000
0000
0000
0000
0000
1000
0000
0000
0000
0000
0000
0000
0000
0000
0000
0000
0010
0000
0000
0000
0000
0000
0000
0000
0000
0000
,
0000
0000
0000
0000
0000
0000
0000
0000
0100
0000
0000
0000
0000
0000
0000
0000
0010
0000
0000
0000
0000
0000
0000
0000
0000
0000
0000
0000
0000
0000
0000
0000
0010
0000
0000
0000
0000
0000
0000
0000
0000
0000
0000
0010
0000
0000
0000
0000
0000
0000
0000
0000
0000
0000
1000
0000
0000
0000
0000
0000
0000
0000
0000
0000
,
0000
0000
0000
0000
0000
0000
0000
0000
0010
0000
0000
0000
0000
0000
0000
0000
0100
0000
0000
0000
0000
0000
0000
0000
0000
0000
0000
0000
0000
0000
0000
0000
0001
0000
0000
0000
0000
0000
0000
0000
0000
0000
0000
0001
0000
0000
0000
0000
0000
0000
0000
0000
0000
0000
0010
0000
0000
0000
0000
0000
0000
0000
0000
0000
,
0000
0000
0000
0000
0000
0000
0000
0000
0001
0000
0000
0000
0000
0000
0000
0000
0010
0000
0000
0000
0000
0000
0000
0000
0000
0000
0000
0000
0000
0000
0000
0000
0010
0000
0000
0000
0000
0000
0000
0000
0000
0000
0000
0010
0000
0000
0000
0000
0000
0000
0000
0000
0000
0000
0100
0000
0000
0000
0000
0000
0000
0000
0000
0000
,
0000
0000
0000
0000
0000
0000
0000
0000
1000
0000
0000
0000
0000
0000
0000
0000
0010
0000
0000
0000
0000
0000
0000
0000
0000
0000
0000
0000
0000
0000
0000
0000
0010
0000
0000
0000
0000
0000
0000
0000
0000
0000
0000
0010
0000
0000
0000
0000
0000
0000
0000
0000
0000
0000
0100
0000
0000
0000
0000
0000
0000
0000
0000
0000
,
0000
0000
0000
0000
0000
0000
0000
0000
0001
0000
0000
0000
0000
0000
0000
0000
1000
0000
0000
0000
0000
0000
0000
0000
0000
0000
0000
0000
0000
0000
0000
0000
0110
0000
0000
0000
0000
0000
0000
0000
0000
0000
0000
0110
0000
0000
0000
0000
0000
0000
0000
0000
0000
0000
1001
0000
0000
0000
0000
0000
0000
0000
0000
0000
,
0000
0000
0000
0000
0000
0000
0000
0000
0010
0000
0000
0000
0000
0000
0000
0000
0100
0000
0000
0000
0000
0000
0000
0000
0000
0000
0000
0000
0000
0000
0000
0000
1001
0000
0000
0000
0000
0000
0000
0000
0000
0000
0000
1001
0000
0000
0000
0000
0000
0000
0000
0000
0000
0000
0110
0000
0000
0000
0000
0000
0000
0000
0000
0000
,
1001
0000
0000
0000
,
0100
1000
0010
1000
0001
0010
0001
0100
,
0001
1000
0010
0100
0001
1000
0000
0000
;

//---------------dance-single - ----------------
#NOTES:
     dance-single:
     :
     Hard:
     9:
     :
0000
0000
0000
0000
,
0000
0000
0000
0000
,
0000
0000
0000
0000
,
0000
0000
0000
0000
,
0000
0000
0000
0000
,
0000
0000
0000
0000
,
0000
0000
0000
0000
0000
0000
0000
0000
1000
0000
0000
0000
0000
0000
0000
0000
0001
0000
0000
0000
0000
0000
0000
0000
0000
0000
0000
0000
0000
0000
0000
0000
1000
0000
0000
0000
0000
0000
0000
0000
0000
0000
0000
1000
0000
0000
0000
0100
0000
0000
0000
0000
0000
0000
1000
0000
0000
0000
0100
0000
0000
0000
0000
0000
,
0000
0000
0000
0000
0000
0000
0000
0000
0001
0000
0000
0000
0000
0000
0000
0000
1000
0000
0000
0000
0000
0000
0000
0000
0000
0000
0000
0000
0000
0000
0000
0000
0001
0000
0000
0000
0000
0000
0000
0000
0000
0000
0000
0001
0000
0000
0000
0100
0000
0000
0000
0000
0000
0000
0001
0000
0000
0000
0100
0000
0000
0000
0000
0000
,
0000
0000
0000
0000
0000
0000
0000
0000
0010
0000
0000
0000
0000
0000
0000
0000
0100
0000
0000
0000
0000
0000
0000
0000
0000
0000
0000
0000
0000
0000
0000
0000
0100
0000
0000
0000
0000
0000
0000
0000
0000
0000
0000
0001
0000
0000
0000
1000
0000
0000
0000
0000
0000
0000
0001
0000
0000
0000
1000
0000
0000
0000
0000
0000
,
0000
0000
0000
0000
0000
0000
0000
0000
0100
0000
0000
0000
0000
0000
0000
0000
0010
0000
0000
0000
0000
0000
0000
0000
0000
0000
0000
0000
0000
0000
0000
0000
1000
0000
0000
0000
0000
0000
0000
0000
0000
0000
0000
1000
0000
0000
0000
0001
0000
0000
0000
0000
0000
0000
0100
0000
0000
0000
0001
0000
0000
0000
0000
0000
,
0000
0000
0000
0000
0000
0000
0000
0000
1000
0000
0000
0000
0000
0000
0000
0000
0100
0000
0000
0000
0000
0000
0000
0000
0000
0000
0000
0000
0000
0000
0000
0000
0100
0000
0000
0000
0000
0000
0000
0000
0000
0000
0000
0100
0000
0000
0000
0010
0000
0000
0000
0000
0000
0000
0100
0000
0000
0000
0010
0000
0000
0000
0000
0000
,
0000
0000
0000
0000
0000
0000
0000
0000
0001
0000
0000
0000
0000
0000
0000
0000
0100
0000
0000
0000
0000
0000
0000
0000
0000
0000
0000
0000
0000
0000
0000
0000
0100
0000
0000
0000
0000
0000
0000
0000
0000
0000
0000
0010
0000
0000
0000
1000
0000
0000
0000
0000
0000
0000
0010
0000
0000
0000
1000
0000
0000
0000
0000
0000
,
1001
0000
0101
0000
0010
0001
0100
0000
,
1001
0000
1100
0000
0010
1000
0100
0000
,
0001
0100
0010
0001
1000
0100
0010
0000
,
1000
0100
0010
1000
0001
0100
0010
0000
,
0001
0010
1000
0001
0001
0010
1000
0000
,
1000
0010
0001
1000
1000
0010
0001
0000
,
1000
0001
0100
0100
0001
1000
0100
0000
,
0001
1000
0100
0100
1000
0001
0100
0000
,
0010
0001
1000
0100
0010
0001
0001
0000
,
0010
1000
0001
0100
0010
1000
1000
0000
,
1000
0100
0010
0001
0100
0001
0001
0000
,
0001
0100
0010
1000
0100
1000
1000
0000
,
0001
1000
0001
1000
0100
0010
0010
0000
,
1000
0001
1000
0001
0100
0010
0010
0000
,
0010
0001
0010
0000
0001
0000
1000
0000
0100
0000
0000
0000
0000
0000
0000
0000
,
0010
1000
0010
0000
1000
0000
0001
0000
0100
0000
0000
0000
0000
0000
0000
0000
,
1001
0000
0000
0000
,
0100
0000
1000
0000
0010
0000
1000
0000
0001
0010
0000
0000
0001
0010
0001
0000
,
1000
0100
0010
0100
1000
0001
0000
0000
,
0000
0000
0000
0000
,
1001
0000
0000
0000
,
0100
0000
0001
0000
0010
0000
0001
0000
1000
0010
0000
0000
1000
0010
1000
0000
,
0001
0100
0010
0100
0001
1000
0000
0000
,
0010
0000
0000
0000
0010
0000
0000
0000
0100
1000
0000
0000
0001
0010
0000
0000
,
0001
0100
0001
0001
1000
0100
1000
0000
,
1000
0100
1000
1000
0001
0100
0001
0000
,
0010
0100
1001
0000
0010
0100
1001
0000
,
0010
0100
0010
0100
0010
0100
1001
0000
,
1000
0100
1000
1000
0001
0100
0001
0000
,
0001
0100
0001
0001
1000
0100
1000
0000
,
0100
0010
1001
0000
0100
0010
1001
0000
,
0100
0010
0100
0010
0100
0010
1001
0000
,
0000
1010
0000
1001
0100
0010
0001
0100
,
0000
0101
0000
1001
0100
0010
1000
0001
,
0000
1100
0000
1001
0100
0010
0001
1000
,
0000
0011
0000
1001
0100
0010
1000
0100
,
0000
0011
0000
1001
0100
0010
1000
0100
,
0000
1100
0000
1001
0100
0010
0001
1000
,
0000
0101
0000
1001
0100
0010
1000
0001
,
0000
1010
0000
1001
0100
0010
0001
0100
,
0000
0000
0000
0000
0000
0000
0000
0000
0001
0000
0000
0000
0000
0000
0000
0000
1000
0000
0000
0000
0000
0000
0000
0000
0000
0000
0000
0000
0000
0000
0000
0000
0001
0000
0000
0000
0000
0000
0000
0000
0000
0000
0000
0001
0000
0000
0000
0100
0000
0000
0000
0000
0000
0000
0001
0000
0000
0000
0100
0000
0000
0000
0000
0000
,
0000
0000
0000
0000
0000
0000
0000
0000
1000
0000
0000
0000
0000
0000
0000
0000
0001
0000
0000
0000
0000
0000
0000
0000
0000
0000
0000
0000
0000
0000
0000
0000
1000
0000
0000
0000
0000
0000
0000
0000
0000
0000
0000
1000
0000
0000
0000
0100
0000
0000
0000
0000
0000
0000
1000
0000
0000
0000
0100
0000
0000
0000
0000
0000
,
0000
0000
0000
0000
0000
0000
0000
0000
0010
0000
0000
0000
0000
0000
0000
0000
0100
0000
0000
0000
0000
0000
0000
0000
0000
0000
0000
0000
0000
0000
0000
0000
0100
0000
0000
0000
0000
0000
0000
0000
0000
0000
0000
1000
0000
0000
0000
0001
0000
0000
0000
0000
0000
0000
1000
0000
0000
0000
0001
0000
0000
0000
0000
0000
,
0000
0000
0000
0000
0000
0000
0000
0000
0100
0000
0000
0000
0000
0000
0000
0000
0010
0000
0000
0000
0000
0000
0000
0000
0000
0000
0000
0000
0000
0000
0000
0000
0001
0000
0000
0000
0000
0000
0000
0000
0000
0000
0000
0001
0000
0000
0000
1000
0000
0000
0000
0000
0000
0000
0100
0000
0000
0000
1000
0000
0000
0000
0000
0000
,
0000
0000
0000
0000
0000
0000
0000
0000
0001
0000
0000
0000
0000
0000
0000
0000
0100
0000
0000
0000
0000
0000
0000
0000
0000
0000
0000
0000
0000
0000
0000
0000
0100
0000
0000
0000
0000
0000
0000
0000
0000
0000
0000
0100
0000
0000
0000
0010
0000
0000
0000
0000
0000
0000
0100
0000
0000
0000
0010
0000
0000
0000
0000
0000
,
0000
0000
0000
0000
0000
0000
0000
0000
1000
0000
0000
0000
0000
0000
0000
0000
0100
0000
0000
0000
0000
0000
0000
0000
0000
0000
0000
0000
0000
0000
0000
0000
0100
0000
0000
0000
0000
0000
0000
0000
0000
0000
0000
0010
0000
0000
0000
0001
0000
0000
0000
0000
0000
0000
0010
0000
0000
0000
0001
0000
0000
0000
0000
0000
,
0000
0000
0000
0000
0000
0000
0000
0000
0001
0000
0000
0000
0000
0000
0000
0000
1000
0000
0000
0000
0000
0000
0000
0000
0000
0000
0000
0000
0000
0000
0000
0000
0110
0000
0000
0000
0000
0000
0000
0000
0000
0000
0000
0010
0000
0000
0000
0100
0000
0000
0000
0000
0000
0000
0001
0000
0000
0000
1000
0000
0000
0000
0000
0000
,
0000
0000
0000
0000
0000
0000
0000
0000
0010
0000
0000
0000
0000
0000
0000
0000
0100
0000
0000
0000
0000
0000
0000
0000
0000
0000
0000
0000
0000
0000
0000
0000
1001
0000
0000
0000
0000
0000
0000
0000
0000
0000
0000
1000
0000
0000
0000
0001
0000
0000
0000
0000
0000
0000
0100
0000
0000
0000
0010
0000
0000
0000
0000
0000
,
1001
0000
0000
0000
,
0100
0000
1000
0000
0010
0000
1000
0000
0001
0010
0000
0000
0001
0010
0001
0000
,
1000
0100
0010
0100
1000
0001
0000
0000
;

//---------------dance-double - ----------------
#NOTES:
     dance-double:
     :
     Easy:
     5:
     :
00000000
00000000
00000000
00000000
,
00000000
00000000
00000000
00000000
,
00000000
00000000
00000000
00000000
,
00000000
00000000
00000000
00000000
,
00000000
00000000
00000000
00000000
,
00000000
00000000
00000000
00000000
,
00010000
00010000
00010000
00010000
,
00001000
00001000
00001000
00001000
,
00100000
00100000
00100000
00100000
,
00010000
00010000
00010000
00010000
,
01000000
01000000
01000000
01000000
,
00001000
00001000
00001000
00000000
,
00011000
00010100
00000000
00000000
,
00011000
00101000
00000000
00000000
,
00010000
10000000
01000000
00100000
,
00010000
10000000
01000000
00100000
,
00001000
00010000
00000100
00000010
,
00001000
00010000
00000100
00000010
,
00000001
00000100
00000010
00001000
,
00000001
00000100
00000010
00001000
,
00001100
00011000
00110000
00000000
,
00001100
00011000
00110000
00000000
,
01000000
00100000
10010000
00000000
,
01000000
00100000
10010000
00000000
,
10010000
01010000
00011000
00000000
,
00001001
00001100
00011000
00000000
,
00000100
00000010
00001001
00000000
,
00000100
00000010
00001001
00000000
,
00011000
00000000
00000000
00000000
,
01000000
00100000
10000000
01000000
,
00100000
00010000
01000000
00000000
,
00000000
00000000
00000000
00000000
,
00011000
00000000
00000000
00000000
,
00000100
00000010
00000001
00000100
,
00000010
00001000
00000100
00000000
,
00000000
00000000
00000000
00000000
,
00010000
00001000
00100000
00010000
,
01000000
00100000
01000000
00010000
,
10000000
10000000
00010000
00010000
,
00100000
00000000
00001000
00000000
00010000
00000100
00000010
00000000
,
00000001
00000100
00000010
00001000
,
00000100
00010000
00001000
00100000
,
00010000
00010000
10000000
10000000
,
01000000
00000000
00100000
00000000
00001000
00010000
00000100
00000000
,
00000000
00000000
00000000
00010000
,
00001000
00100000
00000000
00000000
,
00000000
00010000
10000000
00010000
,
10000000
00000000
00000000
00000000
,
01100000
00000000
00000000
00001000
,
00010000
00000100
00000000
00000000
,
00001000
00000001
00001000
00000001
,
00000000
00000000
00000000
00000000
,
00001000
00000100
00000011
00001100
,
00010000
00001000
01010000
10100000
,
00010000
01000000
00011000
00001010
,
00000100
00000010
00001010
00011000
,
01000000
00100000
11000000
00110000
,
00001000
00010000
00001010
00000101
,
00001000
00000010
00011000
10010000
,
01000000
00100000
10010000
00000000
,
00011000
00000000
00000000
00000000
,
00010000
00100000
10000000
01000000
,
00100000
00001000
00010100
00000000
;

//---------------dance-double - ----------------
#NOTES:
     dance-double:
     :
     Medium:
     7:
     :
00000000
00000000
00000000
00000000
,
00000000
00000000
00000000
00000000
,
00000000
00000000
00000000
00000000
,
00000000
00000000
00000000
00000000
,
00000000
00000000
00000000
00000000
,
00000000
00000000
00000000
00000000
,
00010000
00001000
00010000
00001000
,
00100000
00001000
00100000
00001000
,
00010000
00001000
00010000
00001000
,
00010000
00000100
00010000
00000100
,
00010000
00001000
01000000
00001000
,
00010000
00000010
00010000
00001000
,
00011000
00000000
00010100
00000000
00001000
00000010
00001000
00000000
,
00011000
00000000
01001000
00000000
00010000
00100000
00010000
00000000
,
10000000
00000000
00100000
00000000
01000000
00100000
10000000
00000000
,
10000000
00000000
00100000
00000000
01000000
00100000
10000000
00000000
,
00010000
00100000
00010000
00000000
01000000
00100000
01000000
00000000
,
00010000
00100000
00010000
00000000
01000000
00100000
01000000
00000000
,
00010000
10000000
00010000
10000000
00010000
10000000
00010000
00000000
,
00001000
00010000
00001000
00010000
00001000
00010000
00001000
00000000
,
00011000
00011000
00110000
00000000
,
00011000
00011000
00001010
00000000
,
00000100
00000001
00000100
00000000
00001001
00000000
00000000
00000000
,
00010000
00001000
00010000
00000000
00110000
00000000
00000000
00000000
,
10010000
00011000
00000110
00000000
,
00001001
00011000
01100000
00000000
,
10000000
00010000
01000000
00000000
10010000
00000000
00000000
00000000
,
00001000
00010000
00000100
00000000
00000110
00000000
00000000
00000000
,
00001001
00000000
00000000
00000000
,
00000100
00000010
00001000
00000100
,
00010000
00000000
00001000
00000000
00100000
00010000
00000000
00000000
,
00000000
00000000
00000000
00000000
,
10010000
00000000
00000000
00000000
,
01000000
00100000
00010000
01000000
,
00001000
00000000
00010000
00000000
00000010
00001000
00000000
00000000
,
00000000
00000000
00001001
00000110
,
00000001
00001000
00000001
00000000
00001000
00000000
00001000
00000000
,
00000100
00010000
00000100
00000000
00010000
00000000
00010000
00000000
,
00001000
00010000
00001000
00000000
00010000
00001000
00010000
00000000
,
00001000
01000000
00010000
10000000
01000000
00100000
00010000
00000000
,
10000000
00010000
10000000
00000000
00010000
00000000
00010000
00000000
,
01000000
00001000
01000000
00000000
00001000
00000000
00001000
00000000
,
00010000
00001000
00010000
00000000
00001000
00010000
00001000
00000000
,
00010000
00000100
00001000
00000001
00000100
00000010
00001000
00000000
,
00000000
00000000
00000000
00000000
00000000
00000010
00001000
00000010
,
00001000
00000010
00001000
00000000
00000000
00000000
00000000
00000000
,
00000000
00000100
00010000
00000100
,
00010000
00000000
00000000
00000000
,
00011000
00000000
00000000
00000000
00000000
00100000
00010000
00100000
,
00010000
00100000
00010000
00000000
00000000
00000000
00000000
00000000
,
10000000
00010000
10000000
00010000
01000000
00100000
01000000
00000000
,
00000000
00000000
00000000
00000000
,
00001000
00100000
00001000
00000000
00011000
00000000
00011000
00000000
,
00000100
00010000
00000100
00000000
00011000
00000000
00011000
00000000
,
01000000
00010000
10000000
00000000
11000000
00000000
11000000
00000000
,
00010000
01000000
00001000
00000000
00011000
00000000
00011000
00000000
,
00000100
00001000
00000010
00000000
00010010
00000000
00011000
00000000
,
00100000
00010000
01000000
00000000
01001000
00000000
00011000
00000000
,
00000010
00001000
00000100
00000000
00000011
00000000
00001100
00000000
,
00010000
00001000
00010000
00000000
00110000
00000000
00000000
00000000
,
10010000
00000000
00000000
00000000
,
00010000
00000000
00100000
00000000
01000000
00100000
01000000
00000000
,
10000000
00010000
01000000
00001000
00010000
00000100
00000000
00000000
;

//---------------dance-double - ----------------
#NOTES:
     dance-double:
     :
     Hard:
     9:
     :
00000000
00000000
00000000
00000000
,
00000000
00000000
00000000
00000000
,
00000000
00000000
00000000
00000000
,
00000000
00000000
00000000
00000000
,
00000000
00000000
00000000
00000000
,
00000000
00000000
00000000
00000000
,
00000000
00000000
00010000
00000000
00000000
00000000
00001000
00000000
00010000
00000000
00000000
00001000
00000000
00000000
00010000
00000000
,
00000000
00000000
00001000
00000000
00000000
00000000
00100000
00000000
00010000
00000000
00000000
10000000
00000000
00000000
01000000
00000000
,
00000000
00000000
00100000
00000000
00000000
00000000
00001000
00000000
00010000
00000000
00000000
00000100
00000000
00000000
00001000
00000000
,
00000000
00000000
00000001
00000000
00000000
00000000
00000010
00000000
00000100
00000000
00000000
00010000
00000000
00000000
00001000
00000000
,
00000000
00000000
00100000
00000000
00000000
00000000
00010000
00000000
01000000
00000000
00000000
00100000
00000000
00000000
10000000
00000000
,
00000000
00000000
00010000
00000000
00000000
00000000
00100000
00000000
00001000
00000000
00000000
00010000
00000000
00000000
00000100
00000000
,
00010000
00000000
00001000
00000000
00010000
00000000
00000000
00000000
00001000
00010000
00000000
00001000
00000000
00000000
01000000
00000000
,
00010000
00000000
10000000
00000000
00010000
00000000
00000000
00000000
10000000
00010000
00000000
10000000
00000000
00000000
00100000
00000000
,
10000000
00010000
01000000
00001000
00010000
00000100
00000010
00000000
,
00000001
00001000
00000100
00010000
00001000
01000000
00100000
00000000
,
10000000
01000000
10000000
00010000
01000000
00001000
00010000
00000000
,
00001000
00010000
00000100
00001000
00000010
00000100
00000001
00000000
,
00000010
00000100
00001000
00000010
00010000
00011000
00101000
00000000
,
01000000
10000000
00100000
01000000
00001000
00011000
00010100
00000000
,
00001000
00000010
00000100
00000001
00000010
00000000
00000000
00000000
,
00000001
00000100
00000010
00010000
00001000
00000000
00000000
00000000
,
01000000
00100000
10000000
01000000
00110000
00000000
00000000
00000000
,
00001000
00010000
00000100
00000010
00001001
00000000
00000000
00000000
,
00000100
00000010
00000001
00000101
00000110
00000000
00000000
00000000
,
00001000
00000100
00010000
00011000
01001000
00000000
00000000
00000000
,
00010000
01000000
00010000
00000000
01000000
00000000
00100000
00000000
10000000
00000000
00000000
00000000
00000000
00000000
00000000
00000000
,
01000000
00100000
01000000
00000000
00100000
00000000
00010000
00000000
01000000
00000000
00000000
00000000
00000000
00000000
00000000
00000000
,
00011000
00000000
00000000
00000000
,
10000000
00100000
10000000
01000000
10000000
00010000
10000000
00100000
,
01000000
00001000
00010000
00000100
00010000
00000010
00010000
00001000
,
00010000
00000100
00001000
00000001
00001000
00000010
00001000
00000100
,
00010100
00000000
00000000
00000000
,
00000010
00000100
00000010
00001000
00000010
00000001
00000010
00000100
,
00000001
00001000
00000100
00010000
00000100
00000010
00000100
00010000
,
00001000
00100000
00001000
01000000
01010000
00000000
10010000
00000000
,
00010000
01000000
00010000
00100000
00001000
00010000
00001000
00010000
,
00000100
00001000
00000010
00000100
00000001
00000010
00000100
00000000
,
00000010
00000100
00000010
00000000
00000100
00000000
00000000
00000000
00000001
00000100
00000001
00000000
00000100
00000000
00000000
00000000
,
00000010
00001000
00000100
00010000
00011000
00101000
00110000
00000000
,
00010000
01000000
00010000
00100000
00001000
00010000
00001000
00010000
,
00000100
00001000
00000010
00000100
00000001
00000010
00000100
00000000
,
00000010
00000100
00000010
00000000
00000100
00000000
00000000
00000000
00000001
00000100
00000001
00000000
00000100
00000000
00000000
00000000
,
00000010
00001000
00000100
00010000
00011000
00101000
00110000
00000000
,
01000000
10000000
00100000
01000000
00001000
00010000
00000100
00000010
,
00000001
00000100
00000010
00001000
00000100
00000010
00000001
00000100
,
00000000
00000000
00000001
00000001
00001000
00000000
00000010
00000010
,
00010000
00000000
00000000
00000000
,
00001000
00100000
00010000
10000000
01000000
00100000
00010000
01000000
,
00001000
00010000
00000010
00001000
00000100
00000010
00001000
00010000
,
00001000
01000000
00001000
01000000
01010000
10010000
01100000
00000000
,
00000000
00000000
00000000
00000000
,
00001000
00000000
00000001
00000000
00000100
00000000
00000010
00000000
00001000
00000100
00000000
00000010
00000000
00000000
00000001
00000000
,
00000100
00000000
00000010
00000000
00001000
00000000
00000100
00000000
00010000
00001000
00000000
00100000
00000000
00000000
00010000
00000000
,
10000000
00000000
01000000
00000000
00100000
00000000
00010000
00000000
01000000
00010000
00000000
01000000
00000000
00000000
00001000
00000000
,
00010000
00000000
00000100
00000000
00000010
00000000
00000001
00000000
00000100
00000001
00000000
00000010
00000000
00000000
00000100
00000000
,
00010000
00000000
00001000
00000000
01000000
00000000
00010000
00000000
10000000
01000000
00000000
00100000
00000000
00000000
00010000
00000000
,
01000000
00000000
00010000
00000000
00100000
00000000
00001000
00000000
00010000
00001000
00000000
00010000
00000000
00000000
00000100
00000000
,
00001000
00000000
00000010
00000000
00000100
00000000
00000001
00000000
00000010
00000100
00000000
00001000
00000000
00000000
00000010
00000000
,
00010000
00000000
00001000
00000000
01000000
00000000
00010000
00000000
00100000
01000000
00000000
10000000
00000000
00000000
00010000
00000000
,
01001000
00000000
00000000
00000000
,
00010000
00000000
00001000
00000000
00100000
00000000
00010000
00000000
10000000
00100000
00000000
00000000
00000000
01000000
00010000
00000000
,
00100000
00001000
00010000
00000100
00000010
00001001
00000000
00000000
;

//---------------dance-couple - ----------------
#NOTES:
     dance-couple:
     :
     Challenge:
     9:
     :
00000000
00000000
00000000
00000000
,
00000000
00000000
00000000
00000000
,
00000000
00000000
00000000
00000000
,
00000000
00000000
00000000
00000000
,
00000000
00000000
00000000
00000000
,
00000000
00000000
00000000
00000000
,
00000000
00000000
00000000
00000000
00000000
00000000
00000000
00000000
10000000
00000000
00000000
00000000
00000000
00000000
00000000
00000000
00010000
00000000
00000000
00000000
00000000
00000000
00000000
00000000
00000000
00000000
00000000
00000000
00000000
00000000
00000000
00000000
10000000
00000000
00000000
00000000
00000000
00000000
00000000
00000000
00000000
00000000
00000000
10000000
00000000
00000000
00000000
00000000
00000000
00000000
00000000
00000000
00000000
00000000
01000000
00000000
00000000
00000000
00000000
00000000
00000000
00000000
00000000
00000000
,
00000000
00000000
00000000
00000000
00000000
00000000
00000000
00000000
00010000
00000000
00000000
00000000
00000000
00000000
00000000
00000000
10000000
00000000
00000000
00000000
00000000
00000000
00000000
00000000
00000000
00000000
00000000
00000000
00000000
00000000
00000000
00000000
00010000
00000000
00000000
00000000
00000000
00000000
00000000
00000000
00000000
00000000
00000000
00010000
00000000
00000000
00000000
00000000
00000000
00000000
00000000
00000000
00000000
00000000
01000000
00000000
00000000
00000000
00000000
00000000
00000000
00000000
00000000
00000000
,
00000000
00000000
00000000
00000000
00000000
00000000
00000000
00000000
00001000
00000000
00000000
00000000
00000000
00000000
00000000
00000000
00000001
00000000
00000000
00000000
00000000
00000000
00000000
00000000
00000000
00000000
00000000
00000000
00000000
00000000
00000000
00000000
00001000
00000000
00000000
00000000
00000000
00000000
00000000
00000000
00000000
00000000
00000000
00001000
00000000
00000000
00000000
00000000
00000000
00000000
00000000
00000000
00000000
00000000
00000100
00000000
00000000
00000000
00000000
00000000
00000000
00000000
00000000
00000000
,
00000000
00000000
00000000
00000000
00000000
00000000
00000000
00000000
00000001
00000000
00000000
00000000
00000000
00000000
00000000
00000000
00001000
00000000
00000000
00000000
00000000
00000000
00000000
00000000
00000000
00000000
00000000
00000000
00000000
00000000
00000000
00000000
00000001
00000000
00000000
00000000
00000000
00000000
00000000
00000000
00000000
00000000
00000000
00000001
00000000
00000000
00000000
00000000
00000000
00000000
00000000
00000000
00000000
00000000
00000100
00000000
00000000
00000000
00000000
00000000
00000000
00000000
00000000
00000000
,
00000000
00000000
00000000
00000000
00000000
00000000
00000000
00000000
00100000
00000000
00000000
00000000
00000000
00000000
00000000
00000000
01000000
00000000
00000000
00000000
00000000
00000000
00000000
00000000
00000000
00000000
00000000
00000000
00000000
00000000
00000000
00000000
01000000
00000000
00000000
00000000
00000000
00000000
00000000
00000000
00000000
00000000
00000000
01000000
00000000
00000000
00000000
00000000
00000000
00000000
00000000
00000000
00000000
00000000
00010000
00000000
00000000
00000000
00000000
00000000
00000000
00000000
00000000
00000000
,
00000000
00000000
00000000
00000000
00000000
00000000
00000000
00000000
00000010
00000000
00000000
00000000
00000000
00000000
00000000
00000000
00000100
00000000
00000000
00000000
00000000
00000000
00000000
00000000
00000000
00000000
00000000
00000000
00000000
00000000
00000000
00000000
00000100
00000000
00000000
00000000
00000000
00000000
00000000
00000000
00000000
00000000
00000000
00000100
00000000
00000000
00000000
00000000
00000000
00000000
00000000
00000000
00000000
00000000
00001000
00000000
00000000
00000000
00000000
00000000
00000000
00000000
00000000
00000000
,
10010000
00000000
01000000
00000000
00100000
00010000
01000000
00000000
,
00001001
00000000
00000100
00000000
00000010
00001000
00000100
00000000
,
00010000
01000000
00100000
00000000
10000000
01000000
00100000
00000000
,
00001000
00000100
00000010
00000000
00000001
00000100
00000010
00000000
,
10000000
01000000
00100000
00000000
00010000
01000000
00100000
00000000
,
00001000
00000100
00000010
00000000
00000001
00000100
00000010
00000000
,
10000000
00010000
01000000
01000000
00010000
10000000
01000000
00000000
,
00000001
00001000
00000100
00000100
00001000
00000001
00000100
00000000
,
00000010
00000001
00001000
00000100
00000010
00000001
00000001
00000000
,
00100000
10000000
00010000
01000000
00100000
10000000
10000000
00000000
,
00001000
00000100
00000010
00000001
00000100
00000001
00000001
00000000
,
00010000
01000000
00100000
10000000
01000000
10000000
10000000
00000000
,
00000001
00001000
00000001
00001000
00000100
00000010
00000010
00000000
,
10000000
00010000
10000000
00010000
01000000
00100000
00100000
00000000
,
00000010
00000001
00000010
00000000
00000001
00000000
00001000
00000000
00000100
00000000
00000000
00000000
00000000
00000000
00000000
00000000
,
00100000
10000000
00100000
00000000
10000000
00000000
00010000
00000000
01000000
00000000
00000000
00000000
00000000
00000000
00000000
00000000
,
10010000
00000000
00000000
00000000
,
01000000
00000000
10000000
00000000
00100001
00000000
10000000
00000000
00010000
00100000
00000000
00000000
00010001
00100000
00010000
00000000
,
10000000
01000000
00100001
01000000
10000000
00010000
00000001
00000000
,
00000000
00000000
00000000
00000000
,
00001001
00000000
00000000
00000000
,
00000100
00000000
00001000
00000000
10000010
00000000
00001000
00000000
00000001
00000010
00000000
00000000
10000001
00000010
00000001
00000000
,
00001000
00000100
10000010
00000100
00001000
00000001
10000000
00000000
,
00000000
00000000
01100110
10011001
,
00000001
00000100
10000001
00000001
00001000
00000100
10001000
00000000
,
00001000
00000100
10001000
00001000
00000001
00000100
10000001
00000000
,
00000100
00001000
10000010
00000000
00000100
00001000
10000010
00000000
,
00000100
00001000
10000100
00001000
00000100
00001000
10000010
00000000
,
00010000
01000000
00010001
00010000
10000000
01000000
10000001
00000000
,
10000000
01000000
10000001
10000000
00010000
01000000
00010001
00000000
,
01000000
10000000
00100001
00000000
01000000
10000000
00100001
00000000
,
01000000
10000000
01000001
10000000
01000000
10000000
00100001
00000000
,
00010000
00001010
00010000
00001001
00010100
00000010
00010001
00000100
,
00010000
00000101
00010000
00001001
00010100
00000010
00011000
00000001
,
00010000
00001100
00010000
00001001
00010100
00000010
00010001
00001000
,
00010000
00000011
00010000
00001001
00010100
00000010
00011000
00000100
,
00001000
10100000
00001000
10010000
01001000
00100000
00011000
01000000
,
00001000
01010000
00001000
10010000
01001000
00100000
10001000
00010000
,
00001000
11000000
00001000
10010000
01001000
00100000
00011000
10000000
,
00001000
00110000
00001000
10010000
01001000
00100000
10001000
01000000
,
00000000
00000000
00000000
00000000
00000000
00000000
00000000
00000000
00000001
00000000
00000000
00000000
00000000
00000000
00000000
00000000
01001000
00000000
00000000
00000000
00000000
00000000
00000000
00000000
00000000
00000000
00000000
00000000
00000000
00000000
00000000
00000000
00000001
00000000
00000000
00000000
00000000
00000000
00000000
00000000
00000000
00000000
00000000
00000001
00000000
00000000
00000000
00000000
01000000
00000000
00000000
00000000
00000000
00000000
00000100
00000000
00000000
00000000
00000000
00000000
00000000
00000000
00000000
00000000
,
00000000
00000000
00000000
00000000
00000000
00000000
00000000
00000000
00001000
00000000
00000000
00000000
00000000
00000000
00000000
00000000
01000001
00000000
00000000
00000000
00000000
00000000
00000000
00000000
00000000
00000000
00000000
00000000
00000000
00000000
00000000
00000000
00001000
00000000
00000000
00000000
00000000
00000000
00000000
00000000
00000000
00000000
00000000
00001000
00000000
00000000
00000000
00000000
01000000
00000000
00000000
00000000
00000000
00000000
00000100
00000000
00000000
00000000
00000000
00000000
00000000
00000000
00000000
00000000
,
00000000
00000000
00000000
00000000
00000000
00000000
00000000
00000000
00010000
00000000
00000000
00000000
00000000
00000000
00000000
00000000
10000100
00000000
00000000
00000000
00000000
00000000
00000000
00000000
00000000
00000000
00000000
00000000
00000000
00000000
00000000
00000000
00010000
00000000
00000000
00000000
00000000
00000000
00000000
00000000
00000000
00000000
00000000
00010000
00000000
00000000
00000000
00000000
00000100
00000000
00000000
00000000
00000000
00000000
01000000
00000000
00000000
00000000
00000000
00000000
00000000
00000000
00000000
00000000
,
00000000
00000000
00000000
00000000
00000000
00000000
00000000
00000000
10000000
00000000
00000000
00000000
00000000
00000000
00000000
00000000
00010100
00000000
00000000
00000000
00000000
00000000
00000000
00000000
00000000
00000000
00000000
00000000
00000000
00000000
00000000
00000000
10000000
00000000
00000000
00000000
00000000
00000000
00000000
00000000
00000000
00000000
00000000
10000000
00000000
00000000
00000000
00000000
00000100
00000000
00000000
00000000
00000000
00000000
01000000
00000000
00000000
00000000
00000000
00000000
00000000
00000000
00000000
00000000
,
00000000
00000000
00000000
00000000
00000000
00000000
00000000
00000000
00000001
00000000
00000000
00000000
00000000
00000000
00000000
00000000
00000100
00000000
00000000
00000000
00000000
00000000
00000000
00000000
00000000
00000000
00000000
00000000
00000000
00000000
00000000
00000000
00000100
00000000
00000000
00000000
00000000
00000000
00000000
00000000
00000000
00000000
00000000
00000100
00000000
00000000
00000000
00000010
00000000
00000000
00000000
00000000
00000000
00000000
00000100
00000000
00000000
00000000
00000010
00000000
00000000
00000000
00000000
00000000
,
00000000
00000000
00000000
00000000
00000000
00000000
00000000
00000000
00001000
00000000
00000000
00000000
00000000
00000000
00000000
00000000
00000100
00000000
00000000
00000000
00000000
00000000
00000000
00000000
00000000
00000000
00000000
00000000
00000000
00000000
00000000
00000000
00000100
00000000
00000000
00000000
00000000
00000000
00000000
00000000
00000000
00000000
00000000
00000010
00000000
00000000
00000000
00000001
00000000
00000000
00000000
00000000
00000000
00000000
00000010
00000000
00000000
00000000
00000001
00000000
00000000
00000000
00000000
00000000
,
00000000
00000000
00000000
00000000
00000000
00000000
00000000
00000000
00010000
00000000
00000000
00000000
00000000
00000000
00000000
00000000
01000000
00000000
00000000
00000000
00000000
00000000
00000000
00000000
00000000
00000000
00000000
00000000
00000000
00000000
00000000
00000000
01000000
00000000
00000000
00000000
00000000
00000000
00000000
00000000
00000000
00000000
00000000
01000000
00000000
00000000
00000000
00100000
00000000
00000000
00000000
00000000
00000000
00000000
01000000
00000000
00000000
00000000
00100000
00000000
00000000
00000000
00000000
00000000
,
00000000
00000000
00000000
00000000
00000000
00000000
00000000
00000000
10000000
00000000
00000000
00000000
00000000
00000000
00000000
00000000
01000000
00000000
00000000
00000000
00000000
00000000
00000000
00000000
00000000
00000000
00000000
00000000
00000000
00000000
00000000
00000000
01000000
00000000
00000000
00000000
00000000
00000000
00000000
00000000
00000000
00000000
00000000
00100000
00000000
00000000
00000000
00010000
00000000
00000000
00000000
00000000
00000000
00000000
00100000
00000000
00000000
00000000
00010000
00000000
00000000
00000000
00000000
00000000
,
00000000
00000000
00000000
00000000
,
01000100
10000001
00100010
10000001
00011000
00100010
00011000
01000100
,
00011000
10000001
00100010
01000100
00011000
10000001
00000000
00000000
;

//---------------dance-solo - ----------------
#NOTES:
     dance-solo:
     :
     Easy:
     4:
     :
000000
000000
000000
000000
,
000000
000000
000000
000000
,
000000
000000
000000
000000
,
000000
000000
000000
000000
,
000000
000000
000000
000000
,
000000
000000
000000
000000
,
000001
000001
100000
100000
,
000001
000001
100000
100000
,
001000
001000
000010
000010
,
000100
000100
010000
010000
,
000001
000001
001000
001000
,
100000
100000
000100
000100
,
001000
000010
100000
000100
,
000100
010000
000001
001000
,
100000
001000
001100
000001
,
100000
000100
001100
000001
,
000001
000001
010000
001000
,
100000
100000
000010
001000
,
000100
000100
100001
000100
,
001000
001000
100001
001000
,
000010
000010
010010
000000
,
010000
010000
010010
000000
,
000001
100000
001100
000000
,
100000
000001
001100
000000
,
000100
010000
000001
000000
,
000100
000010
100000
000000
,
001000
010000
000001
000000
,
001000
010000
000001
000000
,
100001
001000
001000
001000
,
100001
000010
100001
010000
,
001000
001000
001000
000000
,
000001
000001
000010
000010
,
010010
100000
100000
100000
,
001100
000010
001100
010000
,
100000
100000
100001
000000
,
000010
000010
100000
001000
,
100000
100000
001000
001000
,
000010
000010
100000
100000
,
001000
010000
001000
010000
,
000100
100000
000001
001000
,
000001
000001
100000
100000
,
000010
000010
001000
001000
,
000100
000001
000100
000010
,
001000
010000
100000
001000
,
000010
000010
001000
001000
,
000001
000001
100000
001000
,
010000
010000
000100
000100
,
100001
100001
000010
010000
,
000001
100000
001000
001000
,
000001
100000
001000
001000
,
000100
000001
000100
000010
,
100000
000100
001000
000001
,
010000
010000
001000
001000
,
000001
000001
001000
100000
,
001000
000001
001000
000010
,
100000
000000
010000
001000
,
000100
000100
100000
000001
,
001000
001000
000001
100000
,
000010
000010
001000
000100
,
100000
100000
000010
001000
,
100001
001000
001000
001000
,
000010
001000
010000
001000
,
001100
001100
100001
000000
;

//---------------dance-solo - ----------------
#NOTES:
     dance-solo:
     :
     Medium:
     7:
     :
000000
000000
000000
000000
,
000000
000000
000000
000000
,
000000
000000
000000
000000
,
000000
000000
000000
000000
,
000000
000000
000000
000000
,
000000
000000
000000
000000
,
000000
000000
000000
000000
000000
000000
000000
000000
100000
000000
000000
000000
000000
000000
000000
000000
000010
000000
000000
000000
000000
000000
000000
000000
000000
000000
000000
000000
000000
000000
000000
000000
100000
000000
000000
000000
000000
000000
000000
000000
000000
000000
000000
100000
000000
000000
000000
000000
000000
000000
000000
000000
000000
000000
001000
000000
000000
000000
000000
000000
000000
000000
000000
000000
,
000000
000000
000000
000000
000000
000000
000000
000000
000010
000000
000000
000000
000000
000000
000000
000000
100000
000000
000000
000000
000000
000000
000000
000000
000000
000000
000000
000000
000000
000000
000000
000000
000010
000000
000000
000000
000000
000000
000000
000000
000000
000000
000000
000010
000000
000000
000000
000000
000000
000000
000000
000000
000000
000000
001000
000000
000000
000000
000000
000000
000000
000000
000000
000000
,
000000
000000
000000
000000
000000
000000
000000
000000
000100
000000
000000
000000
000000
000000
000000
000000
001000
000000
000000
000000
000000
000000
000000
000000
000000
000000
000000
000000
000000
000000
000000
000000
001000
000000
000000
000000
000000
000000
000000
000000
000000
000000
000000
001000
000000
000000
000000
000000
000000
000000
000000
000000
000000
000000
000010
000000
000000
000000
000000
000000
000000
000000
000000
000000
,
000000
000000
000000
000000
000000
000000
000000
000000
100000
000000
000000
000000
000000
000000
000000
000000
000100
000000
000000
000000
000000
000000
000000
000000
000000
000000
000000
000000
000000
000000
000000
000000
010000
000000
000000
000000
000000
000000
000000
000000
000000
000000
000000
010000
000000
000000
000000
000000
000000
000000
000000
000000
000000
000000
001000
000000
000000
000000
000000
000000
000000
000000
000000
000000
,
000000
000000
000000
000000
000000
000000
000000
000000
000010
000000
000000
000000
000000
000000
000000
000000
001000
000000
000000
000000
000000
000000
000000
000000
000000
000000
000000
000000
000000
000000
000000
000000
001000
000000
000000
000000
000000
000000
000000
000000
000000
000000
000000
001000
000000
000000
000000
000000
000000
000000
000000
000000
000000
000000
000100
000000
000000
000000
000000
000000
000000
000000
000000
000000
,
000000
000000
000000
000000
000000
000000
000000
000000
100000
000000
000000
000000
000000
000000
000000
000000
000010
000000
000000
000000
000000
000000
000000
000000
000000
000000
000000
000000
000000
000000
000000
000000
000010
000000
000000
000000
000000
000000
000000
000000
000000
000000
000000
000010
000000
000000
000000
000000
000000
000000
000000
000000
000000
000000
001000
000000
000000
000000
000000
000000
000000
000000
000000
000000
,
000001
000000
001000
000000
000100
100000
010000
000000
,
000001
000000
000100
000000
001000
000001
010000
000000
,
001000
100000
001000
000000
000100
000001
000100
000000
,
010000
100000
010000
000000
000010
000001
000010
000000
,
001000
000100
100000
000000
001000
000100
100000
000000
,
010000
000100
001000
000000
010000
000100
001000
000000
,
000010
000100
000001
000000
000010
000100
000001
000000
,
100000
001000
000001
000000
000001
001000
100000
000000
,
000100
000001
001000
000010
001000
000000
000000
000000
,
000100
100000
001000
010000
001000
000000
000000
000000
,
100000
000010
010000
000001
001000
000000
000000
000000
,
000001
010000
000010
100000
000100
000000
000000
000000
,
100000
000001
100000
000001
010000
000000
000000
000000
,
000001
100000
000001
100000
000010
000000
000000
000000
,
001000
000010
001000
000010
100000
000000
000000
000000
,
001000
010000
001000
010000
000001
000000
000000
000000
,
001100
000000
000000
000000
,
000100
000001
001000
000001
100000
000010
100000
000010
,
001000
000001
100000
000010
001000
000001
000000
000000
,
001000
001000
001000
001000
,
100001
000000
000000
000000
,
001000
010000
000001
010000
000001
000100
000001
000000
,
000000
100000
000100
001000
000001
100000
000000
000000
,
000100
000100
010001
100010
,
000001
000010
000001
000000
000100
000001
000100
000000
,
000100
100000
000100
000000
100000
010000
100000
000000
,
001000
000010
001000
000000
100000
000010
100000
000000
,
000100
000010
000100
010000
000100
000010
100000
000000
,
100000
000100
100000
000000
000001
000100
000001
000000
,
000001
001000
000001
000000
100000
001000
100000
000000
,
001000
000001
000010
000000
001000
000001
000010
000000
,
001000
010000
001000
010000
001000
010000
000100
000000
,
100000
000000
000001
000000
001000
000001
000100
000000
,
100001
000000
100001
000000
000100
001000
000100
000000
,
100001
000000
100001
000000
001000
000010
100000
000000
,
100001
000000
100001
000000
000100
010000
000001
000000
,
100000
000000
001000
000000
000100
001000
000001
000000
,
000001
000000
001000
000000
000100
100000
001000
000000
,
100000
000000
001000
000000
000100
001000
000001
000000
,
000001
000000
000100
000000
001000
100000
000001
000000
,
000000
000000
000000
000000
000000
000000
000000
000000
000001
000000
000000
000000
000000
000000
000000
000000
100000
000000
000000
000000
000000
000000
000000
000000
000000
000000
000000
000000
000000
000000
000000
000000
000001
000000
000000
000000
000000
000000
000000
000000
000000
000000
000000
000001
000000
000000
000000
000000
000000
000000
000000
000000
000000
000000
001000
000000
000000
000000
000000
000000
000000
000000
000000
000000
,
000000
000000
000000
000000
000000
000000
000000
000000
000100
000000
000000
000000
000000
000000
000000
000000
001000
000000
000000
000000
000000
000000
000000
000000
000000
000000
000000
000000
000000
000000
000000
000000
000001
000000
000000
000000
000000
000000
000000
000000
000000
000000
000000
000001
000000
000000
000000
000000
000000
000000
000000
000000
000000
000000
100000
000000
000000
000000
000000
000000
000000
000000
000000
000000
,
000000
000000
000000
000000
000000
000000
000000
000000
000010
000000
000000
000000
000000
000000
000000
000000
001000
000000
000000
000000
000000
000000
000000
000000
000000
000000
000000
000000
000000
000000
000000
000000
001000
000000
000000
000000
000000
000000
000000
000000
000000
000000
000000
001000
000000
000000
000000
000000
000000
000000
000000
000000
000000
000000
000001
000000
000000
000000
000000
000000
000000
000000
000000
000000
,
000000
000000
000000
000000
000000
000000
000000
000000
000100
000000
000000
000000
000000
000000
000000
000000
001000
000000
000000
000000
000000
000000
000000
000000
000000
000000
000000
000000
000000
000000
000000
000000
010000
000000
000000
000000
000000
000000
000000
000000
000000
000000
000000
010000
000000
000000
000000
000000
000000
000000
000000
000000
000000
000000
000100
000000
000000
000000
000000
000000
000000
000000
000000
000000
,
000000
000000
000000
000000
000000
000000
000000
000000
100000
000000
000000
000000
000000
000000
000000
000000
000100
000000
000000
000000
000000
000000
000000
000000
000000
000000
000000
000000
000000
000000
000000
000000
000100
000000
000000
000000
000000
000000
000000
000000
000000
000000
000000
000100
000000
000000
000000
000000
000000
000000
000000
000000
000000
000000
001000
000000
000000
000000
000000
000000
000000
000000
000000
000000
,
000000
000000
000000
000000
000000
000000
000000
000000
000001
000000
000000
000000
000000
000000
000000
000000
000100
000000
000000
000000
000000
000000
000000
000000
000000
000000
000000
000000
000000
000000
000000
000000
000100
000000
000000
000000
000000
000000
000000
000000
000000
000000
000000
000001
000000
000000
000000
000000
000000
000000
000000
000000
000000
000000
100000
000000
000000
000000
000000
000000
000000
000000
000000
000000
,
000000
000000
000000
000000
000000
000000
000000
000000
000010
000000
000000
000000
000000
000000
000000
000000
000010
000000
000000
000000
000000
000000
000000
000000
000000
000000
000000
000000
000000
000000
000000
000000
001000
000000
000000
000000
000000
000000
000000
000000
000000
000000
000000
000100
000000
000000
000000
000000
000000
000000
000000
000000
000000
000000
100000
000000
000000
000000
000000
000000
000000
000000
000000
000000
,
000000
000000
000000
000000
000000
000000
000000
000000
000010
000000
000000
000000
000000
000000
000000
000000
000010
000000
000000
000000
000000
000000
000000
000000
000000
000000
000000
000000
000000
000000
000000
000000
100001
000000
000000
000000
000000
000000
000000
000000
000000
000000
000000
100001
000000
000000
000000
000000
000000
000000
000000
000000
000000
000000
001000
000000
000000
000000
000000
000000
000000
000000
000000
000000
,
000100
000000
000000
000000
,
001000
000100
100000
000100
001000
000001
001000
000001
,
100000
000010
001000
000010
100000
000001
000000
000000
;

//---------------dance-solo - ----------------
#NOTES:
     dance-solo:
     :
     Hard:
     9:
     :
000000
000000
000000
000000
,
000000
000000
000000
000000
,
000000
000000
000000
000000
,
000000
000000
000000
000000
,
000000
000000
000000
000000
,
000000
000000
000000
000000
,
000000
000000
000000
000000
000000
000000
000000
000000
100000
000000
000000
000000
000000
000000
000000
000000
000010
000000
000000
000000
000000
000000
000000
000000
000000
000000
000000
000000
000000
000000
000000
000000
100000
000000
000000
000000
000000
000000
000000
000000
000000
000000
000000
000001
000000
000000
000000
000100
000000
000000
000000
000000
000000
000000
000001
000000
000000
000000
000100
000000
000000
000000
000000
000000
,
000000
000000
000000
000000
000000
000000
000000
000000
001000
000000
000000
000000
000000
000000
000000
000000
010000
000000
000000
000000
000000
000000
000000
000000
000000
000000
000000
000000
000000
000000
000000
000000
000001
000000
000000
000000
000000
000000
000000
000000
000000
000000
000000
100000
000000
000000
000000
000001
000000
000000
000000
000000
000000
000000
100000
000000
000000
000000
000001
000000
000000
000000
000000
000000
,
000000
000000
000000
000000
000000
000000
000000
000000
001000
000000
000000
000000
000000
000000
000000
000000
000010
000000
000000
000000
000000
000000
000000
000000
000000
000000
000000
000000
000000
000000
000000
000000
010000
000000
000000
000000
000000
000000
000000
000000
000000
000000
000000
000001
000000
000000
000000
000100
000000
000000
000000
000000
000000
000000
000001
000000
000000
000000
000100
000000
000000
000000
000000
000000
,
000000
000000
000000
000000
000000
000000
000000
000000
001000
000000
000000
000000
000000
000000
000000
000000
100000
000000
000000
000000
000000
000000
000000
000000
000000
000000
000000
000000
000000
000000
000000
000000
000010
000000
000000
000000
000000
000000
000000
000000
000000
000000
000000
010000
000000
000000
000000
000100
000000
000000
000000
000000
000000
000000
010000
000000
000000
000000
000100
000000
000000
000000
000000
000000
,
000000
000000
000000
000000
000000
000000
000000
000000
100000
000000
000000
000000
000000
000000
000000
000000
000010
000000
000000
000000
000000
000000
000000
000000
000000
000000
000000
000000
000000
000000
000000
000000
010000
000000
000000
000000
000000
000000
000000
000000
000000
000000
000000
000001
000000
000000
000000
000100
000000
000000
000000
000000
000000
000000
000001
000000
000000
000000
000100
000000
000000
000000
000000
000000
,
000000
000000
000000
000000
000000
000000
000000
000000
001000
000000
000000
000000
000000
000000
000000
000000
010000
000000
000000
000000
000000
000000
000000
000000
000000
000000
000000
000000
000000
000000
000000
000000
000100
000000
000000
000000
000000
000000
000000
000000
000000
000000
000000
100000
000000
000000
000000
001000
000000
000000
000000
000000
000000
000000
100000
000000
000000
000000
001000
000000
000000
000000
000000
000000
,
010001
000000
100010
000000
001000
000010
001000
000000
,
010100
000000
000110
000000
001000
010000
001000
000000
,
000001
010000
001000
000010
000001
010000
000100
000000
,
100000
000010
001000
010000
100000
000010
000100
000000
,
000001
000100
001000
010000
010000
000001
100000
000000
,
000010
000100
000001
100000
100000
000100
010000
000000
,
001000
100000
000001
000001
100000
000010
000100
000000
,
010000
000001
001000
001000
000010
100000
000100
000000
,
001000
000010
100000
000100
001000
000001
000001
000000
,
000100
001000
010000
000001
001000
000010
000010
000000
,
100000
001000
000100
000001
001000
000010
000010
000000
,
100000
000100
010000
000001
001000
000010
000010
000000
,
000001
100000
000001
100000
001000
000100
000100
000000
,
000001
010000
000010
100000
000001
000100
000100
000000
,
001000
010000
001000
000000
010000
000000
000001
000000
001000
000000
000000
000000
000000
000000
000000
000000
,
000100
100000
000100
000000
100000
000000
000010
000000
001000
000000
000000
000000
000000
000000
000000
000000
,
100001
000000
000000
000000
,
001000
000000
010000
000000
000100
000000
100000
000000
000010
000100
000000
000000
000001
000100
000001
000000
,
010000
001000
000100
001000
100000
000001
000000
000000
,
000000
000000
000000
000000
,
100001
000000
000000
000000
,
001000
000000
000010
000000
100000
000000
000001
000000
010000
000100
000000
000000
100000
000100
100000
000000
,
000001
001000
000010
100000
000001
010000
000000
000000
,
000100
000000
000000
000000
000100
000000
000000
000000
001000
000010
000000
000000
100000
000100
000000
000000
,
010000
001000
010000
010000
000001
000100
000001
000000
,
100000
000100
100000
000100
001000
000100
010000
000000
,
000100
001000
100001
000000
000100
001000
100001
000000
,
000100
001000
000100
001000
000100
001000
100001
000000
,
100000
001000
100000
001000
010000
001000
000100
000000
,
000001
001000
000001
001000
000010
001000
010000
000000
,
001000
000100
100010
000000
001000
000100
100010
000000
,
001000
000100
001000
000100
001000
000100
100001
000000
,
000000
100010
000000
010001
000100
001000
100000
001000
,
000000
011000
000000
001010
010000
000100
100000
000001
,
000000
010100
000000
000110
100000
000100
100000
100000
,
000000
000101
000000
100001
000100
000100
010000
001000
,
000000
000101
000000
100001
001000
001000
010000
001000
,
000000
101000
000000
100001
001000
000010
000010
100000
,
000000
001001
000000
100001
000100
000100
010000
000001
,
000000
100010
000000
100001
001000
001000
000010
001000
,
000000
000000
000000
000000
000000
000000
000000
000000
000001
000000
000000
000000
000000
000000
000000
000000
100000
000000
000000
000000
000000
000000
000000
000000
000000
000000
000000
000000
000000
000000
000000
000000
000010
000000
000000
000000
000000
000000
000000
000000
000000
000000
000000
010000
000000
000000
000000
001000
000000
000000
000000
000000
000000
000000
010000
000000
000000
000000
001000
000000
000000
000000
000000
000000
,
000000
000000
000000
000000
000000
000000
000000
000000
100000
000000
000000
000000
000000
000000
000000
000000
000001
000000
000000
000000
000000
000000
000000
000000
000000
000000
000000
000000
000000
000000
000000
000000
000100
000000
000000
000000
000000
000000
000000
000000
000000
000000
000000
000010
000000
000000
000000
100000
000000
000000
000000
000000
000000
000000
000010
000000
000000
000000
100000
000000
000000
000000
000000
000000
,
000000
000000
000000
000000
000000
000000
000000
000000
000100
000000
000000
000000
000000
000000
000000
000000
001000
000000
000000
000000
000000
000000
000000
000000
000000
000000
000000
000000
000000
000000
000000
000000
000010
000000
000000
000000
000000
000000
000000
000000
000000
000000
000000
100000
000000
000000
000000
000001
000000
000000
000000
000000
000000
000000
100000
000000
000000
000000
000001
000000
000000
000000
000000
000000
,
000000
000000
000000
000000
000000
000000
000000
000000
000100
000000
000000
000000
000000
000000
000000
000000
001000
000000
000000
000000
000000
000000
000000
000000
000000
000000
000000
000000
000000
000000
000000
000000
100000
000000
000000
000000
000000
000000
000000
000000
000000
000000
000000
000001
000000
000000
000000
010000
000000
000000
000000
000000
000000
000000
000001
000000
000000
000000
010000
000000
000000
000000
000000
000000
,
000000
000000
000000
000000
000000
000000
000000
000000
000010
000000
000000
000000
000000
000000
000000
000000
000100
000000
000000
000000
000000
000000
000000
000000
000000
000000
000000
000000
000000
000000
000000
000000
000001
000000
000000
000000
000000
000000
000000
000000
000000
000000
000000
010000
000000
000000
000000
001000
000000
000000
000000
000000
000000
000000
010000
000000
000000
000000
001000
000000
000000
000000
000000
000000
,
000000
000000
000000
000000
000000
000000
000000
000000
000100
000000
000000
000000
000000
000000
000000
000000
000001
000000
000000
000000
000000
000000
000000
000000
000000
000000
000000
000000
000000
000000
000000
000000
100000
000000
000000
000000
000000
000000
000000
000000
000000
000000
000000
000010
000000
000000
000000
001000
000000
000000
000000
000000
000000
000000
000010
000000
000000
000000
001000
000000
000000
000000
000000
000000
,
000000
000000
000000
000000
000000
000000
000000
000000
000001
000000
000000
000000
000000
000000
000000
000000
100000
000000
000000
000000
000000
000000
000000
000000
000000
000000
000000
000000
000000
000000
000000
000000
010001
000000
000000
000000
000000
000000
000000
000000
000000
000000
000000
001000
000000
000000
000000
000100
000000
000000
000000
000000
000000
000000
001000
000000
000000
000000
000100
000000
000000
000000
000000
000000
,
000000
000000
000000
000000
000000
000000
000000
000000
000001
000000
000000
000000
000000
000000
000000
000000
010000
000000
000000
000000
000000
000000
000000
000000
000000
000000
000000
000000
000000
000000
000000
000000
100010
000000
000000
000000
000000
000000
000000
000000
000000
000000
000000
001000
000000
000000
000000
000100
000000
000000
000000
000000
000000
000000
001000
000000
000000
000000
000100
000000
000000
000000
000000
000000
,
100001
000000
000000
000000
,
000100
000000
010000
000000
010000
000000
001000
000000
100000
000100
000000
000000
100000
000100
100000
000000
,
000010
001000
000001
100000
001000
010000
000000
000000
;

//---------------dance-single - Edit by silenttype01----------------
#NOTES:
     dance-single:
     Edit by silenttype01:
     Challenge:
     10:
     0.821,0.797,0.587,0.100,0.603:
0000
0000
0000
0000
,
0000
0000
0000
0000
,
0000
0000
0000
0000
,
0000
0000
0000
0000
,
0000
0000
0010
0000
0000
0110
0000
0000
0011
0000
0000
0101
0000
0000
0001
0000
,
0000
0000
1000
0000
0000
1001
0000
0000
1010
0000
0000
0011
0000
0000
0001
0000
,
0000
0000
0010
0000
0000
0110
0000
0000
1010
0000
0000
1001
0000
0000
1000
0100
,
0000
0000
0010
0000
0000
0110
0000
0000
1100
0000
0000
1001
0000
0000
0001
0000
,
0000
0000
1000
0000
0000
0101
0000
0000
0110
0000
0000
1010
0000
0000
1001
0000
,
0000
0000
0010
0000
0000
1100
0000
0000
1001
0000
0000
0101
0000
0000
0011
0000
,
0000
0000
1000
0000
0000
1010
0000
0000
0101
0000
0000
1001
0000
0000
1000
0100
,
0000
0000
0010
0000
0000
0110
0000
0000
0011
0000
0000
1001
0000
0000
0110
0000
,
1001
0000
0101
0000
0010
0001
0100
0001
,
1001
0000
1100
0000
0010
1000
0100
0010
,
0001
0000
0100
0000
0010
0000
1000
0001
0100
0000
0010
0000
0110
0000
0100
0000
,
1000
0000
0100
0000
0010
0000
0001
1000
0100
0000
0010
0000
0110
0000
0100
0000
,
0001
0010
1000
0001
0100
0100
1000
0001
,
1000
0010
1000
0000
0001
0000
0100
0000
0010
0000
1000
0000
1000
0000
0001
0000
,
1000
0001
0100
0100
0001
1000
0100
0010
,
0100
0001
0100
0001
0100
0001
0100
0001
0100
0000
1000
0100
1000
0000
0100
0000
,
0010
0001
1000
0100
0010
0001
0001
0100
,
0010
1000
0001
0100
0010
1000
1000
0010
,
1000
0100
0010
0001
0100
0001
0001
0010
,
0001
0000
0100
0000
0010
0000
1000
0000
0100
0000
1000
0001
0010
0000
0100
0000
,
1000
0001
1000
0001
0100
0010
0010
0100
,
0001
1000
0001
1000
0100
0010
0010
0001
,
1000
0100
0010
0000
0001
0000
0100
0000
0010
0000
0100
0000
0001
0000
1000
0000
,
0001
0100
0010
0000
1000
0000
0100
0000
0010
0000
0001
0100
0010
0000
0100
0000
,
2002
0000
0000
0000
0000
0000
0000
0000
0000
0000
3003
0000
0000
0000
0100
0010
,
0100
0000
1000
0000
0010
0000
0100
0000
0001
1000
0000
0010
0100
0000
0001
0000
,
1000
0100
0010
0100
1000
0001
0010
0100
,
1000
0000
0001
0000
0000
0100
0000
0000
0010
0000
0000
1000
0000
0000
0100
0000
,
2002
0000
0000
3003
,
0010
0000
0001
0000
0100
0000
0010
0000
1000
0001
0000
0100
0010
0000
1000
0000
,
0001
0010
0100
0010
0001
1000
0100
0001
,
0100
1000
0100
1000
0100
1000
0100
1000
0200
0000
0000
0000
0320
0000
0000
0000
,
0031
0100
0001
0001
1000
0100
1000
1000
,
0010
0001
0010
0010
0001
0010
0001
0001
,
0010
0000
0100
0000
1001
0000
0000
0100
0010
0000
0100
0000
1001
0000
0000
0100
,
0010
1000
0001
0100
0110
0101
1001
0001
,
0100
1000
0100
0100
0001
0010
0001
0001
,
1000
0000
0100
0000
0010
0000
0010
0001
0100
0000
0110
0000
1010
0000
0000
0000
,
0100
0000
0010
0000
1001
0000
0000
0010
0100
0000
0010
0000
1001
0000
0000
0010
,
0100
0001
1000
0100
0110
0011
1001
0000
,
0000
1010
0000
1100
1000
0100
0010
0001
,
0100
0010
1000
0100
0001
0100
1000
0010
,
1000
0100
1000
1000
0001
0001
1000
1000
,
0002
0000
0100
0000
0103
0000
0010
0000
0010
0000
1000
0100
1000
0000
0001
0000
,
1000
0100
0010
1000
0010
0001
0100
1000
,
0100
0010
0100
0001
0010
0100
1000
0001
,
0100
0010
1000
0001
1001
1010
0110
0000
,
0010
1000
0010
1000
0010
1000
0010
1000
0010
0000
0100
0001
1000
0000
0100
0000
,
0000
0000
0000
0000
0000
0000
0000
0000
0010
0000
0000
0100
0000
0000
0000
0000
0000
0000
0000
0000
0010
0000
0000
0100
0000
0000
0000
0000
0000
0000
0000
0000
0010
0000
0000
0001
0000
0000
0000
0000
0000
0000
0000
0000
0100
0000
0000
0001
0000
0000
0000
0000
0000
0000
0000
0000
0001
0000
0000
1000
0000
0000
0000
0000
,
0000
0000
0000
0000
0000
0000
0000
0000
1000
0000
0000
0001
0000
0000
0000
0000
0000
0000
0000
0000
1000
0000
0000
0001
0000
0000
0000
0000
0000
0000
0000
0000
1000
0000
0000
0010
0000
0000
0000
0000
0000
0000
0000
0000
0100
0000
0000
0010
0000
0000
0000
0000
0000
0000
0000
0000
0010
0000
0000
0100
0000
0000
0000
0000
,
0000
0000
0000
0000
0000
0000
0000
0000
0100
0000
0000
0010
0000
0000
0000
0000
0000
0000
0000
0000
0100
0000
0000
0010
0000
0000
0000
0000
0000
0000
0000
0000
1000
0000
0000
0100
0000
0000
0000
0000
0000
0000
0000
0000
0010
0000
0000
0100
0000
0000
0000
0000
0000
0000
0000
0000
0010
0000
0000
0001
0000
0000
0000
0000
,
0000
0000
0000
0000
0000
0000
0000
0000
0001
0000
0000
0010
0000
0000
0000
0000
0000
0000
0000
0000
0001
0000
0000
0010
0000
0000
0000
0000
0000
0000
0000
0000
0100
0000
0000
1000
0000
0000
0000
0000
0000
0000
0000
0000
0010
0000
0000
1000
0000
0000
0000
0000
0000
0000
0000
0000
1000
0000
0000
0001
0000
0000
0000
0000
,
0000
0000
0000
0000
0000
0000
0000
0000
1000
0000
0000
0010
0000
0000
0000
0000
0000
0000
0000
0000
0010
0000
0000
0001
0000
0000
0000
0000
0000
0000
0000
0000
0001
0000
0000
0010
0000
0000
0000
0000
0000
0000
0000
0000
0010
0000
0000
1000
0000
0000
0000
0000
0000
0000
0000
0000
1000
0000
0000
0001
0000
0000
0000
0000
,
0000
0000
0000
0000
0000
0000
0000
0000
0001
0000
0000
0010
0000
0000
0000
0000
0000
0000
0000
0000
0010
0000
0000
1000
0000
0000
0000
0000
0000
0000
0000
0000
1000
0000
0000
0010
0000
0000
0000
0000
0000
0000
0000
0000
0010
0000
0000
0001
0000
0000
0000
0000
0000
0000
0000
0000
0001
0000
0000
1000
0000
0000
0000
0000
,
0000
0000
0000
0000
0000
0000
0000
0000
1000
0000
0000
0010
0000
0000
0000
0000
0000
0000
0000
0000
0010
0000
0000
1000
0000
0000
0000
0000
0000
0000
0000
0000
1000
0000
0000
0001
0000
0000
0000
0000
0000
0000
0000
0000
0001
0000
0000
1000
0000
0000
0000
0000
0000
0000
0000
0000
0100
0000
0000
0010
0000
0000
0000
0000
,
0000
0000
0000
0000
0000
0000
0000
0000
0100
0000
0000
1000
0000
0000
0000
0000
0000
0000
0000
0000
0001
0000
0000
0100
0000
0000
0000
0000
0000
0000
0000
0000
0001
0000
0000
1000
0000
0000
0000
0000
0000
0000
0000
0000
0100
0000
0000
1000
0000
0000
0000
0000
0000
0000
0000
0000
0010
0000
0000
0000
0000
0000
0000
0000
,
2002
0000
0000
3003
,
0100
0000
1000
0000
0010
0000
0100
0000
0001
0100
0000
0010
1000
0000
0100
0000
,
0010
0100
1000
0010
0100
0001
0000
0000
;

//---------------dance-double - Edit by silenttype01----------------
#NOTES:
     dance-double:
     Edit by silenttype01:
     Challenge:
     9:
     0.653,0.762,0.111,0.066,0.443: // measure 1
00000000
00000000
00000000
00000000
,  // measure 2
00000000
00000000
00000000
00000000
,  // measure 3
00000000
00000000
00000000
00000000
,  // measure 4
00000000
00000000
00000000
00000000
,  // measure 5
00000000
00000000
00000000
00000000
,  // measure 6
00000000
00000000
00000000
00000000
,  // measure 7
00000000
00000000
00000000
00000000
,  // measure 8
00000000
00000000
00000000
00000000
,  // measure 9
00000000
00000000
00000000
00000000
,  // measure 10
00000000
00000000
00000000
00000000
,  // measure 11
00000000
00000000
00000000
00000000
,  // measure 12
00000000
00000000
00000000
00000000
,  // measure 13
00010000
00001000
01000000
00010000
10000000
00100000
10000000
00010000
,  // measure 14
01000000
00001000
00010000
00000100
00000010
00000001
00001000
00000100
,  // measure 15
00010000
00000000
00001000
00000000
01000000
00000000
00100000
01000000
00100000
00000000
10000000
00000000
01000000
00000000
10000000
00000000
,  // measure 16
00010000
01000000
00001000
00010000
00000100
00001100
00000010
00000100
,  // measure 17
00000011
00000010
00000100
00001000
00000010
00010000
00001000
00100000
,  // measure 18
01000000
10000000
01000000
00000000
10000000
00000000
00100000
00000000
01000000
00000000
00001000
00000000
00010000
00000000
00000100
00000000
,  // measure 19
00001000
00000010
00000100
00000001
00000010
00000001
00000100
00000010
,  // measure 20
00010000
00000000
00001000
00010000
00001000
00000000
01000000
00000000
00100000
00000000
10000000
00000000
01000000
00000000
00000000
00000000
,  // measure 21
10000000
01000000
00010000
01000000
10000000
00000000
00000000
00000000
,  // measure 22
00010000
00100000
10000000
00100000
00010000
00000000
00000000
00100000
,  // measure 23
01000000
00010000
00001000
00000010
00000100
00000000
00000000
00000100
,  // measure 24
00000010
00001000
00010000
01000000
00100000
00000000
00000000
00100000
,  // measure 25
00001000
00000010
00000001
00000100
00000001
00000000
00000000
00000001
,  // measure 26
00000100
00000001
00000010
00001000
00100000
00000000
00000000
00100000
,  // measure 27
00010000
01000000
00010000
00000000
01000000
00000000
00100000
00000000
10000000
00000000
00000000
00000000
00000000
00000000
10000000
00000000
,  // measure 28
00100000
01000000
00100000
00000000
01000000
00000000
00010000
00000000
00100000
00000000
00000000
00000000
00000000
00000000
00000000
00000000
,  // measure 29
20020000
00000000
00000000
00000000
00000000
00000000
00000000
00000000
00000000
00000000
00000000
00000000
30000000
00000000
10030000
10000000
,  // measure 30
00010000
00100000
10000000
00100000
00010000
00100000
10000000
00100000
,  // measure 31
00001000
00000100
00000001
00000100
00001000
00000100
00000001
00000100
,  // measure 32
00001000
00000000
00000100
00000000
00000000
00000100
00000000
00000000
00000100
00000000
00000000
00000100
00000000
00000000
00000100
00000000
,  // measure 33
00002002
00000000
00000000
00003000
,  // measure 34
00001003
00000010
00000001
00000010
00001000
00000010
00000001
00000010
,  // measure 35
00010000
01000000
10000000
01000000
00010000
01000000
10000000
01000000
,  // measure 36
00010000
00001000
00010000
00001000
00010000
00000000
00001000
00100000
00001000
00000000
01000000
00010000
01000000
00000000
00000000
00000000
,  // measure 37
00100000
10000000
01000000
00010000
00001000
00100000
00001000
00010000
,  // measure 38
00000100
00000010
00000001
00000100
00001000
00010000
00000100
00010000
,  // measure 39
00001000
00000000
00100000
00000000
01000000
00000000
00000000
10000000
01000000
00000000
00010000
00000000
01000000
00000000
00100000
00000000
,  // measure 40
01000000
00010000
10000000
00100000
00010000
01010000
01000000
00100000
,  // measure 41
01100000
00100000
00010000
00001000
00000100
00000010
00000100
00001000
,  // measure 42
00000001
00000010
00001000
00000001
00000100
00001000
00010000
00000100
,  // measure 43
00001000
00000000
00000010
00000000
00000001
00000000
00000000
00000010
00001000
00000000
00000100
00000000
00001000
00000000
00000010
00000000
,  // measure 44
00000100
00000001
00000100
00000001
00000100
00000000
00000010
00001000
00000010
00000000
00000100
00000001
00000100
00000000
00000001
00001000
,  // measure 45
00000001
00000010
00000001
00000010
00001000
00000010
00001000
00000010
,  // measure 46
00001000
00010000
00001000
00010000
01000000
10000000
01000000
10000000
,  // measure 47
00100000
01000000
00100000
00100000
01000000
01000000
00001000
00001000
,  // measure 48
00010000
00010000
00000100
00000100
00000010
00000011
00000001
00000100
,  // measure 49
00000110
00001000
00000001
00000010
00001000
00000010
00000001
00001000
,  // measure 50
00000001
00000010
00001000
00010000
00100000
10000000
00010000
00100000
,  // measure 51
00010000
10000000
00100000
00010000
00001000
00000100
00001000
00010000
,  // measure 52
00000100
00001000
00000100
00000000
00000010
00000100
00000010
00000000
00000001
00000010
00000001
00000000
00000100
00000001
00000100
00000000
,  // measure 53
00000010
00000000
00000000
00000000
00000000
00000000
00000000
00000000
00000100
00000000
00000000
00000001
00000000
00000000
00000000
00000000
00000000
00000000
00000000
00000000
00000100
00000000
00000000
00001000
00000000
00000000
00000000
00000000
00000000
00000000
00000000
00000000
00000100
00000000
00000000
00000001
00000000
00000000
00000000
00000000
00000000
00000000
00000000
00000000
00000100
00000000
00000000
00001000
00000000
00000000
00000000
00000000
00000000
00000000
00000000
00000000
00000100
00000000
00000000
00000001
00000000
00000000
00000000
00000000
,  // measure 54
00000000
00000000
00000000
00000000
00000000
00000000
00000000
00000000
00000100
00000000
00000000
00001000
00000000
00000000
00000000
00000000
00000000
00000000
00000000
00000000
00010000
00000000
00000000
00001000
00000000
00000000
00000000
00000000
00000000
00000000
00000000
00000000
00000100
00000000
00000000
00001000
00000000
00000000
00000000
00000000
00000000
00000000
00000000
00000000
00010000
00000000
00000000
00001000
00000000
00000000
00000000
00000000
00000000
00000000
00000000
00000000
00000100
00000000
00000000
00001000
00000000
00000000
00000000
00000000
,  // measure 55
00000000
00000000
00000000
00000000
00000000
00000000
00000000
00000000
00100000
00000000
00000000
00010000
00000000
00000000
00000000
00000000
00000000
00000000
00000000
00000000
00100000
00000000
00000000
10000000
00000000
00000000
00000000
00000000
00000000
00000000
00000000
00000000
00100000
00000000
00000000
00010000
00000000
00000000
00000000
00000000
00000000
00000000
00000000
00000000
00100000
00000000
00000000
10000000
00000000
00000000
00000000
00000000
00000000
00000000
00000000
00000000
00100000
00000000
00000000
00010000
00000000
00000000
00000000
00000000
,  // measure 56
00000000
00000000
00000000
00000000
00000000
00000000
00000000
00000000
10000000
00000000
00000000
01000000
00000000
00000000
00000000
00000000
00000000
00000000
00000000
00000000
00010000
00000000
00000000
01000000
00000000
00000000
00000000
00000000
00000000
00000000
00000000
00000000
10000000
00000000
00000000
01000000
00000000
00000000
00000000
00000000
00000000
00000000
00000000
00000000
00010000
00000000
00000000
01000000
00000000
00000000
00000000
00000000
00000000
00000000
00000000
00000000
10000000
00000000
00000000
01000000
00000000
00000000
00000000
00000000
,  // measure 57
00000000
00000000
00000000
00000000
00000000
00000000
00000000
00000000
10000000
00000000
00000000
00100000
00000000
00000000
00000000
00000000
00000000
00000000
00000000
00000000
00100000
00000000
00000000
00010000
00000000
00000000
00000000
00000000
00000000
00000000
00000000
00000000
00010000
00000000
00000000
00001000
00000000
00000000
00000000
00000000
00000000
00000000
00000000
00000000
00001000
00000000
00000000
00000100
00000000
00000000
00000000
00000000
00000000
00000000
00000000
00000000
00000100
00000000
00000000
00000001
00000000
00000000
00000000
00000000
,  // measure 58
00000000
00000000
00000000
00000000
00000000
00000000
00000000
00000000
00000001
00000000
00000000
00000010
00000000
00000000
00000000
00000000
00000000
00000000
00000000
00000000
00000010
00000000
00000000
00001000
00000000
00000000
00000000
00000000
00000000
00000000
00000000
00000000
00001000
00000000
00000000
00010000
00000000
00000000
00000000
00000000
00000000
00000000
00000000
00000000
00010000
00000000
00000000
01000000
00000000
00000000
00000000
00000000
00000000
00000000
00000000
00000000
01000000
00000000
00000000
10000000
00000000
00000000
00000000
00000000
,  // measure 59
00000000
00000000
00000000
00000000
00000000
00000000
00000000
00000000
10000000
00000000
00000000
00100000
00000000
00000000
00000000
00000000
00000000
00000000
00000000
00000000
00100000
00000000
00000000
00010000
00000000
00000000
00000000
00000000
00000000
00000000
00000000
00000000
00010000
00000000
00000000
00001000
00000000
00000000
00000000
00000000
00000000
00000000
00000000
00000000
00001000
00000000
00000000
00000100
00000000
00000000
00000000
00000000
00000000
00000000
00000000
00000000
00000100
00000000
00000000
00000001
00000000
00000000
00000000
00000000
,  // measure 60
00000000
00000000
00000000
00000000
00000000
00000000
00000000
00000000
00000001
00000000
00000000
00000010
00000000
00000000
00000000
00000000
00000000
00000000
00000000
00000000
00000010
00000000
00000000
00001000
00000000
00000000
00000000
00000000
00000000
00000000
00000000
00000000
00001000
00000000
00000000
00010000
00000000
00000000
00000000
00000000
00000000
00000000
00000000
00000000
00010000
00000000
00000000
01000000
00000000
00000000
00000000
00000000
00000000
00000000
00000000
00000000
00100000
00000000
00000000
00000000
00000000
00000000
00000000
00000000
,  // measure 61
20010000
00020000
00000000
00000000
00000000
00000000
00000000
00000000
00000000
00000000
00000000
00000000
00000000
00000000
00000000
00000000
00000000
00000000
00000000
00000000
00000000
00000000
00000000
00000000
00000000
00000000
00000000
00000000
00000000
00000000
00000000
00000000
00000000
00000000
00000000
00000000
00000000
00000000
00000000
00000000
00000000
00000000
00000000
00000000
00000000
00000000
00000000
00000000
00000000
00000000
00000000
00000000
00000000
00000000
00000000
00000000
00000000
00000000
00000000
00000000
00000000
00000000
00000000
00000000
00000000
00000000
00000000
00000000
00000000
00000000
00000000
00000000
00000000
00000000
00000000
00000000
00000000
00000000
00000000
00000000
00000000
00000000
00000000
00000000
00000000
00000000
00000000
00000000
00000000
00000000
00000000
00000000
00000000
00000000
00000000
00000000
00000000
00000000
00000000
00000000
00000000
00000000
00000000
00000000
00000000
00000000
00000000
00000000
00000000
00000000
00000000
00000000
00000000
00000000
00000000
00000000
00000000
00000000
00000000
00000000
00000000
00000000
00000000
00000000
00000000
00000000
00000000
00000000
00000000
00000000
00000000
00000000
00000000
00000000
00000000
00000000
00000000
00000000
00000000
00000000
00000000
00000000
00000000
00000000
30030000
00000000
00000000
00000000
00000000
00000000
00000000
00000000
00000000
00000000
00000000
00000000
00000000
00000000
00000000
00000000
00000000
00000000
00000000
00000000
00000000
00000000
00000000
00000000
00000000
00000000
00000000
00000000
00000000
00000000
00000000
00000000
00000000
00000000
00000000
00000000
00000000
00000000
00000000
00000000
00000000
00000000
00000000
00000000
00000000
00000000
00000000
00000000
,  // measure 62
10000000
00000000
00100000
00000000
00010000
00000000
00100000
00000000
10000000
00010000
00000000
00000000
00000000
00000000
00100000
00000000
,  // measure 63
00000000
01000000
00000000
00010000
00001000
00000110
00000000
00000000
;
