#TITLE:Can't Stop the Rain;
#SUBTITLE:;
#ARTIST:Cascada;
#TITLETRANSLIT:;
#SUBTITLETRANSLIT:;
#ARTISTTRANSLIT:;
#CREDIT:;
#BANNER:Can't Stop the Rain.png;
#BACKGROUND:Can't Stop the Rain-bg.png;
#LYRICSPATH:;
#CDTITLE:./CDTITLES/Dance Dance Revolution SuperNOVA 2.png;
#MUSIC:Can't Stop the Rain.mp3;
#OFFSET:0.340;
#SAMPLESTART:56.126;
#SAMPLELENGTH:15.000;
#SELECTABLE:YES;
#BPMS:0.000=142.000;
#STOPS:;
#BGCHANGES:;

//---------------dance-single - ----------------
#NOTES:
     dance-single:
     :
     Beginner:
     1:
     0.111,0.145,0.010,0.040,0.000:
0000
0000
0000
0000
,
0000
0000
0000
0000
,
0000
0000
0000
0000
,
0010
0000
0000
0000
,
0010
0000
0000
0000
,
1000
0000
0000
0000
,
0001
0000
0000
0000
,
0010
0000
0000
0000
,
0010
0000
0000
0000
,
1000
1000
0000
0000
,
0001
0000
0000
0000
,
0100
0000
0000
0000
,
0010
0000
0000
0000
,
0100
0000
0000
0000
,
0100
0000
0000
0000
,
0001
0000
1000
0000
,
0001
0000
0000
0000
,
0100
0000
0100
0000
,
0100
0100
0000
0000
,
0010
0000
0010
0000
,
0010
0010
0000
0000
,
0001
0000
0001
0000
,
0001
0001
0000
0000
,
1000
0000
1000
0000
,
1000
1000
0000
0000
,
0100
0000
0000
0000
,
0020
0000
0000
0030
,
0000
0000
0000
0000
,
0200
0000
0000
0300
,
0000
0000
0000
0000
,
0002
0000
0000
0003
,
0000
0000
0000
0000
,
2000
0000
0000
3000
,
0000
0000
0000
0000
,
1001
0000
0000
0000
,
0000
0000
0000
0000
,
0100
0000
0100
0000
,
0100
0000
0000
0000
,
0010
0000
0000
0000
,
0100
0000
0000
0000
,
0001
0000
0000
0000
,
0001
0000
0000
0000
,
1000
1000
0000
0000
,
0100
0000
0000
0000
,
0010
0000
0000
0000
,
0100
0000
0000
0000
,
0001
0000
0001
0000
,
1000
0000
1000
0000
,
0010
0000
0000
0000
,
0010
0000
0000
0000
,
0100
0000
0100
0000
,
0100
0100
0000
0000
,
1000
0000
1000
0000
,
1000
1000
0000
0000
,
0001
0000
0001
0000
,
0001
0001
0000
0000
,
0010
0000
0100
0000
,
0010
0000
0100
0000
,
0010
0000
0000
0000
;

//---------------dance-single - ----------------
#NOTES:
     dance-single:
     :
     Easy:
     3:
     0.202,0.232,0.030,0.010,0.000:
0000
0000
0000
0000
,
0000
0000
0000
0000
,
0000
0000
0000
0000
,
1000
0000
0001
0000
,
1000
0001
1000
0001
,
0100
0000
0010
0000
,
1000
0000
0100
0010
,
0001
0000
1000
0000
,
0001
0000
0100
0010
,
1000
1000
1000
0000
,
0001
0001
0001
0010
,
0100
0100
0100
0000
,
0010
0010
0010
0000
,
0001
0100
1000
0000
,
0001
0010
1000
0000
,
0001
0000
1000
0000
,
0100
0000
0000
0000
,
0010
0000
0001
0000
,
0010
0001
0010
0001
,
1000
0000
0010
0000
,
1000
0010
1000
0100
,
0010
0000
0001
0000
,
0100
0001
0100
0001
,
1000
0000
0001
0000
,
0200
0000
0000
0000
,
0310
0000
0000
0000
,
0001
0000
0100
0000
,
0010
0000
1000
0000
,
0001
0000
1000
0100
,
0010
0000
0001
1000
,
0100
0000
0010
0000
,
0100
0000
0001
0000
,
1000
0000
0001
0000
,
1001
0000
0000
0000
,
1000
0100
1000
0000
,
0001
0100
0001
0000
,
1000
0010
0001
0010
,
1000
0000
0001
1000
,
0100
1000
0010
0000
,
0100
0001
0010
0000
,
1000
0000
0001
0000
,
1000
0000
0000
0100
,
0001
0001
0001
0000
,
1000
1000
1000
0100
,
0010
0010
0010
0000
,
0100
0100
0100
0000
,
1000
0010
0001
0000
,
1000
0100
0001
0000
,
0010
0000
1000
0000
,
0100
0000
0000
0000
,
1001
0000
0000
0000
,
0110
0000
0000
0000
,
1000
0100
0010
0000
,
1000
0100
0010
0000
,
1000
0000
0000
0000
,
0001
0000
0000
0000
,
0010
0000
1000
0000
,
0001
0000
0010
0000
,
0100
0000
0000
0000
;

//---------------dance-single - ----------------
#NOTES:
     dance-single:
     :
     Medium:
     5:
     0.359,0.406,0.250,0.050,0.000:
0000
0000
0000
0000
,
0000
0000
0000
0000
,
0000
0000
0000
0000
,
0001
0100
1000
0001
,
1000
0000
0100
0000
0001
1000
0100
0000
,
0010
0000
0100
0010
0000
1000
0000
0010
,
0000
0100
0000
0001
0010
0000
0100
0000
,
0001
1000
0001
0010
,
2000
3100
0000
0010
,
0010
0100
0001
0010
,
0010
0000
0010
0000
0001
0000
1000
0010
,
0100
1000
0100
0001
,
2000
0010
0010
3100
,
1000
0000
0001
0010
0000
0001
0000
0000
,
1000
0000
0010
0000
0001
0000
1000
0001
,
0010
1000
0100
0001
,
0010
0000
0000
0000
,
0001
1000
1000
0001
,
0011
1010
0011
0110
,
1000
0001
0001
1000
,
1100
0000
0101
0000
0010
0001
1000
0000
,
0100
0010
0010
0100
,
1010
1100
1010
1001
,
0010
0100
0100
0010
,
0011
0101
0001
0010
,
1000
0000
0000
0000
,
0001
0000
0100
0000
0010
1000
0001
0000
,
0100
0001
1000
0100
,
0010
0000
0001
0010
,
1000
0000
0001
0000
0100
0000
0010
1000
,
0001
0000
0000
0010
,
1000
0001
0100
0100
,
0020
0000
0130
0000
,
0001
1000
0001
1000
,
1001
0010
0100
1000
,
0001
0100
0010
0001
,
1000
0010
0001
1000
,
0001
0000
0010
0000
1000
0001
0010
0000
,
0100
0000
0010
0100
0000
0001
0000
0100
,
0000
0010
0000
1000
0100
0000
0010
0000
,
1000
0001
1000
0100
,
0002
0013
0000
0100
,
0100
0010
1000
0100
,
0100
0000
0100
0000
1000
0000
0001
0100
,
0010
0000
0001
1000
0010
0000
1000
0000
,
0002
0100
0100
0013
,
0001
0000
1000
0100
0000
1000
0000
0000
,
0001
0000
0100
0000
1000
0000
0001
1000
,
0100
0000
0001
1000
0010
0100
0001
0000
,
1000
0000
0000
0000
,
1000
0001
0001
1000
,
1100
0101
1100
0110
,
0001
1000
1000
0001
,
0011
1010
0100
0001
,
0010
0100
0100
0010
,
0101
0011
0101
1001
,
0100
0010
0010
0100
,
1100
0000
1010
0000
1000
0001
0100
0010
,
1000
0000
0000
0000
;

//---------------dance-single - ----------------
#NOTES:
     dance-single:
     :
     Hard:
     7:
     0.476,0.493,0.290,0.050,0.280:
0000
0000
0000
0000
,
0000
0000
0000
0000
,
0000
0000
0000
0000
,
1000
0010
0001
0100
,
1000
0001
1000
0100
,
1000
0101
0010
1100
,
1000
0000
0110
0000
0001
1000
0101
0000
,
0100
0011
0100
1100
,
0010
0000
0001
0000
0100
0000
0010
1000
,
0100
1000
0010
0100
,
0001
0100
1000
0100
,
0001
0100
0010
0000
0010
1000
0001
0000
,
0001
1000
0100
0010
0001
1000
0010
0000
,
0100
0101
1000
1100
,
0010
0000
1100
0000
0001
0100
0110
0000
,
1000
1010
0011
0101
,
1200
0000
0000
0300
,
0100
0000
0000
1000
0010
0000
0000
0010
0100
0000
0000
0100
0001
0000
0000
0001
,
1000
0000
0000
1000
0100
0000
0000
0100
0010
0000
0000
0010
0001
0000
0000
0001
,
0100
0000
0000
0100
1000
0000
0000
1000
0100
0000
0000
0100
0001
0000
0000
0001
,
0010
0000
0000
0010
0100
0000
0000
1000
0001
0000
0100
0000
0010
0000
1000
0000
,
0001
0000
0000
1000
0010
0000
0000
0010
0100
0000
0000
0100
0001
0000
0000
0001
,
0010
0000
0000
0010
0001
0000
0000
0001
1000
0000
0000
1000
0010
0000
0000
0010
,
0100
0000
0000
0100
1000
0000
0000
1000
0100
0000
0000
0100
0001
0000
0000
0001
,
1000
0000
0000
1000
0010
0000
0000
0010
0100
0000
0001
0000
1000
0000
0100
0000
,
0020
0000
0000
0030
,
0001
0100
0010
0001
,
1000
0010
0100
0000
0001
0000
0010
0000
,
0100
1000
0001
0000
1000
0000
0100
0000
,
0001
1000
0010
0100
0001
0000
1000
0000
,
0200
0310
0001
0200
,
0310
1000
0001
0010
,
0100
1000
0010
0000
1000
0001
0100
0000
,
0120
0000
1000
0130
,
0001
1000
0100
0001
,
0010
0000
0100
0000
1000
0010
0001
0000
,
1000
0001
0100
0001
,
1000
0000
0010
0000
0100
0001
1000
0000
,
0001
1100
1000
0110
,
0001
0000
0011
0000
1000
0010
0110
0000
,
0001
1010
0100
1001
,
0001
0000
0010
0000
0100
0000
0010
0001
,
0100
0001
1000
0100
,
0001
0010
1000
0001
,
0100
0001
0010
0000
0010
0100
1000
0000
,
1000
0010
0100
0001
1000
0010
0001
0000
,
1000
1010
0100
0011
,
1000
0000
1100
0000
0010
0001
0101
0000
,
0010
1100
0101
1001
,
0110
0000
0000
0000
,
0001
0000
0000
1000
0100
0000
0000
1000
0010
0000
0000
0100
0001
0000
0000
0010
,
0001
0000
0000
0010
0100
0000
0000
1000
0010
0000
0000
0100
1000
0000
0000
0100
,
0010
0000
0000
1000
0001
0000
0000
0010
0001
0000
0000
1000
0010
0000
0000
0100
,
0010
0000
0000
1000
0001
0000
0000
0100
0001
0000
1000
0000
0100
0000
0010
0000
,
0001
0000
0000
0001
0010
0000
0000
0001
0100
0000
0000
0010
1000
0000
0000
0100
,
1000
0000
0000
0100
0010
0000
0000
0001
0100
0000
0000
0010
0001
0000
0000
0010
,
0100
0000
0000
0001
1000
0000
0000
0100
1000
0000
0000
0001
0100
0000
0000
0010
,
0100
0000
0000
0001
1000
0000
0000
0010
1000
0000
0001
0000
0010
0000
0100
0000
,
1000
0000
0000
0000
;

//---------------dance-double - ----------------
#NOTES:
     dance-double:
     :
     Easy:
     3:
     0.204,0.232,0.000,0.030,0.000:
00000000
00000000
00000000
00000000
,
00000000
00000000
00000000
00000000
,
00000000
00000000
00000000
00000000
,
00010000
00001000
00010000
00000000
,
00000010
00000000
00001000
00000100
,
00000010
00000001
00000000
00001000
,
00000000
00000001
00000000
00000100
,
00000000
00001000
00000000
00010000
,
00000000
01000000
00000000
00100000
,
00010000
00100000
00010000
00000000
,
10000000
00100000
10000000
00000000
,
01000000
00000000
00010000
00000000
,
00100000
00001000
00010000
00001000
,
00000000
00010000
00000000
00000100
,
00000000
00001000
00000010
00000100
,
00000020
00000000
00000030
00000000
,
00000010
00000000
00000000
00000000
,
00000100
00000000
00000010
00000000
,
00010000
00001000
00010000
00000000
,
00001000
00000000
01000000
00000000
,
00100000
00000000
00010000
01000000
,
10000000
00000000
00100000
00000000
,
10000000
01000000
00100000
00000000
,
00001000
00010000
00001000
00010000
,
00002000
00000000
00003000
00000000
,
00010000
00000000
00000000
00000000
,
00000010
00000000
00000100
00000000
,
00000001
00000000
00000100
00000000
,
00000010
00000000
00010000
00000000
,
00001000
00001000
00001000
00000000
,
00010000
00000000
00001000
00000000
,
00100000
00000000
00010000
00000000
,
01000000
00000000
00100000
00000000
,
20000000
00000000
30100000
00100000
,
01000000
00010000
00000000
01000000
,
00000000
00010000
00000000
00100000
,
00001000
00010000
00000000
00001000
,
00000000
00000100
00010000
00000100
,
00001000
00000010
00000000
00000001
,
00000000
00000100
00000000
00001000
,
00000000
00010000
00000000
01000000
,
00000000
00100000
00000000
00010000
,
01000000
00100000
01000000
00000000
,
00010000
01000000
00100000
00000000
,
10000000
00000000
00010000
00000000
,
00100000
00100000
00001000
00001000
,
00000000
00010000
00000000
00001000
,
00000000
00010000
00001000
00010000
,
00001000
00000000
00001000
00000000
,
00010000
00000000
00000000
00000000
,
00000010
00001000
00000100
00000000
,
00000010
00000100
00000001
00000000
,
00000001
00001000
00000100
00010000
,
00001000
00000000
00010000
00001000
,
00010000
00001000
01000000
00000000
,
00010000
00100000
00010000
00000000
,
00010000
00100000
01000000
10000000
,
00010000
01000000
00100000
00000000
,
01000000
00000000
00000000
00000000
;

//---------------dance-double - ----------------
#NOTES:
     dance-double:
     :
     Medium:
     5:
     0.359,0.406,0.250,0.050,0.000:
00000000
00000000
00000000
00000000
,
00000000
00000000
00000000
00000000
,
00000000
00000000
00000000
00000000
,
00000010
00000100
00000001
00000010
,
00001000
00000000
00000100
00000000
00010000
00001000
00100000
00000000
,
00010000
00000000
00100000
01000000
00000000
10000000
00000000
00010000
,
00000000
01000000
00000000
00100000
01000000
00000000
00010000
00000000
,
00100000
00001000
00000100
00000010
,
00002000
00003001
00000000
00000100
,
00000100
00000001
00000010
00000100
,
00000100
00000000
00010000
00000000
00001000
00000000
01000000
00100000
,
10000000
00010000
01000000
00100000
,
00020000
10000000
10000000
00130000
,
00010000
00000000
01000000
00001000
00000000
00010000
00000000
00000000
,
00001000
00000000
00000100
00000000
00000001
00000000
00000010
00000100
,
00001000
00000010
00000001
00001000
,
00000100
00000000
00000000
00000000
,
00001000
00010000
00010000
00001000
,
00011000
00110000
01010000
00011000
,
00010000
00001000
00001000
00010000
,
00011000
00000000
00001100
00000000
00001000
00000010
00000100
00000000
,
00010000
00001000
00001000
00010000
,
00011000
00110000
01100000
11000000
,
10000000
00100000
00100000
10000000
,
10010000
01100000
00010000
00100000
,
10000000
00000000
00000000
00000000
,
00100000
00000000
10000000
00000000
00010000
00100000
01000000
00000000
,
10000000
00100000
00010000
00100000
,
00001000
00000000
00010000
00001000
,
00000100
00000000
00001000
00000000
00000001
00000000
00000010
00000001
,
00000100
00000000
00000000
00000010
,
00001000
00000001
00000100
00000100
,
00000020
00000000
00010030
00000000
,
00001000
00010000
00001000
00010000
,
00011000
01000000
00010000
00100000
,
10000000
00010000
01000000
10000000
,
00010000
00100000
10000000
00010000
,
00100000
00000000
00001000
00000000
00010000
00001000
00010000
00000000
,
00000100
00000000
00000010
00000100
00000000
00001000
00000000
00000010
,
00000000
00001000
00000000
00000001
00000010
00000000
00000100
00000000
,
00000010
00000001
00000100
00010000
,
02000000
03100000
00000000
00010000
,
00010000
10000000
01000000
00100000
,
00100000
00000000
00010000
00000000
01000000
00000000
00100000
01000000
,
00010000
00000000
00100000
00010000
10000000
00000000
01000000
00000000
,
00200000
00001000
00001000
00310000
,
00001000
00000000
00010000
00001000
00000000
00010000
00000000
00000000
,
00000100
00000000
00000010
00000000
00000001
00000000
00000100
00000001
,
00001000
00000000
00000100
00010000
00001000
00100000
01000000
00000000
,
00010000
00000000
00000000
00000000
,
01000000
00100000
00100000
01000000
,
01100000
01010000
00011000
00110000
,
00001000
00010000
00010000
00001000
,
00011000
00001010
00000100
00000001
,
00000010
00000001
00000001
00000010
,
00000011
00000101
00001001
00000110
,
00000010
00001000
00001000
00000010
,
00001010
00000000
00011000
00000000
00010000
00001000
00000100
00000001
,
00000010
00000000
00000000
00000000
;

//---------------dance-double - ----------------
#NOTES:
     dance-double:
     :
     Hard:
     8:
     0.496,0.522,0.470,0.180,0.210: // measure 1
00000000
00000000
00000000
00000000
,  // measure 2
00000000
00000000
00000000
00000000
,  // measure 3
00000000
00000000
00000000
00000000
,  // measure 4
00000001
00000010
00001000
00000010
,  // measure 5
00000100
00000001
00000100
00001000
,  // measure 6
00010000
01000000
00100000
01100000
,  // measure 7
00010000
00000000
11000000
00000000
00100000
00010000
01000000
00000000
,  // measure 8
00100000
10000000
00010000
00110000
,  // measure 9
00021000
00000000
00001000
00000000
00001000
00000000
00031000
00010000
,  // measure 10
00000100
00001100
00000110
00000011
,  // measure 11
00000101
00000110
00001010
00001100
,  // measure 12
00000010
00000001
00000100
00001000
00010000
00000000
00011000
00000000
,  // measure 13
00012000
00103000
00120000
10030000
,  // measure 14
01000000
10000000
00010000
00000000
10000000
00100000
01000000
00000000
,  // measure 15
01010000
00000000
11000000
00000000
00100000
00001000
00010000
00000000
,  // measure 16
00020000
00032000
00003200
00000320
,  // measure 17
00000130
00000000
00000000
00000000
,  // measure 18
00000010
00000000
00000000
00000100
00000001
00000000
00000000
00000001
00000100
00000000
00000000
00000100
00000010
00000000
00000000
00001000
,  // measure 19
00000010
00000110
00011000
01100000
,  // measure 20
00110000
00000000
00000000
10000000
01000000
00000000
00000000
01000000
00100000
00000000
00000000
00100000
00010000
00000000
00000000
00010000
,  // measure 21
10000000
00000000
00000000
10000000
00010000
00000000
00000000
00010000
01000000
00000000
00100000
00000000
10000000
00000000
01000000
00000000
,  // measure 22
00100000
00000000
00000000
00010000
00100000
00000000
00000000
00100000
00001000
00000000
00000000
00001000
00010000
00000000
00000000
00010000
,  // measure 23
00000100
00000000
00000000
00000000
00011000
00000000
00000000
00000000
00000110
00000000
00000000
00000000
00000011
00000000
00000000
00001000
,  // measure 24
00000010
00000000
00000000
00000010
00000100
00000000
00000000
00000100
00000001
00000000
00000000
00000001
00000010
00000000
00000000
00000010
,  // measure 25
00000100
00000000
00000000
00000100
00001000
00000000
00000000
00001000
00000010
00000000
00000100
00000000
00000001
00000000
00001000
00000000
,  // measure 26
00000200
00000000
00000000
00000300
,  // measure 27
00010000
00001000
01000000
00100000
,  // measure 28
10000000
01000000
00100000
00000000
10000000
00000000
00100000
00000000
,  // measure 29
00010000
00100000
00001000
00000000
00010000
00000000
00000100
00000000
,  // measure 30
00010000
00001000
00000100
00000010
00001000
00000000
00000001
00000000
,  // measure 31
00000020
00000130
00001000
00000020
,  // measure 32
00000130
00000001
00001000
00000010
,  // measure 33
00010000
00001000
00000100
00000000
00001000
00010000
01000000
00000000
,  // measure 34
00012000
00000000
00010000
00103000
,  // measure 35
00001000
01000000
00100000
10000000
,  // measure 36
00010000
00000000
01000000
00000000
00100000
10000000
01000000
00000000
,  // measure 37
00100000
00001000
00010000
00001000
,  // measure 38
00000100
00000010
00001000
00000100
,  // measure 39
00000010
00001000
00000010
00001010
,  // measure 40
00000001
00000000
00000110
00000000
00010000
00001000
00000100
00000000
,  // measure 41
00010000
00001000
01000000
01010000
,  // measure 42
02100000
00000000
00100000
00000000
00100000
00000000
03100000
01000000
,  // measure 43
00010000
01010000
00110000
10100000
,  // measure 44
11000000
10010000
00011000
00001001
,  // measure 45
00000100
00000001
00000010
00000100
00001000
00000000
00001100
00000000
,  // measure 46
00000210
00000301
00001002
00000103
,  // measure 47
00001000
00000100
00010000
00000000
00001000
00010000
01000000
00000000
,  // measure 48
01100000
00000000
10010000
00000000
01000000
00100000
10000000
00000000
,  // measure 49
00020000
02030000
23000000
32000000
,  // measure 50
03100000
00000000
00000000
00000000
,  // measure 51
10000000
00000000
00000000
00100000
01000000
00000000
00000000
01000000
00010000
00000000
00000000
00010000
00100000
00000000
00000000
00100000
,  // measure 52
00001000
00011000
00001100
00000110
,  // measure 53
00000011
00000000
00000000
00000001
00000100
00000000
00000000
00000100
00000010
00000000
00000000
00000010
00001000
00000000
00000000
00001000
,  // measure 54
00000100
00000000
00000000
00000100
00010000
00000000
00000000
00010000
00001000
00000000
01000000
00000000
00100000
00000000
10000000
00000000
,  // measure 55
00010000
00000000
00000000
00100000
01000000
00000000
00000000
01000000
10000000
00000000
00000000
10000000
00100000
00000000
00000000
00100000
,  // measure 56
01000000
00000000
00000000
00000000
10100000
00000000
00000000
00000000
00110000
00000000
00000000
00000000
00001010
00000000
00000000
00000010
,  // measure 57
00000100
00000000
00000000
00000100
00001000
00000000
00000000
00001000
00000100
00000000
00000000
00000100
00000001
00000000
00000000
00000001
,  // measure 58
00000010
00000000
00000000
00000010
00000100
00000000
00000000
00000100
00001000
00000000
00000010
00000000
00010000
00000000
00001000
00000000
,  // measure 59
00000100
00000000
00000000
00000000
;

//---------------dance-double - ----------------
#NOTES:
     dance-double:
     :
     Challenge:
     8:
     0.542,0.522,0.370,0.230,0.300: // measure 1
00000000
00000000
00000000
00000000
,  // measure 2
00000000
00000000
00000000
00000000
,  // measure 3
00000000
00000000
00000000
00000000
,  // measure 4
00000000
00000000
00000000
00000000
,  // measure 5
00000000
00000000
00000000
00000000
,  // measure 6
00000011
00001010
00000101
00001100
,  // measure 7
01010000
00110000
01100000
11000000
,  // measure 8
00110000
01100000
10010000
00110000
,  // measure 9
00021000
00001000
00001000
00030000
,  // measure 10
00000100
00001000
00000100
00000010
00000100
00000010
00000001
00000100
,  // measure 11
00000001
00000100
00000010
00001000
00000010
00001000
00000100
00000000
,  // measure 12
00000010
00000001
00000100
00001000
00010000
00001000
00010000
00001000
,  // measure 13
00010000
00100000
00010000
00100000
10000000
00010000
10000000
00000000
,  // measure 14
01000000
10000000
00010000
10000000
00100000
01000000
00010000
00000000
,  // measure 15
10000000
01000000
10000000
01000000
00100000
00001000
00010000
00000000
,  // measure 16
00001000
00000000
00001000
00000000
00010000
00000000
00010000
00000000
00000100
00000000
00000100
00000000
00000010
00000001
00000010
00000001
,  // measure 17
00000010
00000000
00000000
00000000
,  // measure 18
00000010
00000000
00000000
00000100
00000001
00000000
00000000
00000001
00000100
00000000
00000000
00000100
00000010
00000000
00000000
00001000
,  // measure 19
00000010
00000000
00000000
00000010
00000100
00000000
00000000
00001000
00010000
00000000
00000000
01000000
00100000
00000000
00000000
00100000
,  // measure 20
00010000
00000000
00000000
10000000
01000000
00000000
00000000
01000000
00100000
00000000
00000000
00100000
00010000
00000000
00000000
00010000
,  // measure 21
10000000
00000000
00000000
10000000
00010000
00000000
00000000
00010000
01000000
00000000
00100000
00000000
10000000
00000000
01000000
00000000
,  // measure 22
00100000
00000000
00000000
00010000
00100000
00000000
00000000
00100000
00001000
00000000
00000000
00001000
00010000
00000000
00000000
00010000
,  // measure 23
00000100
00000000
00000000
00010000
00001000
00000000
00000000
00000100
00000010
00000000
00000000
00000001
00000010
00000000
00000000
00001000
,  // measure 24
00000010
00000000
00000000
00000010
00000100
00000000
00000000
00000100
00000001
00000000
00000000
00000001
00000010
00000000
00000000
00000010
,  // measure 25
00000100
00000000
00000000
00000100
00001000
00000000
00000000
00001000
00000010
00000000
00000100
00000000
00000001
00000000
00001000
00000000
,  // measure 26
00000200
00000000
000M0000
00000300
,  // measure 27
00020000
00000000
00000000
00000000
00000000
00000000
00000000
00000000
00000000
00000000
00000000
00000000
00000000
00000000
00000000
00000000
00002000
00030000
00000000
00000000
00000000
00000000
00000000
00000000
00000000
00000000
00000000
00000000
00000000
00000000
00000000
00000000
02000000
00003000
00000000
00000000
00000000
00000000
00000000
00000000
00000000
00000000
00000000
00000000
00000000
00000000
00000000
00000000
00200000
03000000
00000000
00000000
00000000
00000000
00000000
00000000
00000000
00000000
00000000
00000000
00000000
00000000
00000000
00000000
,  // measure 28
00000000
00000000
00000000
00000000
00000000
00000000
00000000
00000000
20000000
00300000
00000000
00000000
00000000
00000000
00000000
00000000
00200000
30000000
00000000
00000000
00000000
00000000
00000000
00000000
00020000
00300000
00000000
00000000
00000000
00000000
00000000
00000000
,  // measure 29
00002000
00000000
00000000
00030000
00000000
00000000
00000000
00000000
00000000
00000000
00000000
00000000
00000000
00000000
00000000
00000000
00020000
00000000
00000000
00003000
00000000
00000000
00000000
00000000
00000000
00000000
00000000
00000000
00000000
00000000
00000000
00000000
00000200
00000000
00000000
00030000
00000000
00000000
00000000
00000000
00000000
00000000
00000000
00000000
00000000
00000000
00000000
00000000
00020000
00000000
00000000
00000000
00000300
00000000
00000000
00000000
00000000
00000000
00000000
00000000
00000000
00000000
00000000
00000000
,  // measure 30
00000000
00000000
00000000
00000000
00000000
00000000
00000000
00000000
00000000
00000000
00000000
00000000
00000000
00000000
00000000
00000000
00002000
00000000
00000000
00000000
00030000
00000000
00000000
00000000
00000000
00000000
00000000
00000000
00000000
00000000
00000000
00000000
00000002
00000000
00000000
00000000
00003000
00000000
00000000
00000000
00000000
00000000
00000000
00000000
00000000
00000000
00000000
00000000
00000020
00000000
00000000
00000000
00000000
00000003
00000000
00000000
00000000
00000000
00000000
00000000
00000000
00000000
00000000
00000000
,  // measure 31
00000200
00000000
00000000
00000000
00000000
00000030
00000000
00000000
00000000
00000000
00000000
00000000
00000000
00000000
00000000
00000000
00002000
00000000
00000000
00000000
00000000
00000300
00000000
00000000
00000000
00000000
00000000
00000000
00000000
00000000
00000000
00000000
00000020
00000000
00000000
00000000
00000000
00000000
00003000
00000000
00000000
00000000
00000000
00000000
00000000
00000000
00000000
00000000
00000200
00000000
00000000
00000000
00000000
00000000
00000030
00000000
00000000
00000000
00000000
00000000
00000000
00000000
00000000
00000000
,  // measure 32
00000000
00000000
00000000
00000000
00000000
00000000
00000000
00000000
00000002
00000000
00000000
00000300
00000000
00000000
00000000
00000000
00002000
00000000
00000000
00000003
00000000
00000000
00000000
00000000
00000020
00000000
00000000
00000000
00000000
00000000
00000000
00000000
,  // measure 33
00000000
00000000
00000000
00000000
,  // measure 34
00000000
00003030
00000000
00000000
,  // measure 35
00110000
01001000
10100000
01010000
,  // measure 36
10100000
01100000
00011000
00001100
,  // measure 37
00001010
00000110
00001010
00001001
,  // measure 38
00000110
00001100
00011000
01010000
,  // measure 39
00100000
10000000
11000000
00000000
00100000
00010000
01010000
00000000
,  // measure 40
00000010
00001000
00001100
00000000
00000010
00000001
00000101
00000000
,  // measure 41
00000010
00001000
00001100
00000000
00100000
00010000
01010000
00000000
,  // measure 42
00100000
10000000
11000000
00000000
00100000
00010000
01010000
00000000
,  // measure 43
00010000
01000000
00010000
00100000
00010000
00100000
10000000
01000000
,  // measure 44
10000000
00010000
10000000
00010000
00001000
00000001
00001000
00000001
,  // measure 45
00000100
00000001
00000010
00000100
00001000
00000100
00001000
00000100
,  // measure 46
00000010
00000001
00001000
00000001
00000100
00001000
00000100
00010000
,  // measure 47
00001000
00010000
01000000
00100000
01000000
00010000
10000000
01000000
,  // measure 48
00100000
10000000
00010000
01000000
10000000
01000000
00100000
10000000
,  // measure 49
00010000
00000000
00010000
00000000
01000000
00000000
01000000
00000000
00100000
00000000
00100000
00000000
10000000
01000000
10000000
01000000
,  // measure 50
10000000
00000000
00000000
00000000
,  // measure 51
10000000
00000000
00000000
00100000
01000000
00000000
00000000
01000000
00010000
00000000
00000000
00010000
00100000
00000000
00000000
00100000
,  // measure 52
00001000
00000000
00000000
00001000
00010000
00000000
00000000
00000100
00001000
00000000
00000000
00000100
00000010
00000000
00000000
00000010
,  // measure 53
00000001
00000000
00000000
00000001
00000100
00000000
00000000
00000100
00000010
00000000
00000000
00000010
00001000
00000000
00000000
00001000
,  // measure 54
00000100
00000000
00000000
00000100
00010000
00000000
00000000
00010000
00001000
00000000
01000000
00000000
00100000
00000000
10000000
00000000
,  // measure 55
00010000
00000000
00000000
00100000
01000000
00000000
00000000
01000000
10000000
00000000
00000000
10000000
00100000
00000000
00000000
00100000
,  // measure 56
01000000
00000000
00000000
00100000
10000000
00000000
00000000
00100000
00010000
00000000
00000000
00000010
00001000
00000000
00000000
00000010
,  // measure 57
00000100
00000000
00000000
00000100
00001000
00000000
00000000
00001000
00000100
00000000
00000000
00000100
00000001
00000000
00000000
00000001
,  // measure 58
00000010
00000000
00000000
00000010
00000100
00000000
00000000
00000100
00001000
00000000
00000010
00000000
00010000
00000000
00001000
00000000
,  // measure 59
00000M00
00000000
00000000
00000000
;
