#TITLE:CAN'T STOP FALLIN' IN LOVE;
#SUBTITLE:;
#ARTIST:NAOKI;
#TITLETRANSLIT:;
#SUBTITLETRANSLIT:;
#ARTISTTRANSLIT:;
#CREDIT:;
#BANNER:CAN'T STOP FALLIN' IN LOVE.png;
#BACKGROUND:CAN'T STOP FALLIN' IN LOVE-bg.png;
#LYRICSPATH:;
#CDTITLE:./CDTitles/Dance Dance Revolution Solo2000.png;
#MUSIC:CAN'T STOP FALLIN' IN LOVE.ogg;
#OFFSET:0.000;
#SAMPLESTART:38.708;
#SAMPLELENGTH:15.000;
#SELECTABLE:YES;
#DISPLAYBPM:155.000;
#BPMS:0.000=155.172,12.000=155.005;
#STOPS:;
#BGCHANGES:;

//---------------dance-single - ----------------
#NOTES:
     dance-single:
     :
     Beginner:
     3:
     :
0000
0000
0000
0000
,
0000
0000
0000
0000
,
0000
0000
0000
0000
,
0000
0000
0000
0000
,
0000
0000
0000
0000
,
1000
0000
0000
0000
,
0001
0000
0000
0000
,
0010
0000
0000
0000
,
0100
0100
0100
0100
,
0100
0000
0000
0000
,
0001
0000
0000
0000
,
1000
0000
0000
0000
,
0001
0000
0000
0000
,
1000
1000
0000
0000
,
0001
0001
0000
0000
,
0010
0000
0100
0000
,
0010
0010
0010
0000
,
1000
0000
0000
0000
,
0001
0000
0000
0000
,
0010
0000
0100
0000
,
0010
0010
0010
0000
,
1000
0000
0000
0000
,
0001
0000
0000
0000
,
0100
0000
0010
0000
,
0100
0100
0100
0000
,
1001
0000
1001
0000
,
0100
0000
0100
0000
,
0110
0000
0110
0000
,
0001
0000
0001
0000
,
1000
0000
0000
0000
,
0001
0000
0000
0000
,
0010
0000
0100
0000
,
0001
0000
1000
0000
,
0001
0000
0000
0000
,
0000
0000
0000
0000
,
1000
0000
0000
0000
,
0000
0000
0000
0000
,
0001
0000
1000
0000
,
0001
0000
1000
0000
,
0010
0000
0100
0000
,
0010
0000
0100
0100
,
0100
0000
0100
0000
,
0100
0000
0100
0000
,
0001
0000
0001
0000
,
0001
0000
0001
0000
,
1000
0000
0000
0000
,
1000
0000
0000
0000
,
0010
0000
0000
0000
,
0010
0000
0000
0000
,
0001
0000
0001
0000
,
1000
0000
1000
0000
,
0010
0000
0010
0000
,
0100
0000
0100
0000
,
0001
0000
0000
0000
,
1000
0000
0000
0000
,
0010
0000
0100
0000
,
0010
0010
0010
0000
,
1000
0000
0000
0000
,
0001
0000
0000
0000
,
0100
0000
0000
0000
,
0010
0010
0010
0010
;

//---------------dance-single - ----------------
#NOTES:
     dance-single:
     :
     Easy:
     5:
     :
0000
0000
0000
0000
,
0000
0000
0000
0000
,
0000
0000
0000
0000
,
0000
0000
0000
0000
,
0000
0000
0000
0000
,
0000
1000
0000
1000
,
0000
1000
0000
1000
,
0000
0100
0000
0100
,
0000
0001
0000
0001
,
0000
0010
0000
1000
,
0000
1000
0000
1000
,
0000
0010
0000
0001
,
0000
0001
0000
0001
,
0000
1000
0000
0100
,
0000
0001
0000
0100
,
0000
0001
0000
1000
,
0000
0010
0100
1001
,
0000
0010
0001
0001
,
0000
0010
1000
1000
,
0000
0001
0100
1000
,
1000
1000
1000
1000
,
0000
0010
0001
0001
,
0000
0010
1000
1000
,
0000
0001
0100
1000
,
0010
1000
0100
0001
,
0000
1000
0000
0100
,
0000
0001
0000
0100
,
0000
0010
0000
1001
,
0000
1001
0000
0100
,
0000
0001
0000
0100
,
0000
1000
0000
0100
,
0000
1000
0000
0001
,
0000
0100
0000
1001
,
0000
0010
1000
0100
,
0001
0000
1001
1001
,
0000
0010
0001
0100
,
1000
0000
1001
1001
,
0000
0100
0000
0100
,
0000
0010
0000
1001
,
0000
0010
0001
0010
,
0000
1000
0010
1000
,
0000
0001
0010
1000
,
0000
0100
0010
0001
,
0000
0100
0010
1000
,
0000
0100
0010
0100
,
0000
0001
0100
1000
,
0000
1000
0100
0001
,
0000
0001
0100
1000
,
0000
1000
0100
0001
,
1000
0010
0001
0010
,
0000
0100
0100
0100
,
0001
0010
1000
0010
,
0000
0100
0100
0100
,
1001
0010
1000
0010
,
0000
0100
0100
0100
,
0010
1001
1001
0100
,
0000
0100
0100
0100
,
1000
0000
1000
0000
1000
0000
1000
0100
,
1000
0000
1000
0000
1000
0000
1000
0010
,
1000
0000
1000
0000
1000
0000
1000
0100
,
1000
0001
0001
0001
;

//---------------dance-single - ----------------
#NOTES:
     dance-single:
     :
     Medium:
     7:
     :
0000
0000
0000
0000
,
0000
0000
0000
0000
,
0000
0000
0000
0000
,
0000
0000
0000
0000
,
0000
0000
0000
0000
,
0000
1000
0000
0100
,
0000
0001
0000
0100
,
0000
1000
0000
0100
,
0000
0001
0001
0001
,
0010
1000
0100
0001
,
0100
0000
1000
0000
0010
1000
0100
0000
,
0010
1000
0100
0001
,
0100
0000
1000
0000
0010
1000
0100
0000
,
0010
0100
1000
1000
,
0010
0000
0100
0000
0001
0010
1000
0000
,
0010
0100
1000
1000
,
0010
0000
0100
0000
0001
0010
1000
0000
,
0010
1000
0100
0001
,
0100
1000
0010
1001
,
0010
1000
0100
0000
0100
1000
0001
0000
,
1000
1000
1000
1000
,
0010
1000
0100
0001
,
0100
1000
0010
1001
,
0010
1000
0001
0000
1000
0001
1000
0000
,
0010
0001
0100
0100
,
1000
1000
0100
0001
,
0010
0000
1001
0000
0010
1000
0100
0000
,
0001
0100
0100
1000
,
0010
0000
1001
0000
0010
0001
0100
0000
,
0010
1000
1000
0001
,
0100
1000
0100
0001
,
0100
0000
1000
0000
0100
1000
0010
0000
,
1001
0000
1001
0000
0010
1000
0100
0000
,
0010
0001
0100
1000
,
1001
1000
0100
0100
,
0010
1000
0100
0001
,
1001
0001
0100
0100
,
1000
0100
0001
0100
,
0010
1000
0010
0001
,
1001
0100
0001
0010
,
1000
0010
0001
0010
,
1001
0010
0001
0100
,
1001
0010
1000
0100
,
0001
0100
0100
1000
,
0100
0100
0001
0001
,
1000
0010
0001
0100
,
0001
0010
1000
0100
,
0010
0010
1001
0010
,
1000
0010
1001
0010
,
0001
0100
0010
0100
,
1000
0000
0010
0000
1000
0001
0100
0000
,
1000
0100
0010
0100
,
0001
0000
0010
0000
0001
1000
0100
0000
,
0001
0000
1000
0000
0100
0000
0001
0100
,
0000
0010
0000
1000
0000
0010
0100
0000
,
0110
1001
0010
0100
,
0001
0100
1000
0100
,
1001
0000
0100
0000
0010
1000
0100
0000
,
1001
0000
0100
0000
0010
0001
0100
0000
,
0100
0000
0110
0000
1000
0001
0100
0000
,
1000
0010
0001
0001
;

//---------------dance-single - ----------------
#NOTES:
     dance-single:
     :
     Hard:
     11:
     :
0000
0000
0000
0000
,
0000
0000
0000
0000
,
0000
0000
0000
0000
,
0000
0000
0000
0000
,
0000
0000
0000
0000
,
1000
0100
0000
0000
0001
0100
0000
0000
1000
0000
0000
0001
0100
0000
0000
0000
,
0001
0100
0000
0000
1000
0100
0000
0000
0001
0000
0000
1000
0100
0000
0000
0000
,
1000
0100
0000
0000
0001
0100
0000
0000
1000
0000
0000
0001
0100
0000
0000
0000
,
0010
0100
0000
0001
0100
0000
1000
0100
0000
0010
0100
0000
1001
0000
0000
0000
,
0010
0101
0010
1100
,
0010
0001
0100
1000
,
0110
1000
0110
0001
,
0010
1000
0010
0000
1000
0001
0010
0000
,
1001
0100
1001
0100
,
0001
1000
0100
0000
1000
0001
0100
0000
,
0010
1001
0010
1001
,
0010
0100
0001
1000
0010
0100
0001
0000
,
1000
0100
0010
0100
0010
0000
1001
0000
,
0010
0100
0001
0100
0010
0000
1001
0000
,
0010
1100
0010
0101
,
1000
0010
0100
0001
1000
0100
0010
0000
,
0001
0100
0010
1000
0010
0000
1001
0000
,
0100
0010
1000
0001
1000
0000
0110
0000
,
0000
0101
0000
1001
0000
1010
0000
0101
,
0000
1000
0010
0100
0000
1001
1001
0000
,
0110
0000
1000
0001
0000
1000
0100
0100
,
0000
0110
0000
0011
0000
1100
0000
0000
,
1010
0000
0100
0001
0000
0010
0001
0010
,
0000
1100
0000
0011
0000
1100
0000
0000
,
0001
0000
1000
0100
0000
1000
0000
0010
,
0000
0001
0000
1000
0000
0001
0000
0010
,
0000
0001
0100
0000
0010
1000
0100
0000
,
0010
0001
0100
0000
0010
1000
0100
0000
,
0000
0011
0000
1000
0000
1010
0000
0100
,
0000
1001
0000
0101
0000
0010
0010
0000
,
1000
1000
0000
0001
0000
0101
0000
1000
,
0000
1100
0000
0011
0000
0100
0010
0000
,
1000
0100
0001
0000
0001
0100
1000
0000
,
0001
0010
0001
1000
0010
1000
0100
0000
,
0010
0001
1000
0000
0001
0100
0001
0000
,
1000
0100
1000
0100
1000
0001
1000
0000
,
0110
0000
1001
0000
0100
0010
0100
0000
,
0010
1000
0001
1000
0001
0010
0100
0000
,
1000
0000
0001
0000
1000
0100
0010
0000
,
0001
0100
0010
1000
0001
0100
0001
0000
,
0010
0001
0100
0000
1010
0000
0101
0000
,
0010
1000
0100
0000
0110
0000
1001
0000
,
0100
0010
0001
0000
1000
0010
1000
0000
,
0001
0100
0001
0010
0100
1000
0010
0000
,
1000
0001
1000
0100
0010
0001
1000
0100
,
1000
0001
0010
0001
0100
0001
0010
0100
,
1000
0001
1000
0001
0100
0010
1000
0100
,
1000
0001
0010
0001
0100
0001
1000
0100
,
0010
0001
1000
0100
0010
0001
1000
0100
,
0000
1010
0000
0101
0000
0010
0100
0000
,
0001
0100
1000
0000
1000
0100
0001
0000
,
0100
0001
1000
0100
1000
0001
0100
0000
,
0001
0100
0000
0000
1000
0100
0000
0000
0001
0000
0000
1000
0100
0000
0000
0000
,
1000
0100
0000
0000
0001
0100
0000
0000
1000
0000
0000
0001
0100
0000
0000
0000
,
0001
0100
0000
0000
1000
0100
0000
0000
0001
0000
0000
1000
0100
0000
0000
0000
,
0010
0100
0000
1000
0100
0000
1000
0001
0000
0100
0010
0000
1001
0000
0000
0000
;

//---------------dance-double - ----------------
#NOTES:
     dance-double:
     :
     Easy:
     5:
     :
00000000
00000000
00000000
00000000
,
00000000
00000000
00000000
00000000
,
00000000
00000000
00000000
00000000
,
00000000
00000000
00000000
00000000
,
00000000
00000000
00000000
00000000
,
10000000
00000000
10000000
00000000
,
00010000
00000000
00010000
00000000
,
00000010
00000000
00000010
00000000
,
00000100
00000100
00000100
00000100
,
00000001
00000000
00000001
00000000
,
00001000
00000000
00001000
00000000
,
00010000
00001000
00010000
00001000
,
00100000
01000000
10000000
01000000
,
00010000
00000000
00010000
00000000
,
01000000
00000000
00010000
00000000
,
00001000
00000010
00000001
00000100
,
00001000
00001000
00000100
00000100
,
00010000
00001000
00010000
00000000
,
00100000
00010000
01000000
00000000
,
00001000
00010000
00000010
00000100
,
00000010
00001000
00010000
01000000
,
10000000
00000000
00010000
00000000
,
00001000
00000000
00000001
00000000
,
00001000
00000100
00000001
00000010
,
00011000
00011000
01000000
00000000
,
10000000
10000000
00010000
01000000
,
00010000
00010000
00000010
00000100
,
00000001
00000001
00001000
00000100
,
00010000
00010000
00100000
01000000
,
00010000
00000000
10000000
00000000
,
00010000
00000000
10000000
00000000
,
00010000
00001000
00000010
00000000
,
00000001
00000100
00001000
00000000
,
00100000
00000000
10000000
00000000
,
01000000
00000000
00010000
00000000
,
10000000
00000000
00010000
00000000
,
00001000
00000000
00000001
00000000
,
00001000
00000001
00001000
00001000
,
00010000
00001000
00010000
00010000
,
00100000
00100000
10000000
01000000
,
10000000
10000000
01000000
01000000
,
00010000
00000100
00001000
00000100
,
00001000
01000000
00010000
01000000
,
00010000
00010000
00100000
00100000
,
00001000
00001000
00000010
00000010
,
00001000
00001000
00010000
00010000
,
01000000
01000000
00010000
00010000
,
00000010
00001000
00000001
00000001
,
00000010
00000001
00001000
00001000
,
00011000
00010000
00001000
01000000
,
00000000
01000000
00000000
01000000
,
00011000
00001000
00010000
00000100
,
00000000
00000100
00000000
00000100
,
00001000
00001000
00100000
00100000
,
01000000
01000000
10000000
10000000
,
01000000
00000000
01000000
00000000
,
00001000
00000010
00000100
00000000
,
00000001
00000001
00001000
00000100
,
00010000
00010000
00001000
01000000
,
00100000
00100000
10000000
01000000
,
00010000
00010000
00001000
00001000
;

//---------------dance-double - ----------------
#NOTES:
     dance-double:
     :
     Medium:
     7:
     :
00000000
00000000
00000000
00000000
,
00000000
00000000
00000000
00000000
,
00000000
00000000
00000000
00000000
,
00000000
00000000
00000000
00000000
,
00000000
00000000
00000000
00000000
,
10010000
01000000
10000000
01000000
,
00010000
01000000
00001000
00010000
,
00000010
00000100
00000001
00001000
,
00000100
00000100
00000100
00000100
,
00000001
00000100
00000001
00000100
,
00001000
00000100
00001000
00000100
,
00010000
00001000
00010000
01000000
,
10000000
01000000
10000000
01000000
,
00010000
01000000
00010000
01000000
,
00001000
00010000
00000010
00000100
,
00000001
00001000
00000001
00000100
,
00001000
00001000
00000100
00000100
,
00010000
00001000
00010000
01000000
,
00001000
00010000
00001000
00000100
,
00000001
00001000
00000001
00000100
,
00000010
00001000
00011000
01010000
,
10000000
10000000
00010000
00010000
,
00000010
00000010
00000001
00000001
,
00001000
00000100
00000001
00000010
,
00011000
00011000
10000000
01000000
,
10010000
10010000
00001000
00010000
,
00011000
00011000
00000001
00000100
,
00001001
00001001
00010000
00001000
,
00011000
00011000
10000000
01000000
,
00010000
01000000
10000000
01000000
,
00010000
01000000
10000000
01000000
,
00010000
00001000
00000010
00000001
,
00000001
00000100
00001000
00010000
,
00100000
01000000
00100000
01000000
,
00100000
01000000
00100000
01000000
,
10000000
10000000
00010000
00010000
,
00000010
00000010
00000001
00000001
,
00001000
00000001
00001000
00000001
,
00010000
00001000
00010000
00001000
,
10000000
00010000
10000000
00010000
,
10000000
01000000
00010000
00001100
,
00000001
00000100
00000001
00000100
,
00001000
00000100
00001000
00000100
,
00010000
01000000
00001000
00000100
,
00010000
01000000
00001000
00000100
,
00100000
00100000
10000000
10000000
,
01000000
01000000
00010000
00010000
,
00000010
00001000
00000001
00001000
,
00000010
00001000
00000001
00001000
,
00011000
01000000
10000000
01000000
,
10000000
01000000
00010000
00001000
,
00011000
00000100
00000001
00000100
,
00000001
00000100
00001000
00010000
,
00100000
00100000
10000000
01000000
,
10000000
01000000
01000000
00010000
,
00001000
00000100
00000001
00000001
,
00001000
00000100
00000001
00000100
,
00001001
00000100
00010000
00001000
,
00011000
00100000
10000000
01000000
,
10010000
01000000
00001000
00010000
,
00000010
00000010
00000010
00000010
;

//---------------dance-double - ----------------
#NOTES:
     dance-double:
     :
     Hard:
     12:
     :
00000000
00000000
00000000
00000000
,
00000000
00000000
00000000
00000000
,
00000000
00000000
00000000
00000000
,
00000000
00000000
00000000
00000000
,
00000000
00000000
00000000
00000000
,
10010000
00000000
01000000
00000000
10000000
00010000
01000000
00000000
,
00011000
00000000
01000000
00000000
00010000
00001000
00000100
00000000
,
00000110
00000000
00000001
00000000
00001000
00000100
00010000
00000000
,
01000000
00000000
01000000
00000000
00010000
00001000
00000100
00000000
,
00001001
00000000
00000100
00000000
00000001
00000100
00001000
00000000
,
00010000
01000000
10000000
00100000
01000000
00010000
01000000
00000000
,
10000000
01000000
00010000
00001000
00010000
01000000
10000000
00000000
,
10000000
00000000
10000000
00000000
00010000
01000000
00001000
00000000
,
00001000
00000000
00000010
00000000
00000001
00000001
00000100
00000000
,
00000010
00001000
00000100
00010000
00001000
00010000
01000000
00000000
,
10000000
00000000
10000000
00000000
01000000
00010000
00001000
00000000
,
00000100
00000000
00000100
00000000
00000001
00001000
00000100
00000000
,
00011000
00000000
01000000
00000000
00010000
00001000
01000000
00000000
,
00011000
00000000
00000100
00000000
00001000
00010000
00000100
00000000
,
00000010
00001000
00000100
00000000
00000010
00000001
00000100
00000000
,
00000001
00000100
00001000
00010000
01000000
10000000
00100000
00000000
,
10000000
10000000
01000000
00010000
,
00001000
00001000
00000100
00000001
,
00000000
00000101
00000000
00000110
00000000
00011000
00000000
01100000
,
00000000
10000000
10000000
10000000
00000000
00000000
00000000
00000000
,
10010000
00000000
11000000
00000000
00100000
00010000
01000000
00000000
,
00011000
00000000
01000000
00000000
00001000
00010000
00000010
00000000
,
00001001
00000000
00000101
00000000
00000010
00001000
00000100
00000000
,
00011000
00000000
00000100
00000000
00010000
00001000
00100000
00000000
,
10010000
01000000
01010000
00001000
,
00011000
00000100
00001100
00000001
,
00001000
00000100
00000001
00000010
,
00010000
01000000
10000000
00100000
,
00010000
10000000
00100000
01000000
00010000
10000000
01000000
00010000
,
00001000
00000100
00000001
00001000
00000100
00000000
00000100
00000000
,
00001000
00000001
00000010
00000100
00001000
00000001
00000100
00001000
,
00010000
01000000
10000000
00010000
01000000
00000000
01000000
00000000
,
10000000
00100000
01000000
00000000
00010000
00100000
01000000
00000000
,
00001000
00000010
00000100
00000000
00000001
00000010
00000100
00000000
,
00001000
00100000
10000000
01000000
,
00000000
00100000
10000000
01000000
00010000
00001000
00000100
00000001
,
00000011
00000000
00000100
00000000
00000001
00000100
00001000
00000000
,
00011000
00000000
00000100
00000000
00001000
00010000
01000000
00000000
,
10010000
00000000
01000000
00000000
00010000
00001000
00000100
00000000
,
00000101
00000000
00001000
00000000
00000010
00010000
00001000
00000000
,
00000010
00001000
01000000
00010000
,
00000100
00001000
00100000
00010000
,
00000010
00001000
00011000
01000000
,
00100000
00010000
00011000
00000100
,
00011000
00000000
01000000
00000000
10000000
00010000
01000000
00000000
,
10010000
00000000
01000000
00000000
00010000
00001000
00000010
00000000
,
00000101
00000000
00001000
00000000
00001000
00010000
01000000
00000000
,
11000000
00000000
00010000
00000000
00010000
00001000
00000100
00000000
,
00000010
00000000
00000010
00000000
00000001
00000000
00001000
00000100
,
00000000
00010000
00000000
00001000
00000000
01000000
01000000
00000000
,
10010000
01000000
00010000
00001000
,
00011000
00000100
00000001
00000010
,
00000001
00000010
00000000
00000000
00000001
00000010
00000000
00000000
00000100
00001000
00000001
00000000
00000100
00000000
00000100
00000000
,
00001000
00010000
00000000
00000000
00001000
00010000
00000000
00000000
00100000
01000000
00010000
00000000
10000000
00000000
10000000
00000000
,
01000000
00010000
00000000
00000000
01000000
00010000
00000000
00000000
00100000
01000000
10000000
00000000
01000000
00000000
01000000
00000000
,
10000000
01000000
00000000
00000000
01000000
00010000
00000000
00000000
00010000
00001000
00000100
00000000
00001001
00000000
00000000
00000000
;

//---------------dance-couple - ----------------
#NOTES:
     dance-couple:
     :
     Challenge:
     8:
     :
00000000
00000000
00000000
00000000
,
00000000
00000000
00000000
00000000
,
00000000
00000000
00000000
00000000
,
00000000
00000000
00000000
00000000
,
00000000
00000000
00000000
00000000
,
10000000
01000000
00000000
00000000
00010000
01000000
00000000
00000000
10000000
00000000
00000000
00010000
01000000
00000000
00000000
00000000
,
00000001
00000100
00000000
00000000
00001000
00000100
00000000
00000000
00000001
00000000
00000000
00001000
00000100
00000000
00000000
00000000
,
10001000
01000100
00000000
00000000
00010001
01000100
00000000
00000000
10001000
00000000
00000000
00010001
01000100
00000000
00000000
00000000
,
00100010
01000100
00000000
00010001
01000100
00000000
10001000
01000100
00000000
00100010
01000100
00000000
10011001
00000000
00000000
00000000
,
00000100
00100000
00000000
10000000
,
00000100
10000000
00000000
10000000
,
01000000
00000010
00000000
00000001
,
01000000
00000001
00000000
00000001
,
00000000
00010000
00000000
01000000
,
00000000
00001000
00000000
00000100
,
00000000
00010001
00000000
10001000
,
00000000
00100010
01000100
10011001
,
00100000
10000001
01000000
00010000
,
01000000
10000001
00100000
10010001
,
00100000
10000000
01000000
00000000
00000010
00000001
00000100
00000000
,
10000000
00000010
10000000
00000010
,
00001000
00100100
00000010
00000001
,
00000100
00100010
00001000
00101001
,
00000000
01010000
00000000
00001010
00000000
10100000
00000000
00000101
,
00000000
10001000
00100010
01000100
00000000
10011001
10011001
00000000
,
10000000
10000001
01000000
00010001
,
00100000
00000000
10010001
00000000
00100000
10000000
01000001
00000000
,
00001000
10001000
00000100
10000001
,
00000010
00000000
10001001
00000000
00000010
00001000
10000100
00000000
,
00100010
10001000
10001000
00010001
,
01000100
10001000
01000100
00010001
,
01000000
00000000
10010000
00000000
01000000
10000000
00100000
00000000
,
00000100
00000000
00001001
00000000
00000100
00001000
00000010
00000000
,
00100000
00000001
00010000
00000001
01000000
00000001
10000000
00000001
,
10010000
00000001
10000000
00000001
01000000
00000001
01000000
00000000
,
00000010
10000000
00001000
10000000
00000100
10000000
00000001
10000000
,
00001001
10000000
00000001
10000000
00000100
10000000
00000100
00000000
,
00010000
00000001
01000000
00000001
10000000
00000001
01000000
00000000
,
00100000
00000001
00010000
00000001
00100000
00000001
10000000
00000000
,
00000001
10000000
00000100
10000000
00001000
10000000
00000100
00000000
,
00000010
10000000
00000001
10000000
00000010
10000000
00001000
00000000
,
01100000
00000000
10000001
00010000
00000000
10000000
01000001
01000000
,
00000000
01100000
00000001
00110000
00000000
11000000
00000001
00000000
,
00000110
00000000
10000001
00001000
00000000
00000001
10000100
00000100
,
00000000
00000110
10000000
00001010
00000000
00000101
10000000
00000000
,
00011000
00000000
10000001
01000100
00000000
10000001
00000000
00100010
,
00000000
00011000
00000000
10000001
00000000
00011000
00000000
00100010
,
00000000
00011000
01000100
00000000
00100010
10000001
01000100
00000000
,
00100000
00010000
01000000
00000000
00000010
00001000
00000100
00000000
,
10001000
00010001
10001000
01000100
00100010
00010001
10001000
01000100
,
10001000
00010001
00100010
00010001
01000100
00010001
00100010
01000100
,
10001000
00010001
10001000
00010001
01000100
00100010
10001000
01000100
,
10001000
00010001
00100010
00010001
01000100
00010001
10001000
01000100
,
00100010
00010001
10001000
01000100
00100010
00010001
10001000
01000100
,
00000000
10101010
00000000
01010101
00000000
00100010
01000100
00000000
,
00010001
01000100
10001000
00000000
10001000
01000100
00010001
00000000
,
01000100
00010001
10001000
01000100
10001000
00010001
01000100
00000000
,
00010001
01000100
00000000
00000000
10001000
01000100
00000000
00000000
00010001
00000000
00000000
10001000
01000100
00000000
00000000
00000000
,
10001000
01000100
00000000
00000000
00010001
01000100
00000000
00000000
10001000
00000000
00000000
00010001
01000100
00000000
00000000
00000000
,
00010001
01000100
00000000
00000000
10001000
01000100
00000000
00000000
00010001
00000000
00000000
10001000
01000100
00000000
00000000
00000000
,
00100010
01000100
00000000
10001000
01000100
00000000
10001000
00010001
00000000
01000100
00100010
00000000
10011001
00000000
00000000
00000000
;

//---------------dance-solo - ----------------
#NOTES:
     dance-solo:
     :
     Easy:
     3:
     :
000000
000000
000000
000000
,
000000
000000
000000
000000
,
000000
000000
000000
000000
,
000000
000000
000000
000000
,
000000
000000
000000
000000
,
000000
100000
000000
100000
,
000000
100000
000000
100000
,
000000
001000
000000
001000
,
000000
000001
000000
000001
,
000000
010000
000000
100000
,
000000
100000
000000
100000
,
000000
000010
000000
000001
,
000000
000001
000000
000001
,
000000
010000
000000
001000
,
000000
000010
000000
001000
,
000000
000001
000000
100000
,
000000
010000
000010
100001
,
000000
010000
000001
000001
,
000000
000010
100000
100000
,
000000
000001
001000
100000
,
100000
100000
100000
100000
,
000000
010000
000001
000001
,
000000
000010
100000
100000
,
000000
000001
001000
100000
,
000100
100000
001000
000001
,
000000
010000
000000
001000
,
000000
000010
000000
001000
,
000000
000100
000000
010010
,
000000
100001
000000
001000
,
000000
000001
000000
001000
,
000000
100000
000000
001000
,
000000
100000
000000
000001
,
000000
001000
000000
100001
,
000000
000100
100000
001000
,
000001
000000
010010
100001
,
000000
000100
000001
001000
,
100000
000000
010010
100001
,
000000
001000
000000
001000
,
000000
000100
000000
100001
,
000000
000010
000010
000010
,
000000
010000
010000
010000
,
000000
000010
000100
010000
,
000000
010000
000100
000010
,
000000
000010
000100
010000
,
000000
010000
000100
000010
,
000000
000001
001000
100000
,
000000
100000
001000
000001
,
000000
000001
001000
100000
,
000000
100000
001000
000001
,
010000
000100
000010
000100
,
000000
001000
001000
001000
,
000010
000100
010000
000100
,
000000
001000
001000
001000
,
010010
000100
010000
000100
,
000000
001000
001000
001000
,
000100
010010
100001
001000
,
000000
001000
001000
001000
,
100000
000000
100000
000000
100000
000000
100000
001000
,
100000
000000
100000
000000
100000
000000
100000
000100
,
100000
000000
100000
000000
100000
000000
100000
001000
,
100000
000001
000001
000001
;

//---------------dance-solo - ----------------
#NOTES:
     dance-solo:
     :
     Medium:
     4:
     :
000000
000000
000000
000000
,
000000
000000
000000
000000
,
000000
000000
000000
000000
,
000000
000000
000000
000000
,
000000
000000
000000
000000
,
000000
100000
000000
001000
,
000000
000001
000000
001000
,
000000
100000
000000
001000
,
000000
000001
000001
000001
,
000100
100000
001000
000001
,
001000
000000
100000
000000
000100
100000
001000
000000
,
000100
100000
001000
000001
,
001000
000000
100000
000000
000100
100000
001000
000000
,
000100
010000
100000
100000
,
000100
000000
000010
000000
000001
000100
100000
000000
,
000100
010000
100000
100000
,
000100
000000
000010
000000
000001
000100
100000
000000
,
000100
100000
001000
000001
,
001000
100000
000100
010010
,
000100
100000
001000
000000
001000
100000
000001
000000
,
100000
100000
100000
100000
,
000100
100000
001000
000001
,
001000
100000
000100
010010
,
000010
100000
000001
000000
010000
000001
100000
000000
,
000100
000001
001000
001000
,
100000
100000
001000
000001
,
000100
000000
010010
000000
000100
100000
001000
000000
,
000001
001000
001000
100000
,
000100
000000
010010
000000
000100
000001
001000
000000
,
000100
100000
100000
000001
,
001000
100000
001000
000001
,
001000
000000
100000
000000
001000
100000
000100
000000
,
010010
000000
100001
000000
000100
100000
001000
000000
,
000100
000001
001000
100000
,
010010
100000
001000
001000
,
000100
100000
001000
000001
,
010010
000001
001000
001000
,
100000
001000
000001
001000
,
000100
100000
000100
000001
,
100001
001000
000001
000100
,
100000
000100
000001
000100
,
010010
000100
000001
001000
,
010010
000100
100000
001000
,
000001
001000
001000
100000
,
001000
001000
000001
000001
,
100000
000100
000001
001000
,
000001
000100
100000
001000
,
000100
000100
010010
000100
,
010000
010000
100001
000100
,
000001
001000
000100
001000
,
100000
000000
000100
000000
010000
000001
001000
000000
,
100000
001000
000100
001000
,
000001
000000
000100
000000
000010
100000
001000
000000
,
000001
000000
100000
000000
001000
000000
000001
001000
,
000000
000100
000000
100000
000000
000100
001000
000000
,
001100
100001
000100
001000
,
000001
001000
100000
001000
,
100001
000000
001000
000000
000100
100000
001000
000000
,
100001
000000
001000
000000
000100
000001
001000
000000
,
001000
000000
001100
000000
100000
000001
001000
000000
,
100000
000100
000001
000001
;

//---------------dance-solo - ----------------
#NOTES:
     dance-solo:
     :
     Hard:
     8:
     :
000000
000000
000000
000000
,
000000
000000
000000
000000
,
000000
000000
000000
000000
,
000000
000000
000000
000000
,
000000
000000
000000
000000
,
100000
001000
000000
000000
000001
001000
000000
000000
100000
000000
000000
000001
001000
000000
000000
000000
,
000001
001000
000000
000000
100000
001000
000000
000000
000001
000000
000000
100000
001000
000000
000000
000000
,
100000
001000
000000
000000
000001
001000
000000
000000
100000
000000
000000
000001
001000
000000
000000
000000
,
000001
001000
000000
000010
001000
000000
000100
001000
000000
010000
001000
000000
100001
000000
000000
000000
,
000001
001001
000100
000011
,
010000
100000
000100
000001
,
001100
100000
001100
000001
,
000010
100000
000100
000000
010000
000001
000100
000000
,
100010
001000
010001
001000
,
000001
100000
001000
000000
100000
000001
001000
000000
,
000100
100001
000100
100001
,
000010
001000
000001
100000
000010
010000
000100
000000
,
100000
000001
010000
000010
000100
000000
100001
000000
,
000100
001000
000001
001000
100000
000000
001100
000000
,
000010
000101
010000
100100
,
000010
100000
001000
010000
000001
001000
000100
000000
,
100000
001000
000100
000001
010000
000000
100010
000000
,
001000
000100
100000
000010
010000
000000
001100
000000
,
000000
001010
000000
100001
000000
100100
000000
001001
,
000000
100000
000100
001000
000000
100001
100001
000000
,
001100
000000
100000
000001
000000
010000
001000
001000
,
000000
001100
000000
011000
000000
001001
000000
000000
,
100010
000000
001000
000001
000000
000100
000010
000010
,
000000
101000
000000
000101
000000
011000
000000
000000
,
000001
000000
100000
001000
000000
010000
000000
010000
,
000000
000001
000000
100000
000000
000010
000000
000010
,
000000
100000
001000
000000
010000
000001
001000
000000
,
000010
000100
001000
000000
010000
000100
001000
000000
,
000000
001001
000000
100000
000000
100100
000000
000001
,
000000
010010
000000
001001
000000
000100
000100
000000
,
100000
100000
000000
000001
000000
001001
000000
100000
,
000000
010010
000000
101000
000000
000100
001000
000000
,
000001
001000
100000
000000
100000
001000
000001
000000
,
100000
000100
010000
000010
000100
000001
000010
000000
,
100000
001000
010000
000000
000001
001000
000010
000000
,
100000
001000
010000
001000
100000
000001
100000
000000
,
001100
000000
100001
000000
001000
010000
001000
000000
,
000100
000001
010000
000010
100000
000100
001000
000000
,
000011
000000
110000
000000
000010
001000
000100
000000
,
100000
001000
000100
000001
010000
001000
100000
000000
,
000100
000001
001000
000000
100100
000000
001001
000000
,
000100
000010
001000
000000
011000
000000
100001
000000
,
000010
000100
000001
000000
010000
000100
100000
000000
,
000001
001000
000010
000100
001000
010000
000100
000000
,
100000
000001
010000
001000
000100
000001
100000
001000
,
010000
000001
000100
000010
001000
000001
000100
001000
,
010000
000001
100000
000010
001000
000100
100000
001000
,
010000
000001
000100
000010
001000
000001
100000
001000
,
000100
000001
100000
001000
000100
000001
010000
001000
,
000000
100010
000000
010001
000000
000010
001000
000000
,
000001
001000
100000
000000
100000
001000
000001
000000
,
001000
000001
010000
001000
100000
000010
001000
000000
,
000001
001000
000000
000000
100000
001000
000000
000000
000001
000000
000000
100000
001000
000000
000000
000000
,
100000
001000
000000
000000
000001
001000
000000
000000
100000
000000
000000
000001
001000
000000
000000
000000
,
000001
001000
000000
000000
100000
001000
000000
000000
000001
000000
000000
100000
001000
000000
000000
000000
,
000100
001000
000000
000010
001000
000000
000001
100000
000000
001000
010000
000000
110011
000000
000000
000000
;

//---------------dance-single - Edit by silenttype01----------------
#NOTES:
     dance-single:
     Edit by silenttype01:
     Challenge:
     9:
     0.592,0.664,0.417,0.031,0.271:
0000
0000
0000
0000
,
0000
0000
0000
0000
,
0000
0000
0000
0000
,
0000
0000
0000
0000
,
0000
0000
0000
0000
,
1100
1100
0010
0001
,
0110
0110
0001
1000
,
0000
0011
0000
0000
0011
0000
0000
1000
0000
0000
0100
0000
0200
0000
0000
0000
,
0000
0000
0300
1001
,
0001
0000
0000
0100
0000
0000
0001
0000
0000
0100
0000
0000
0001
0000
0100
0000
,
0010
0000
0000
1000
0000
0000
0010
0000
0000
1000
0000
0000
0010
0000
1000
0000
,
0100
0000
0000
0010
0000
0000
0100
0000
0000
0010
0000
0000
0100
0000
0010
0000
,
0001
1000
0000
1000
0010
0000
0010
0100
0000
0100
0001
0000
0001
0000
1000
0000
,
0010
0000
0000
1000
0000
0000
0010
0000
0000
1000
0000
0000
0001
0000
0010
0000
,
0100
0000
0000
1000
0000
0000
0100
0000
0000
1000
0000
0000
0001
0000
0010
0000
,
0001
0000
0000
0100
0000
0000
0001
0000
0000
0100
0000
0000
0010
0000
1000
0000
,
0100
0010
0000
0010
0001
0000
0001
1000
0000
1000
0010
0000
0010
0000
0100
0000
,
0001
0100
1000
0100
0000
1100
0000
0100
,
0010
1000
0100
0010
0000
0110
0000
0010
,
0100
1000
0100
0001
0000
0101
0000
0100
,
0010
0001
0100
0010
0000
1010
0000
0100
,
0001
1000
0100
0010
0000
0011
0000
0100
,
1000
0001
0010
0100
0000
1100
0000
0100
,
0000
1001
0000
1001
0000
1001
0000
1001
,
0000
0100
0100
0100
0200
0000
0000
0000
,
1300
0000
0000
0000
0100
0000
0100
0010
0100
0000
0000
0000
0110
0000
0000
0000
,
0001
0000
0000
0000
0100
0000
0100
0001
0100
0000
0000
0000
0110
0000
0000
0000
,
0010
0000
0000
0000
1000
0000
1000
0100
1000
0000
0000
0000
0101
0000
0000
0000
,
0010
0000
0000
0000
0001
0000
0001
0100
0001
0000
0000
0000
1100
0000
0000
0000
,
1000
0000
0000
0000
0100
0000
0010
0001
0010
0000
0000
0000
1100
0000
0000
0000
,
0001
0000
0000
0000
0010
0000
0100
1000
0100
0000
0000
0000
0011
0000
0000
0000
,
1000
0000
0000
0000
0100
0000
0001
0100
0001
0000
0000
0000
0101
0000
0000
0000
,
0001
0000
0000
0000
0100
0000
1000
0100
1000
0000
0000
0000
1100
0000
0000
0000
,
0000
0010
0100
0001
0010
0100
0001
0100
,
0010
0001
0100
0010
0100
0001
1000
0000
,
0010
0010
0100
1000
0100
0010
1000
0100
,
0010
0100
1000
0010
0100
1000
0100
0000
,
0001
0000
0100
0000
0010
0000
1000
0100
1000
0000
0000
0000
0101
0000
0000
0000
,
1000
0000
0100
0000
0010
0000
0001
0100
0001
0000
0000
0000
0011
0000
0000
0000
,
1000
0000
0010
0000
0100
0000
0001
1000
0001
0000
0000
0000
1100
0000
0000
0000
,
0000
0000
0001
0010
0001
0010
0001
0000
1000
0100
1000
0100
1000
0100
1000
0100
,
1000
0100
1000
0010
0100
0001
1000
0000
,
0001
0010
0000
0000
1010
0000
0000
0000
0001
0010
0000
0000
1010
0000
0000
0000
,
0100
0001
0010
0100
1000
0001
0010
0000
,
1010
0000
0000
0000
0001
0010
0000
0000
1010
0000
0000
0000
0001
0010
0000
0000
,
0100
1000
0010
0100
0001
0010
0100
1000
,
0001
0100
0010
1000
0001
0010
0100
1000
,
0010
0100
1000
0100
0001
0100
1000
0100
,
0001
0010
1000
0010
0001
0010
1000
0001
,
0100
1000
0001
0100
0010
1000
0001
0000
,
1000
0010
0000
0000
0011
0000
0000
0000
1000
0010
0000
0000
0011
0000
0000
0000
,
0100
1000
0010
0100
0001
1000
0100
0000
,
0011
0000
0000
0000
1000
0010
0000
0000
0011
0000
0000
0000
1000
0010
0000
0000
,
0001
1000
0010
0100
0001
1000
0001
0010
,
0000
1001
0000
1001
0000
1001
0000
0000
,
1000
0000
0100
0000
1000
0000
0100
1000
0100
0000
0010
0000
0001
0000
0010
0000
,
0001
0100
0001
0100
0001
1000
0010
1000
,
0100
0100
0001
0000
0000
0100
0001
0000
,
0000
0000
0100
0000
0001
0000
0000
0000
0000
0001
0000
0000
0100
0000
0000
0000
,
0000
0000
0100
0000
0001
0000
0000
0000
0000
0100
0001
0100
0001
0100
0002
0000
,
0000
0000
0000
0000
0000
0003
1001
0000
;

//---------------dance-double - Edit by silenttype01----------------
#NOTES:
     dance-double:
     Edit by silenttype01:
     Challenge:
     9:
     0.592,0.664,0.417,0.031,0.271: // measure 1
00000000
00000000
00000000
00000000
,  // measure 2
00000000
00000000
00000000
00000000
,  // measure 3
00000000
00000000
00000000
00000000
,  // measure 4
00000000
00000000
00000000
00000000
,  // measure 5
00000000
00000000
00000000
00000000
,  // measure 6
11000000
11000000
00100000
00010000
,  // measure 7
00001100
00001100
00000010
00000001
,  // measure 8
00000000
00000101
00000000
00000000
00000101
00000000
00000000
00000010
00000000
00000000
00001000
00000000
00002000
00000000
00000000
00000000
,  // measure 9
00000000
00000000
00003000
00001001
,  // measure 10
00000001
00000000
00000000
00000001
00000000
00000000
00000100
00000000
00000000
00000100
00000000
00000000
00000010
00000000
00001000
00000000
,  // measure 11
00000100
00000000
00000000
00000100
00000000
00000000
00010000
00000000
00000000
00010000
00000000
00000000
00001000
00000000
00000100
00000000
,  // measure 12
00000010
00000000
00000000
00000010
00000000
00000000
00010000
00000000
00000000
00010000
00000000
00000000
00001000
00000000
00000100
00000000
,  // measure 13
00000010
00001000
00000000
00001000
00000001
00000000
00000001
00000010
00000000
00000010
00001000
00000000
00001000
00000000
00010000
00000000
,  // measure 14
00001000
00000000
00000000
00001000
00000000
00000000
00010000
00000000
00000000
00010000
00000000
00000000
00100000
00000000
01000000
00000000
,  // measure 15
00010000
00000000
00000000
00010000
00000000
00000000
10000000
00000000
00000000
10000000
00000000
00000000
01000000
00000000
00010000
00000000
,  // measure 16
00001000
00000000
00000000
00001000
00000000
00000000
00100000
00000000
00000000
00100000
00000000
00000000
00010000
00000000
10000000
00000000
,  // measure 17
01000000
00010000
00000000
00010000
00001000
00000000
00001000
00010000
00000000
00010000
00100000
00000000
00100000
00000000
10000000
00000000
,  // measure 18
00010000
01000000
10000000
01000000
00000000
11000000
00000000
01000000
,  // measure 19
00100000
10000000
01000000
00100000
00000000
01100000
00000000
00100000
,  // measure 20
01000000
10000000
01000000
00010000
00000000
01010000
00000000
01000000
,  // measure 21
00010000
00001000
00000010
00001000
00000000
00001010
00000000
00000001
,  // measure 22
00000100
00001000
00000100
00000010
00000000
00000011
00000000
00000001
,  // measure 23
00001000
00000100
00010000
00000100
00000000
00000011
00000000
00000100
,  // measure 24
00000000
00001001
00000000
00001001
00000000
00001001
00000000
00001001
,  // measure 25
00000000
00000100
00000100
00000100
00000200
00000000
00000000
00000000
,  // measure 26
00001300
00000000
00000000
00000000
00000100
00000000
00000100
00000010
00000100
00000000
00000000
00000000
00000110
00000000
00000000
00000000
,  // measure 27
00000001
00000000
00000000
00000000
00000100
00000000
00000100
00000001
00000100
00000000
00000000
00000000
00000110
00000000
00000000
00000000
,  // measure 28
00000010
00000000
00000000
00000000
00010000
00000000
00010000
00001000
00010000
00000000
00000000
00000000
00011000
00000000
00000000
00000000
,  // measure 29
00010000
00000000
00000000
00000000
00001000
00000000
00001000
01000000
00001000
00000000
00000000
00000000
01010000
00000000
00000000
00000000
,  // measure 30
00100000
00000000
00000000
00000000
10000000
00000000
00010000
00100000
00010000
00000000
00000000
00000000
11000000
00000000
00000000
00000000
,  // measure 31
10000000
00000000
00000000
00000000
00010000
00000000
10000000
00100000
10000000
00000000
00000000
00000000
01001000
00000000
00000000
00000000
,  // measure 32
00010000
00000000
00000000
00000000
01000000
00000000
00010000
01000000
00010000
00000000
00000000
00000000
10100000
00000000
00000000
00000000
,  // measure 33
10000000
00000000
00000000
00000000
01000000
00000000
00100000
00010000
00100000
00000000
00000000
00000000
10010000
00000000
00000000
00000000
,  // measure 34
00000000
00010000
10000000
01000000
00100000
00010000
10000000
00100000
,  // measure 35
00010000
00001000
00000010
00000001
00001000
00000010
00000010
00000000
,  // measure 36
00001000
00001000
00000001
00000100
00000010
00001000
00000001
00000010
,  // measure 37
00001000
00010000
00100000
10000000
00010000
00100000
00100000
00000000
,  // measure 38
00010000
00000000
01000000
00000000
00100000
00000000
00010000
00001000
00010000
00000000
00000000
00000000
00011000
00000000
00000000
00000000
,  // measure 39
00010000
00000000
00000100
00000000
00000010
00000000
00001000
00010000
00001000
00000000
00000000
00000000
00011000
00000000
00000000
00000000
,  // measure 40
00001000
00000000
00010000
00000000
00100000
00000000
10000000
00010000
10000000
00000000
00000000
00000000
11000000
00000000
00000000
00000000
,  // measure 41
00000000
00000000
00010000
00100000
00010000
00100000
00010000
00000000
10000000
01000000
10000000
01000000
10000000
01000000
10000000
01000000
,  // measure 42
10000000
01000000
10000000
00100000
01000000
00010000
10000000
00000000
,  // measure 43
00010000
00100000
00000000
00000000
10100000
00000000
00000000
00000000
00010000
00100000
00000000
00000000
10100000
00000000
00000000
00000000
,  // measure 44
01000000
00100000
00010000
00001000
00000100
00000010
00001000
00000000
,  // measure 45
00001010
00000000
00000000
00000000
00000001
00000010
00000000
00000000
00001010
00000000
00000000
00000000
00000001
00000010
00000000
00000000
,  // measure 46
00001000
00000001
00000100
00000010
00001000
00000100
00000010
00000001
,  // measure 47
00001000
00000010
00000100
00000001
00001000
00000100
00000010
00000001
,  // measure 48
00000100
00001000
00010000
00000010
00001000
00000001
00000100
00001000
,  // measure 49
00010000
00000010
00001000
00000001
00000100
00001000
00010000
00100000
,  // measure 50
01000000
00010000
10000000
01000000
00100000
00010000
10000000
00000000
,  // measure 51
00010000
01000000
00000000
00000000
11000000
00000000
00000000
00000000
00010000
01000000
00000000
00000000
11000000
00000000
00000000
00000000
,  // measure 52
01000000
10000000
00100000
00010000
00001000
00000010
00000001
00000000
,  // measure 53
00000101
00000000
00000000
00000000
00000100
00001000
00000000
00000000
00000101
00000000
00000000
00000000
00000100
00001000
00000000
00000000
,  // measure 54
00000001
00000100
00001000
01000000
00010000
10000000
01000000
00100000
,  // measure 55
00000000
10010000
00000000
10010000
00000000
10010000
00000000
00000000
,  // measure 56
10000000
00000000
00100000
00000000
10000000
00000000
00100000
10000000
00100000
00000000
00010000
00000000
00001000
00000000
00010000
00000000
,  // measure 57
00001000
00000100
00000001
00000100
00000001
00000010
00001000
00000010
,  // measure 58
00001000
00001000
00010000
00000000
00000000
00001000
00010000
00000000
,  // measure 59
00000000
00000000
00001000
00000000
00010000
00000000
00000000
00000000
00000000
00010000
00000000
00000000
00001000
00000000
00000000
00000000
,  // measure 60
00000000
00000000
00010000
00000000
00001000
00000000
00000000
00000000
00000000
00010000
00001000
00010000
00001000
00010000
00002000
00000000
,  // measure 61
00000000
00000000
00000000
00000000
00000000
00003000
00011000
00000000
;
