#TITLE:CUTIE CHASER;
#SUBTITLE:(MORNING MIX);
#ARTIST:CLUB SPICE;
#TITLETRANSLIT:;
#SUBTITLETRANSLIT:;
#ARTISTTRANSLIT:;
#CREDIT:;
#BANNER:CUTIE CHASER(MORNING MIX).png;
#BACKGROUND:CUTIE CHASER(MORNING MIX)-bg.png;
#LYRICSPATH:;
#CDTITLE:./CDTITLES/DANCE DANCE REVOLUTION HOME VERSION.PNG;
#MUSIC:CUTIE CHASER(MORNING MIX).mp3;
#OFFSET:-0.541;
#SAMPLESTART:34.270;
#SAMPLELENGTH:15.000;
#SELECTABLE:YES;
#DISPLAYBPM:126.000;
#BPMS:0.000=126.140;
#STOPS:;
#BGCHANGES:;

//---------------dance-single - ----------------
#NOTES:
     dance-single:
     :
     Easy:
     2:
     0.158,0.181,0.024,0.000,0.000:
0000
0000
0000
0000
,
0000
0000
0000
0000
,
0000
0000
0000
0010
,
0000
0000
0100
0000
,
0000
0001
0000
0000
,
1000
0000
0000
0010
,
0000
0000
0001
0100
,
0000
0010
0000
0000
,
1000
0100
0000
0010
,
0000
0000
0001
0100
,
0000
0010
0000
0000
,
1000
0001
0000
0010
,
0000
0000
0010
0001
,
0001
0100
0000
0000
,
0010
1000
1000
0100
,
0000
0000
0001
0000
,
0000
0100
0000
0000
,
1000
0000
0000
0000
,
0010
1000
0100
0001
,
0000
0000
0001
0100
,
1000
0000
0000
0000
,
0010
1000
0100
0001
,
0000
0000
0010
0100
,
0001
0000
0000
1001
,
0000
0010
0010
1000
,
0001
0000
0001
0000
,
0000
0100
0000
0001
,
0001
0000
0100
0100
,
0000
1000
1000
0000
,
0010
0010
0000
0010
,
0000
0000
0010
0001
,
0001
0100
0000
0000
,
0010
1000
1000
0100
,
0000
0000
0001
0000
,
0000
0100
0000
0000
,
1000
0000
0000
0001
,
0010
1000
0100
0001
,
0000
0000
0001
0100
,
1000
0000
0000
1000
,
0010
0001
0100
1000
,
0000
0000
0010
0100
,
0001
0000
0000
1001
,
0000
0010
0010
0001
,
1000
0100
0000
0000
;

//---------------dance-single - ----------------
#NOTES:
     dance-single:
     :
     Medium:
     3:
     0.245,0.258,0.048,0.000,0.000:
0000
0000
0000
0000
,
0000
0000
0000
0000
,
0000
0000
0000
0010
,
0010
0000
0100
0100
,
0000
0001
0001
0000
,
1000
1000
0000
0010
,
0010
0010
0001
0100
,
0000
0010
0010
0010
,
1000
0100
0000
0010
,
0001
0100
0010
1000
,
0100
1001
0000
0010
,
0010
0001
1000
0001
,
0010
0100
0010
1000
,
0001
1000
0010
0100
,
0010
0001
1000
0010
,
0100
0000
0100
1000
,
0000
1000
0010
0000
,
0010
0001
0000
0010
,
1000
0100
0001
0010
,
1000
0010
0001
0100
,
0010
0100
0000
0010
,
0001
0100
1000
0010
,
0001
1000
0001
0100
,
1000
0010
0000
1001
,
0000
0010
0010
1000
,
0001
1000
0001
0000
,
0000
0100
0000
0010
,
0100
1000
0010
1000
,
0001
0100
0010
0001
,
1000
0100
0001
0001
,
0010
0100
0010
1000
,
0001
1000
0010
0100
,
0010
0001
1000
1000
,
0001
0000
0100
0010
,
0000
0001
1000
0000
,
1000
0010
0000
0010
,
1000
0100
0001
0010
,
1000
0010
0001
0100
,
0010
0100
1001
0010
,
1000
0100
0001
0010
,
0001
0100
1000
0010
,
1000
0001
0000
1001
,
0000
0010
0010
0001
,
1000
0100
0000
0000
;

//---------------dance-single - ----------------
#NOTES:
     dance-single:
     :
     Hard:
     5:
     0.416,0.412,0.251,0.095,0.000:
0000
0000
0000
0000
,
0000
0000
0000
0000
,
0000
0000
0000
0010
,
0010
0000
0001
0100
,
0000
0100
1000
0000
,
1000
0010
0000
0110
,
1000
0100
0001
0100
1000
0000
1100
0000
,
0101
0000
0110
0000
0001
0100
1000
0100
,
0001
0101
1100
1001
,
0100
0001
1000
0100
0010
0000
1100
0000
,
0101
0000
1001
0000
0000
1000
0000
0001
,
0000
0000
1000
0001
0000
0001
1000
0001
,
0100
0001
1000
0000
1000
0001
0100
0001
,
1000
0000
0001
0010
0100
0010
0001
0000
,
0001
0010
0100
0010
0001
0000
1000
0001
,
0100
0100
0100
0000
0001
1000
0100
0100
,
0100
0000
0010
0001
0010
0001
0100
0000
,
1000
0100
1000
0100
0010
0000
2000
0000
,
0010
3100
0002
0010
,
0103
2000
0010
3100
,
0002
0010
0103
2000
,
0010
3100
0002
0010
,
0103
2000
0010
3100
,
0002
0010
0103
1001
,
0000
0100
0000
0010
0000
0000
1000
0001
,
0000
0001
0110
0000
1000
0100
0001
0010
,
1000
0110
1001
0110
,
0001
0100
1000
0010
0001
0000
0110
0000
,
1001
0000
0110
0000
1000
0010
0001
0100
,
1000
0000
0010
0100
0000
0010
0100
0001
,
0010
0001
0100
0000
0010
1000
0001
1000
,
0010
0000
1000
0001
0100
0001
1000
0000
,
0010
0100
1000
0100
0010
0000
0001
0010
,
0100
0010
0001
0000
0010
0100
0001
0100
,
0010
0000
1000
0001
0010
0001
1000
0000
,
1000
0100
0001
0100
1000
0000
0001
0000
,
0010
1000
0100
1000
,
0010
0000
0001
0010
1000
0100
1000
0010
,
0001
0010
1000
0100
1000
0010
0001
0000
,
0010
1000
0100
1000
,
0010
0000
0001
0010
1000
0100
1000
0010
,
0001
0010
1000
0100
1000
0010
0100
0000
,
0000
0101
0000
1100
0000
0000
1000
0001
,
0000
1001
0000
0000
0000
0000
0000
0000
;

//---------------dance-double - ----------------
#NOTES:
     dance-double:
     :
     Easy:
     2:
     0.152,0.181,0.036,0.000,0.000:
00000000
00000000
00000000
00000000
,
00000000
00000000
00000000
00000000
,
00000000
00000000
00000000
00100000
,
00000000
00000000
00010000
00000000
,
00000000
00001000
00000000
00000000
,
00000100
00000000
00000000
00000001
,
00000000
00000000
00001000
00000100
,
00000000
00001000
00000000
00000000
,
00000001
00000100
00000000
00001000
,
00000000
00000000
00010000
00001000
,
00000000
00100000
00000000
00000000
,
10000000
00010000
00000000
00100000
,
00000000
00000000
00100000
00010000
,
00001000
00000100
00000000
00000000
,
00000010
00001000
00010000
01000000
,
00000000
00000000
00010000
00000000
,
00000000
00001000
00000000
00000000
,
00000010
00000000
00000000
00000000
,
00000010
00000001
00000100
00001000
,
00000000
00000000
00100000
01000000
,
10000000
00000000
00000000
00000000
,
00100000
10000000
01000000
00010000
,
00000000
00000000
00000010
00000100
,
00000001
00000000
00000000
00001001
,
00000000
00000010
00000010
00001000
,
00000100
00000000
00010000
00000000
,
00000000
01000000
00000000
00100000
,
00000000
00000000
00010000
00000000
,
00000000
00001000
00000000
00000000
,
00000100
00000000
00000000
00000000
,
00000000
00000000
00000010
00001000
,
00010000
01000000
00000000
00000000
,
00100000
00010000
00001000
00000100
,
00000000
00000000
00000001
00000000
,
00000000
00001000
00000000
00000000
,
00010000
00000000
00000000
00010000
,
00100000
10000000
01000000
00010000
,
00000000
00000000
00000010
00000100
,
00001000
00000000
00000000
00001000
,
00000010
00000001
00000100
00001000
,
00000000
00000000
00100000
01000000
,
10000000
00000000
00000000
00011000
,
00000000
00000010
00000010
00001000
,
00000100
00001001
00000000
00000000
;

//---------------dance-double - ----------------
#NOTES:
     dance-double:
     :
     Medium:
     4:
     0.305,0.334,0.203,0.000,0.000:
00000000
00000000
00000000
00000000
,
00000000
00000000
00000000
00000000
,
00000000
00000000
00000000
10000000
,
01000000
00010000
00001000
00000100
,
00000001
00000001
00000100
00001000
,
00010000
01000000
10000000
01000000
,
00100000
00001000
00010000
00000010
,
00000100
00000100
00000010
00010000
,
00001000
00100000
01000000
01000000
,
00100000
00001000
00010000
00000010
,
00000100
00000000
00001001
00000000
00000000
00000010
00000000
00000100
,
00000000
00000000
00001000
00010000
00000000
01000000
10000000
00000000
,
01000000
00010000
01000000
00010000
,
00001000
00010000
00001000
00000100
,
00001000
00000100
00000001
00000110
,
00001000
00001000
00011000
01000000
,
01000000
01100000
00010000
00010000
,
00011000
00000100
00000100
00010000
,
00100000
10000000
01000000
00100000
,
00010000
00001000
00000100
00000001
,
00000010
00000100
00001000
00010000
,
00100000
10000000
01000000
00100000
,
00010000
00001000
00000100
00000001
,
00000010
00000100
00001000
00001001
,
00000000
00000010
00000000
00000100
00000000
00000000
00001000
00010000
,
00000000
01000000
10000000
00000000
01000000
00000000
00010000
00000000
,
10000000
00100000
00010000
00001000
,
00000100
00000001
00001000
00000010
,
00000001
00001000
00001100
00000101
,
00000001
00000010
00001001
00000001
,
00000110
00001000
00010000
00000100
,
00010000
01000000
11000000
00110000
,
10000000
01000000
00010000
00100000
,
00010000
01010000
00100000
10000000
,
11000000
01000000
00010000
00001000
,
00000100
00001000
00010000
00000010
,
00000100
00001000
00010000
01000000
,
00100000
00100000
01000000
00010000
,
00001000
00000100
00000010
00000101
,
00000010
00000100
00001000
00010000
,
01000000
11000000
00100000
01000000
,
00010000
00001000
00000100
00001001
,
00000000
00000010
00000000
00000100
00000000
00000000
00001000
00010000
,
00000000
01000000
00000000
00000000
00000000
00000000
00000000
00000000
;

//---------------dance-double - ----------------
#NOTES:
     dance-double:
     :
     Hard:
     6:
     0.399,0.412,0.370,0.072,0.000:
00000000
00000000
00000000
00000000
,
00000000
00000000
00000000
00000000
,
00000000
00000000
00000000
00000001
,
00000101
00000000
00001000
00001100
,
00000000
00000001
00000101
00000000
,
00001000
00001100
00000000
00000110
,
00001000
00010000
01000000
00010000
00001000
00000000
00010000
00000000
,
01000000
00000000
11000000
00000000
00100000
01000000
00010000
00100000
,
01000000
00010000
00001000
00000110
,
00000100
00001000
00010000
00001000
00000010
00000000
00000001
00000000
,
00000100
00000000
00001010
00000000
00000000
00000001
00000000
00000101
,
00000000
00000000
00001000
00000100
00000000
00000001
00000100
00001000
,
00010000
01000000
10000000
00000000
01000000
00010000
00001000
00000100
,
00000001
00000000
00000100
00001000
00010000
01000000
10000000
00000000
,
01000000
00010000
00001000
00000100
00000001
00000000
00000001
00000100
,
00000001
00000100
00000001
00000000
00001000
00000100
00001000
00000100
,
00001000
00000000
00010000
01000000
00010000
01000000
00010000
00000000
,
10000000
01000000
10000000
01000000
10000000
00000000
11000000
00000000
,
01000000
00010000
00001000
00010000
01000000
00000000
11000000
00000000
,
00110000
00000000
01000000
00100000
00001000
00010000
00000010
00000100
,
00001000
00000220
00000330
00000101
,
00000100
00001000
00010000
00001000
00000100
00000000
00000110
00000000
,
00001001
00000000
00000100
00001000
00010000
00001000
00000100
00001000
,
00010000
01100000
10010000
11000000
,
00000000
00010000
00000000
01000000
00000000
00000000
00100000
00010000
,
00000000
00001000
00001000
00000000
00000100
00001000
00010000
01000000
,
00010000
00001000
00000100
00010000
,
01000000
00010000
00001000
00000100
00001000
00000000
00010000
00000000
,
01000000
00000000
01100000
00000000
00000000
11000000
00000000
01010000
,
00000000
00000000
00100000
10000000
00000000
01000000
10000000
01000000
,
10000000
01000000
00010000
00000000
00001000
00000100
00001000
00000100
,
00000001
00000000
00000001
00000010
00000001
00000010
00001000
00000000
,
00010000
00100000
00010000
00100000
10000000
00000000
01000000
00000000
,
01100000
00000000
00010000
00011000
,
00000000
00000100
00000110
00000000
,
00001000
00011000
00000000
00020010
,
00001000
00100000
00001000
00000010
,
00031000
00102000
00010000
00000010
,
00010000
00100000
00013000
00020010
,
00001000
01000000
00001000
00100000
,
00031000
00102000
00010000
00000100
,
00010000
00000010
00013000
00010010
,
00000000
00001000
00000000
00000100
00000000
00000000
00001000
00010000
,
00000000
01000000
00000000
00000000
00000000
00000000
00000000
00000000
;

//---------------dance-single - ----------------
#NOTES:
     dance-single:
     :
     Beginner:
     1:
     0.147,0.206,0.155,0.000,0.000:
0000
0000
0000
0000
,
0000
0000
0000
0000
,
0000
0000
0000
0010
,
0000
0000
0010
0000
,
0000
0010
0000
0000
,
0010
0000
0000
1000
,
1000
0000
0100
0100
,
0000
1000
1000
0000
,
0100
0100
0000
0001
,
0001
0000
0001
0001
,
0000
0001
0001
0000
,
0001
0001
0000
0110
,
0000
0000
0001
0000
,
0000
0100
0000
0000
,
1000
0000
0000
0110
,
0000
0000
0001
0000
,
0000
0100
0000
0000
,
1000
0000
0000
0001
,
0000
0000
0001
0000
,
0000
0010
0000
0000
,
0010
0000
0000
0001
,
0000
0000
0001
0000
,
0000
0010
0000
0000
,
0010
0000
0000
1000
,
1000
1000
1000
1000
,
1000
1000
0000
0000
,
0110
0000
0000
0001
,
0000
0000
0110
0000
,
0000
1000
0000
0000
,
0110
0000
0000
0001
,
0001
0000
0100
0000
,
0000
1000
1000
0000
,
0100
0000
0000
0001
,
0001
0000
0100
0000
,
0000
1000
1000
0000
,
0100
0000
0000
0110
,
0000
0000
0110
0000
,
0000
1001
0000
0000
,
1001
0000
0000
0110
,
0000
0000
0110
0000
,
0000
1001
0000
0000
,
1001
0000
0000
1000
,
1000
0000
0100
0000
,
0001
0001
0000
0000
;

//---------------dance-single - ----------------
#NOTES:
     dance-single:
     :
     Challenge:
     8:
     0.464,0.541,0.251,0.000,0.167: // measure 1
0000
0000
0000
0000
,  // measure 2
0000
0000
0000
0000
,  // measure 3
0000
0000
0000
1000
,  // measure 4
1000
0000
0001
0001
,  // measure 5
0000
0100
0100
0000
,  // measure 6
0010
0010
0000
1000
,  // measure 7
1000
1000
0001
0100
0001
0000
0100
0000
,  // measure 8
0010
0000
1000
0000
1000
1000
0001
0100
,  // measure 9
0001
0100
0010
1000
,  // measure 10
1000
1000
0001
0100
0001
0000
0100
0000
,  // measure 11
0010
0000
1001
0000
0000
1001
0000
1001
,  // measure 12
0000
0000
1001
1001
0000
0010
0001
1000
,  // measure 13
0100
0010
0001
0100
0000
0010
1000
0001
,  // measure 14
0100
0000
0001
1000
0100
0010
0001
0100
,  // measure 15
0000
0010
1000
0001
0100
0100
1000
0100
,  // measure 16
0001
1000
0100
0010
0000
0001
0100
1000
,  // measure 17
0100
0000
1000
0100
0001
1000
0100
0010
,  // measure 18
0000
0001
0100
1000
0100
0100
0010
0000
,  // measure 19
0010
1000
0100
1000
0001
0000
0100
0000
,  // measure 20
0010
0000
1000
1000
1000
1000
1000
1000
,  // measure 21
1000
0001
0000
0010
,  // measure 22
0010
0001
0100
0001
1000
0000
0100
0000
,  // measure 23
0001
0000
0010
0010
0010
0010
0010
0010
,  // measure 24
0010
0000
1000
0000
0000
0000
0011
0100
,  // measure 25
1000
0110
0001
0110
1000
0100
0110
1001
,  // measure 26
0100
0110
0001
0000
0100
1000
0001
0100
,  // measure 27
1000
0000
0100
0000
0010
0000
1000
0100
,  // measure 28
1000
0001
0100
0010
1000
0000
0100
0000
,  // measure 29
0010
0000
1001
0000
0000
1001
0000
1001
,  // measure 30
0000
0000
0000
0000
1010
0000
1001
0000
0000
0000
1001
0000
0001
0000
1000
0100
,  // measure 31
0000
1000
0100
0000
1000
0000
0010
0000
0000
0000
0100
0001
0000
0100
0001
0000
,  // measure 32
0010
0000
0000
0000
0001
0000
0100
0001
0000
0100
0001
0000
1000
0000
0010
0000
,  // measure 33
0000
0000
1000
0100
0000
1000
0100
0000
0010
0000
0000
0000
0001
0000
1000
0100
,  // measure 34
0000
0010
0001
0000
1000
0000
0010
0000
0000
0000
0100
0001
0000
0001
1000
0000
,  // measure 35
0010
0000
0000
0000
0100
0000
0001
0100
0000
0010
1000
0000
0100
0000
0010
0000
,  // measure 36
0000
0000
0100
1000
0000
1000
0001
0000
0010
0000
0000
0000
0101
0000
0000
0000
,  // measure 37
0100
1000
0100
0001
1000
0000
0100
0000
,  // measure 38
0010
0000
0011
0001
0100
1000
0100
0010
,  // measure 39
1000
0100
0000
1100
,  // measure 40
0100
0001
0100
1000
0001
0000
0100
0000
,  // measure 41
0010
0000
1010
1000
0100
0010
0001
0100
,  // measure 42
1000
0000
0000
0000
0010
0000
0000
0000
0000
0000
0000
0000
0001
0010
0100
1000
,  // measure 43
0100
1000
0001
0100
0001
0100
0010
0100
0010
0100
0010
1000
0010
1000
0001
1000
,  // measure 44
0001
0010
0100
1000
0000
0000
0000
0000
0000
0000
0000
0000
0000
0000
0000
0000
;
