#TITLE:CELEBRATE NITE;
#SUBTITLE:(EURO TRANCE STYLE);
#ARTIST:N.M.R;
#TITLETRANSLIT:;
#SUBTITLETRANSLIT:;
#ARTISTTRANSLIT:;
#CREDIT:;
#BANNER:CELEBRATE NITE(EURO TRANCE STYLE).png;
#BACKGROUND:CELEBRATE NITE(EURO TRANCE STYLE)-bg.png;
#LYRICSPATH:;
#CDTITLE:./CDTITLES/DDRMAX2 -Dance Dance Revolution 7thMIX-.PNG;
#MUSIC:CELEBRATE NITE(EURO TRANCE STYLE).mp3;
#OFFSET:-0.059;
#SAMPLESTART:20.030;
#SAMPLELENGTH:15.000;
#SELECTABLE:YES;
#DISPLAYBPM:144.000;
#BPMS:0.000=144.000;
#STOPS:;
#BGCHANGES:;

//---------------dance-single - ----------------
#NOTES:
     dance-single:
     :
     Beginner:
     1:
     0.157,0.198,0.022,0.000,0.000:
0000
0000
0000
0000
,
0000
0000
0000
0000
,
1000
0000
0100
0000
,
0001
0000
0010
0000
,
1001
0000
0010
0000
,
0010
0000
0010
0000
,
1001
0000
0010
0000
,
0010
0000
0010
0000
,
0010
0000
0100
0000
,
0100
0000
0010
0000
,
0010
0000
0100
0000
,
0100
0000
0010
0000
,
0010
0000
0001
0000
,
1000
0000
0001
0001
,
0000
0100
0000
0100
,
0000
0100
0100
0000
,
0001
0000
0001
0000
,
0010
0000
0001
0000
,
0001
0000
1000
0000
,
0010
0000
0001
0000
,
0001
0000
0000
0001
,
0000
0010
0000
0100
,
0000
0000
0000
1000
,
0000
0010
0000
0100
,
0000
0000
0000
0010
,
0000
0100
0000
1000
,
0000
0000
0000
0010
,
0000
0000
1000
0000
,
0010
0000
0000
0000
,
0001
0000
0001
0001
,
0000
1000
0000
0010
,
0000
0100
0000
1000
,
0000
0001
0000
0001
,
0000
1000
1000
1000
,
0000
0001
0000
0100
,
0000
0100
0000
0100
,
0000
0100
0000
0001
,
0001
0000
0100
0000
,
0010
0000
1000
0000
,
0100
0000
0001
0000
,
0001
0000
0010
0000
,
0100
0000
1000
1000
,
1000
0000
0010
0000
,
0010
0000
0100
0000
,
0010
0000
1000
0000
,
0001
0000
1000
0000
,
1000
0000
0010
0000
,
0100
0000
1000
0000
,
0001
0000
1000
0000
,
0001
0000
1000
0000
,
1000
0000
0010
0000
,
0000
0000
1000
0000
,
0010
0000
0000
0000
,
0000
0000
0000
0000
,
0000
0000
0000
0000
;

//---------------dance-single - ----------------
#NOTES:
     dance-single:
     :
     Challenge:
     8:
     0.467,0.530,0.109,0.022,0.098: // measure 1
0000
0000
0000
0000
,  // measure 2
0000
0000
0000
0000
,  // measure 3
1000
0000
0100
0000
,  // measure 4
0001
0000
0000
0000
0010
1000
0100
0000
,  // measure 5
1001
0100
0010
0000
0010
0001
0100
0000
,  // measure 6
0010
1000
0100
0100
0010
1000
0100
0000
,  // measure 7
1001
0100
0010
0000
0010
1000
0100
0000
,  // measure 8
0010
0001
0100
0100
0010
0001
0100
0000
,  // measure 9
0010
1000
0100
0001
0100
0010
0001
0100
,  // measure 10
0100
0010
0001
0100
0010
1000
0100
0000
,  // measure 11
0010
0001
0100
1000
0100
0010
1000
0100
,  // measure 12
0100
0010
1000
0100
0010
0001
0101
0000
,  // measure 13
0010
0000
1000
0000
0001
1000
0100
0000
,  // measure 14
1000
0100
0010
0000
0001
0000
0101
0000
,  // measure 15
1000
0100
0001
0100
,  // measure 16
0010
1000
0100
1000
0100
0001
0010
0000
,  // measure 17
0001
0000
0100
0000
0001
1000
0100
0000
,  // measure 18
0010
0001
1000
0000
0001
0000
1100
0000
,  // measure 19
0001
0100
1000
0100
,  // measure 20
0010
0001
0100
0010
0001
0100
1001
0000
,  // measure 21
0001
0000
0000
1000
0000
0000
0100
0000
0000
0000
0000
0000
0001
0000
0000
0000
,  // measure 22
1000
0100
0010
0000
1000
0000
0100
0000
,  // measure 23
1000
0000
0000
0001
0000
0000
0100
0000
0000
0000
0000
0000
1000
0000
0000
0000
,  // measure 24
0001
0100
0010
0000
0001
0000
0100
0000
,  // measure 25
1000
0000
0000
1000
0000
0000
0100
0000
0000
0000
0000
0000
0010
0000
0000
0000
,  // measure 26
0001
1000
0100
0000
0001
0000
1100
0000
,  // measure 27
0001
0000
0000
0001
0000
0000
0100
0000
0000
0000
0000
0000
0010
0000
0000
0000
,  // measure 28
0000
0000
0000
0100
1000
0010
0100
0001
,  // measure 29
0020
0000
0000
0030
,  // measure 30
0001
0000
0000
1000
0100
0000
0010
0000
0001
0000
0000
0100
0001
0000
0100
0000
,  // measure 31
0010
0000
0000
0001
1000
0000
0100
0000
0010
0000
0000
0001
0010
0000
0001
0000
,  // measure 32
1000
0000
0000
0010
0100
0000
0001
0000
0010
0000
0000
0100
1000
0000
0100
0000
,  // measure 33
0110
0000
0001
0000
0100
0000
0001
0010
,  // measure 34
0100
0000
1000
0000
1000
0000
1000
0010
,  // measure 35
0100
0001
0010
0100
,  // measure 36
0010
1000
0100
0100
0010
1000
0100
0000
,  // measure 37
1001
0000
0000
0000
0100
0000
0000
0000
0010
0000
0000
0000
0001
0100
0000
0000
,  // measure 38
0001
0000
0000
0000
1000
0000
0000
0000
0100
0000
0000
0000
0010
0001
0000
0000
,  // measure 39
0010
0000
0000
0000
0100
0000
0000
0000
1000
0000
0000
0000
0010
0100
0010
0000
,  // measure 40
0100
0000
0000
0000
1000
0000
0000
0000
0001
0000
0000
0000
0010
0001
0010
0000
,  // measure 41
0001
0000
0000
0000
1000
0000
0000
0000
0010
0000
0000
0000
0100
0001
0100
0001
,  // measure 42
0100
0000
0000
0000
0010
0000
0000
0000
1000
0000
0000
0000
1000
0100
1000
0100
,  // measure 43
1000
0100
0010
0001
,  // measure 44
0010
0010
1000
0001
0100
0010
1001
0000
,  // measure 45
0010
1000
0100
0000
1000
0001
0100
0000
,  // measure 46
0001
0010
0100
0010
1000
0001
0100
0000
,  // measure 47
1000
0001
0100
0000
0010
0001
1000
0000
,  // measure 48
0100
0010
0001
0100
1000
0010
0100
0000
,  // measure 49
0001
0010
0100
0000
1000
0010
0100
0000
,  // measure 50
0001
1000
0010
0100
1000
0100
0001
0000
,  // measure 51
1000
0010
0100
0100
0010
0001
0100
0000
,  // measure 52
0000
0000
0000
0100
1000
0010
0100
0001
,  // measure 53
0020
0000
0000
0001
0000
0001
0000
0001
,  // measure 54
0000
0000
0000
0000
,  // measure 55
0030
0000
0000
0000
;

//---------------dance-double - ----------------
#NOTES:
     dance-double:
     :
     Challenge:
     8:
     0.469,0.501,0.120,0.022,0.098:
00000000
00000000
00000000
00000000
,
00000000
00000000
00000000
00000000
,
10000000
00000000
01000000
00000000
,
00010000
00000000
00000000
00000000
00001000
00000100
00000001
00000000
,
00001001
00000100
00001000
00000000
00010000
01000000
00100000
00000000
,
01000000
00010000
00001000
00001000
00010000
01000000
10000000
00000000
,
10010000
01000000
00010000
00000000
00001000
00000100
00000010
00000000
,
00000100
00001000
00010000
00010000
00001000
00000100
00000001
00000000
,
00001000
00000010
00000100
00000001
00001000
00000010
00000100
00000001
,
00000001
00000100
00001000
00010000
01000000
10000000
00100000
00000000
,
00010000
00100000
01000000
10000000
00010000
00100000
01000000
10000000
,
10000000
01000000
00010000
00001000
00000100
00000001
00000010
00000000
,
00001000
00000000
00010000
00000000
00001000
00010000
01000000
00000000
,
00010000
00001000
00000100
00000000
00010010
00000000
00101000
00000000
,
00010000
01000000
10000000
01000000
,
00010000
10000000
01000000
00010000
00001000
00000100
00000001
00000000
,
00000010
00000000
00001000
00000000
00000010
00001000
00010000
00000000
,
00001000
00010000
01000000
00000000
10010000
00000000
01001000
00000000
,
00010000
00001000
00000100
00000001
,
00000010
00000001
00000100
00001000
00010000
01000000
11000000
00000000
,
00100000
00000000
00000000
00001000
00000000
00000000
00010000
00000000
00000000
00000000
00000000
00000000
00000100
00000000
00000000
00000000
,
00001000
00000001
00000100
00000000
00000010
00000000
00000100
00000000
,
00000010
00000000
00000000
00010000
00000000
00000000
00001000
00000000
00000000
00000000
00000000
00000000
01000000
00000000
00000000
00000000
,
00010000
10000000
01000000
00000000
10000000
00000000
00010000
00000000
,
01000000
00000000
00000000
00001000
00000000
00000000
00010000
00000000
00000000
00000000
00000000
00000000
00000100
00000000
00000000
00000000
,
00001000
00000001
00000100
00000000
00000011
00000000
00001100
00000000
,
00000010
00000000
00000000
00010000
00000000
00000000
00001000
00000000
00000000
00000000
00000000
00000000
00100000
00000000
00000000
00000000
,
00000000
00000000
00000000
10000000
01000000
00010000
00001000
00000100
,
00000002
00000000
00000000
00000003
,
00001000
00000000
00000000
00000010
00000100
00000000
00000001
00000000
00000010
00000000
00000000
00001000
00010000
00000000
00100000
00000000
,
10000000
00000000
00000000
00010000
10000000
00000000
01000000
00000000
00100000
00000000
00000000
00010000
10000000
00000000
01000000
00000000
,
00010000
00000000
00000000
00001000
00000100
00000000
00000010
00000000
00000100
00000000
00000000
00000001
00001000
00000000
00000100
00000000
,
00000010
00000000
00000001
00000000
00000100
00000000
00000001
00000100
,
00001000
00000000
00010000
00000000
01000000
00000000
00010000
01000000
,
10000000
00100000
00010000
00001000
,
00000100
00001000
00010000
00010000
01000000
00010000
00001000
00000000
,
00011000
00000000
00000000
00000000
01000000
00000000
00000000
00000000
10000000
00000000
00000000
00000000
00010000
01000000
00000000
00000000
,
00010000
00000000
00000000
00000000
10000000
00000000
00000000
00000000
01000000
00000000
00000000
00000000
00010000
00001000
00000000
00000000
,
00000100
00000000
00000000
00000000
00000001
00000000
00000000
00000000
00000010
00000000
00000000
00000000
00001000
00010000
00001000
00000000
,
00010000
00000000
00000000
00000000
00100000
00000000
00000000
00000000
10000000
00000000
00000000
00000000
01000000
00010000
01000000
00000000
,
00010000
00000000
00000000
00000000
00001000
00000000
00000000
00000000
00000100
00000000
00000000
00000000
00001000
00010000
00001000
00010000
,
00001000
00000000
00000000
00000000
00100000
00000000
00000000
00000000
01000000
00000000
00000000
00000000
00010000
00001000
00010000
00001000
,
00010000
00000010
00000100
00001000
,
00010000
00010000
01000000
10000000
00100000
01000000
10010000
00000000
,
00100000
10000000
01000000
00000000
00010000
00001000
00000100
00000000
,
00000001
00001000
00000100
00000100
00001000
00000010
00000100
00000000
,
00000010
00000001
00000100
00000000
00001000
00010000
01000000
00000000
,
01000000
10000000
01000000
00010000
00001000
00000010
00000001
00000000
,
00000010
00000001
00000100
00000000
00000001
00000100
00001000
00000000
,
00000100
00000001
00000100
00001000
00010000
00100000
10000000
00000000
,
00100000
10000000
01000000
10000000
01000000
00010000
00100000
00000000
,
00000000
00000000
00000000
00100000
00001000
00010000
00000100
00001000
,
00000020
00000000
00000000
00000100
00000000
00000100
00000000
00000100
,
00000000
00000000
00000000
00000000
,
00000030
00000000
00000000
00000000
;

//---------------dance-single - ----------------
#NOTES:
     dance-single:
     :
     Hard:
     8:
     0.563,0.595,0.440,0.022,0.259:
0000
0000
0000
0000
,
0000
0000
0000
0000
,
0000
0000
0000
0000
,
0000
0000
0000
0000
0000
0000
0000
0000
0001
1000
0001
1000
0001
0000
0000
0000
,
0100
0001
1000
0010
0100
1000
0001
0010
,
0010
0001
1000
0100
0010
1000
0001
0010
,
0100
0001
1000
0010
0100
1000
0001
0010
,
0010
0001
1000
0100
0010
0001
1000
0010
,
0100
0001
1000
0010
0100
1000
0001
0010
,
0010
0100
0001
1000
0010
0100
0001
0010
,
0100
0001
1000
0010
0100
0001
1000
0010
,
0010
0001
0100
1000
0010
0001
0100
0010
,
1000
0001
0000
0101
0000
1001
0000
1100
,
0000
0000
0110
0000
0000
0000
0011
0000
0000
1000
0100
1000
0001
0000
0100
0001
,
0000
1010
0000
0101
0000
0011
0000
0110
,
0000
0000
1100
0000
0000
0000
1001
0000
0000
0001
0100
0001
1000
0000
0100
1000
,
0000
0011
0000
0110
0000
1010
0000
0101
,
0000
0000
1100
0000
0000
0000
1001
0000
0000
1000
0100
1000
0001
0000
0100
0010
,
0000
1001
0000
0110
0000
1001
0000
0110
,
0100
0001
0100
0001
0100
0001
0100
0001
0100
0000
0001
0000
1000
0000
0000
0000
,
0001
0100
1000
0100
0001
0010
1000
0100
,
1100
0101
0011
1010
,
0001
0100
1000
0010
0100
0001
1000
0010
,
0001
0010
1000
0001
0110
0000
1001
0000
,
1000
0100
0001
0100
1000
0001
0010
0100
,
0010
0000
0000
1000
0000
0000
0100
0000
0001
0000
0100
0000
1000
0000
0100
0000
,
0001
0000
0000
0010
0000
0000
0100
0000
0000
0000
0000
0000
0000
0000
0000
0000
,
0000
0000
0000
0010
1000
0001
0100
0010
,
0200
0000
0000
0300
,
0001
0000
0000
0001
0000
0000
0001
0000
0000
0001
0000
0000
0001
0000
0001
0000
,
0100
0000
0000
0100
0000
0000
0100
0000
0000
0100
0000
0000
0100
0000
0100
0000
,
1000
0000
0000
1000
0000
0000
1000
0000
0000
1000
0000
0000
1000
0000
1000
0000
,
0001
0000
0000
0001
0000
0000
0100
0000
0001
0000
0000
0001
0000
0000
0100
0000
,
1000
0000
0000
1000
0000
0000
0100
0000
1000
0000
0000
1000
0000
0000
0100
0000
,
0010
0000
1000
0001
0000
0000
0100
0000
0010
0000
1000
0001
0000
0000
0010
0000
,
0100
1000
0100
1000
0000
0000
0001
0100
0001
0100
0001
0100
0000
0000
0000
0000
,
0001
0000
0010
0000
1000
0000
0100
0100
,
0100
0001
0100
1000
,
0010
0001
0000
0011
0000
1001
0000
1100
,
0000
0000
0110
0000
0000
0000
0011
0000
0000
1000
0010
1000
0010
0000
0100
0001
,
0100
1000
0010
0001
,
0100
0000
0000
0000
0010
0000
0000
0000
0000
0000
1000
0100
1000
0100
1000
0000
,
0001
0010
1000
0100
,
0001
0100
0001
0100
0001
0100
0001
0100
0001
0000
1000
0000
0010
0000
0000
0000
,
0100
0000
0001
0000
1000
0000
0100
0000
0010
0000
0000
0011
0000
0000
0000
0000
,
0100
1000
0001
0100
0010
1000
0001
0000
,
0010
0000
1000
0000
0010
0000
0001
0000
1000
0000
0000
0101
0000
0000
0000
0000
,
0010
0001
0010
1000
0001
1000
0100
0010
,
0001
0000
0000
1100
0000
0000
0000
0000
0010
0000
0001
0000
0100
0000
1000
0000
,
1100
0101
0011
1010
,
0100
0000
0000
0001
0000
0000
0010
0000
0000
0000
0000
0000
0000
0000
0000
0000
,
0000
0000
0000
0010
0001
1000
0100
0010
,
0120
0000
0000
0100
0000
0100
0000
0100
,
0000
0000
0000
0000
,
0000
0030
0000
0000
0000
0000
0000
0000
;
