#TITLE:butterfly;
#SUBTITLE:(UPSWING MIX);
#ARTIST:SMILE.dk;
#TITLETRANSLIT:;
#SUBTITLETRANSLIT:;
#ARTISTTRANSLIT:;
#CREDIT:;
#BANNER:butterfly (UPSWING MIX).png;
#BACKGROUND:butterfly (UPSWING MIX)-bg.png;
#LYRICSPATH:;
#CDTITLE:Dance Dance Revolution 3rd Mix.png;
#MUSIC:butterfly (UPSWING MIX).ogg;
#OFFSET:0.000;
#SAMPLESTART:7.058;
#SAMPLELENGTH:15.000;
#SELECTABLE:YES;
#DISPLAYBPM:170.000;
#BPMS:0.000=170.009;
#STOPS:;
#BGCHANGES:3.75=butterfly (UPSWING MIX).avi=1=1=0=0;

//---------------dance-single - ----------------
#NOTES:
     dance-single:
     :
     Beginner:
     1:
     :
0000
0000
0000
0000
,
0000
0000
0000
0000
,
0000
0000
0000
0000
,
0000
0000
0000
0000
,
0000
0000
0000
0000
,
0001
0001
0001
0000
,
1000
1000
1000
0000
,
0010
0000
0100
0000
,
0001
0001
0001
0000
,
1000
1000
1000
0000
,
0001
0001
0001
0000
,
0010
0000
0100
0000
,
1000
1000
1000
0000
,
0001
0000
0000
0000
,
0010
0000
0000
0000
,
1000
0000
0000
0000
,
0100
0100
0100
0000
,
0001
0000
0000
0000
,
0100
0000
0000
0000
,
1000
0000
0000
0000
,
0010
0010
0010
0000
,
0000
0000
0000
0000
,
0001
0000
0000
0001
,
0001
0000
0000
1000
,
1000
0000
0100
0000
,
0010
0010
0010
0000
,
1000
0000
0000
1000
,
1000
0000
0000
0001
,
0001
0000
0100
0000
,
0010
0010
0010
0000
,
0001
0001
0001
0000
,
0100
0100
0100
0000
,
0010
0000
0010
0000
,
1000
1000
1000
0000
,
1000
1000
1000
0000
,
0100
0100
0100
0000
,
0010
0000
0010
0000
,
0001
0001
0001
0000
,
0010
0000
0000
0000
,
1000
0000
0000
0000
,
0100
0000
0000
0000
,
0001
0001
0001
0000
,
0010
0000
0000
0000
,
0001
0000
0000
0000
,
0100
0000
0000
0000
,
1000
1000
1000
0000
,
1000
0000
0000
0010
,
0010
0000
0000
0100
,
0100
0000
0001
0000
,
1000
1000
1000
0000
,
0001
0000
0000
0010
,
0010
0000
0000
0100
,
0100
0000
1000
0000
,
0001
0001
0001
0000
,
0010
0010
0010
0000
,
1000
1000
1000
0000
,
0001
0000
1000
0000
,
0100
0100
0100
0000
,
0010
0010
0010
0000
,
0001
0001
0001
0000
,
1000
0000
0001
0000
,
0100
0100
0100
0000
,
1001
0000
0000
0000
;

//---------------dance-single - ----------------
#NOTES:
     dance-single:
     :
     Easy:
     4:
     :
0000
0000
0000
0000
,
0000
0000
0000
0000
,
0000
0000
0000
0000
,
0000
0000
0000
0000
,
0000
0000
0000
0000
,
0001
1000
0010
0110
,
0001
0010
1000
1001
,
0001
0001
1000
1000
,
0001
0100
1000
1001
,
0001
1000
0010
0110
,
0001
0010
1000
1001
,
0010
0010
0100
0100
,
0001
1000
1000
1001
,
0001
0000
0001
0000
,
1000
0000
1000
0000
,
0001
0010
0100
1000
,
0001
1000
0100
1001
,
0001
0000
0001
0000
,
0100
0000
0100
0000
,
0010
1000
0001
0100
,
1000
0010
0100
1001
,
0000
0000
0000
0000
,
0001
0000
1000
1001
,
0001
0000
1000
1001
,
0001
1000
1000
0010
,
0100
0001
1000
1001
,
1000
0000
0001
1001
,
1000
0000
0001
1001
,
0010
1000
0001
0010
,
0100
0001
1000
1001
,
0001
1000
0010
0110
,
0001
0010
1000
1001
,
0010
0010
1000
1000
,
0001
0100
1000
1001
,
0001
1000
0010
0110
,
0001
0010
1000
1001
,
0001
0001
0010
0010
,
0001
0100
1000
1001
,
0010
0000
0010
0000
,
1000
0000
1000
0000
,
0001
0100
1000
0010
,
0001
1000
0100
1001
,
1000
0000
1000
0000
,
0100
0000
0100
0000
,
0010
0001
1000
0100
,
0001
1000
0100
1001
,
0001
0000
1000
1001
,
0001
0000
0001
1001
,
1000
0001
0001
0100
,
0010
0001
1000
1001
,
0001
0000
0001
1001
,
1000
0000
0001
1001
,
1000
0001
0100
1000
,
0100
0001
1000
1001
,
0001
1000
0010
0110
,
0001
0100
1000
1001
,
0001
0100
0010
1000
,
0001
1000
0100
1001
,
0001
1000
0010
0110
,
0001
1000
0100
1001
,
0001
1000
0010
1000
,
0001
0100
1000
1001
,
0010
0000
0000
0000
;

//---------------dance-single - ----------------
#NOTES:
     dance-single:
     :
     Medium:
     6:
     :
0000
0000
0000
0000
,
0000
0000
0000
0000
,
0000
0000
0000
0000
,
0000
0000
0000
0000
,
0000
0000
0000
0000
,
0001
0000
1000
0000
0010
0100
0001
0000
,
0010
0000
0001
0000
1000
0010
1001
0000
,
0010
1000
0100
0000
0001
0100
0010
0000
,
0010
1000
0100
1000
0100
0000
1001
0000
,
0010
0000
0001
0000
0010
0100
1000
0000
,
0001
0000
1000
0000
1000
0100
1001
0000
,
0001
1000
0100
0000
0010
0001
0100
0000
,
0010
1000
0100
1000
0100
0000
1001
0000
,
0001
0000
0001
0000
,
1000
0000
1000
0000
,
1000
1010
1000
1001
,
1000
0100
0010
0001
1000
0000
0000
0000
,
1000
0000
1000
0000
,
0001
0000
0001
0000
,
0001
0011
0001
1001
,
0001
0100
0010
1000
0001
0000
0000
0000
,
0000
0000
0000
0000
,
0001
0000
1000
0000
0010
0100
0001
0000
,
0010
0000
1000
0000
0001
0100
1000
0000
,
0001
0000
0100
0000
1000
0010
0100
0000
,
1000
0100
0010
0100
1000
0000
1001
0000
,
0010
0000
0001
0000
1000
0100
0001
0000
,
1000
0000
0001
0000
1000
0100
0001
0000
,
0010
0000
1000
0000
0001
0010
0100
0000
,
0001
0010
0100
0010
0001
0000
1001
0000
,
0001
0000
1000
0000
0010
1000
0100
0000
,
0010
0000
0001
0000
0100
0010
1001
0000
,
0010
0100
0001
0000
0010
0100
1000
0000
,
0001
1000
0100
0010
0001
0000
1001
0000
,
0001
0000
1000
0000
0010
0100
0001
0000
,
0010
0000
0001
0000
1000
0010
1001
0000
,
0010
1000
0100
0000
0001
0100
0010
0000
,
0010
1000
0100
1000
0100
0000
1001
0000
,
0010
0000
0010
0000
,
1000
0000
1000
0000
,
0010
1010
0010
0011
,
0001
0010
0100
1000
0001
0000
0000
0000
,
1000
0000
1000
0000
,
0001
0000
0001
0000
,
0010
1010
0010
0011
,
0010
0001
1000
0100
0001
0000
0000
0000
,
0001
0000
1000
0000
0010
0100
0001
0000
,
0010
0000
1000
0000
0001
0100
1000
0000
,
0010
0100
0001
0000
0010
0100
1000
0000
,
0001
1000
0100
1000
0100
0000
1001
0000
,
0001
0000
1000
0000
0010
0100
0001
0000
,
0010
0000
1000
0000
0001
0100
1000
0000
,
0010
0100
0001
0000
0010
0100
1000
0000
,
0001
1000
0100
1000
0100
0000
1001
0000
,
0001
0000
1000
0000
0001
0100
0010
0000
,
1000
0000
0001
0000
0100
0010
1001
0000
,
0010
1000
0100
0000
0010
0001
0100
0000
,
1000
0001
0010
0100
0010
0000
1001
0000
,
0010
0000
0100
0000
0001
1000
0100
0000
,
0010
0000
0001
0000
1000
0001
1001
0000
,
0010
1000
0001
0000
0010
0100
1000
0000
,
0001
1000
0100
0010
0100
0000
1001
0000
,
0010
0000
0000
0000
;

//---------------dance-single - ----------------
#NOTES:
     dance-single:
     :
     Hard:
     8:
     :
0000
0000
0000
0000
,
0000
0000
0000
0000
,
0000
0000
0000
0000
,
0000
0000
0000
0000
,
0000
0000
0000
0000
,
1000
1000
0001
0100
1000
0000
0010
0001
,
1000
0100
0010
0001
1000
0000
1001
0000
,
0010
0000
0010
0100
1000
0000
0010
1000
,
0001
0010
0100
1000
0001
0000
1001
0000
,
1000
1000
0001
0100
1000
0000
0010
0001
,
1000
0100
0010
0001
1000
0000
1001
0000
,
0010
0000
0010
0100
1000
0000
0100
0001
,
1000
0010
0100
0001
1000
0000
1001
0000
,
1000
1000
1100
1100
,
0001
0001
0101
0101
,
1001
1001
1001
1001
,
1000
0001
0100
0010
1000
0000
1001
0000
,
1000
1000
1100
1100
,
0001
0001
0101
0101
,
1001
1001
1001
1001
,
1000
0001
0100
0010
1000
0000
1001
0000
,
0000
0000
0000
0000
0000
0000
0010
0100
,
1000
0001
0010
1001
,
0010
0001
1000
0100
0001
0000
1001
0000
,
0010
1000
0001
0100
0010
1000
0001
0000
,
1000
0100
0010
0001
1000
0000
1001
0000
,
0010
0001
1000
0010
1000
0000
1001
0000
,
0010
0001
1000
0100
0001
0000
1001
0000
,
0010
0001
1000
0100
0010
0001
1000
0000
,
0001
0100
0010
1000
0001
0000
1001
0000
,
1000
1000
0001
0100
1000
0000
0010
0001
,
1000
0100
0010
0001
1000
0000
1001
0000
,
0010
0000
0010
0100
1001
0000
0100
1000
,
0001
0010
0100
1000
0001
0000
1001
0000
,
1000
1000
0001
0100
1000
0000
0010
0001
,
1000
0100
0010
0001
1000
0000
1001
0000
,
0010
0000
0010
0100
1001
0000
0100
0001
,
1000
0010
0100
0001
1000
0000
1001
0000
,
1000
1000
1100
1100
,
0001
0001
0101
0101
,
1001
1001
1001
1001
,
1000
0001
0100
0010
1000
0000
1001
0000
,
1000
1000
1100
1100
,
0001
0001
0101
0101
,
1001
1001
1001
1001
,
1000
0001
0100
0010
1000
0000
0000
0000
,
0001
1000
0001
0100
0010
0000
1001
0000
,
0010
1000
0001
0100
1000
0000
1001
0000
,
0010
0001
1000
0100
0001
1000
0001
0000
,
0001
0100
0010
1000
0001
0000
1001
0000
,
0010
1000
0001
0010
0001
0000
1001
0000
,
0010
1000
0001
0100
1000
0000
1001
0000
,
0010
1000
0001
0010
1000
0100
0001
0000
,
1000
0100
0010
0001
1000
0000
1001
0000
,
0001
0001
1000
0100
0001
0000
0010
1000
,
0001
0100
0010
1000
0001
0000
1001
0000
,
0010
0000
0010
0100
1001
0000
0100
1000
,
0001
0010
0100
1000
0001
0000
1001
0000
,
0001
0001
1000
0100
0001
0000
0010
1000
,
0001
0100
0010
1000
0001
0000
1001
0000
,
0010
0000
0010
0100
1001
0000
0100
0001
,
1000
0010
0100
0001
1000
0000
1001
0000
,
0010
0000
0000
0000
;

//---------------dance-single - ----------------
#NOTES:
     dance-single:
     :
     Challenge:
     9:
     :
0000
0000
0000
0000
,
0000
0000
0000
0000
,
0000
0000
0000
0000
,
0000
0000
0000
0000
,
0000
0000
0000
0000
,
0010
0100
0010
1000
0001
1000
0001
0010
,
0100
1000
0001
0000
1000
0010
0010
0000
,
1000
0100
0001
0100
1000
0001
1000
0001
,
0010
0100
0110
0000
0001
1000
1000
0000
,
0100
0100
0100
0001
1000
1000
0001
0100
,
0010
1000
1010
0000
0001
0100
0100
0000
,
0001
0010
1000
0010
0001
1000
1000
0001
,
0100
0010
0110
0000
1000
0001
0001
0000
,
0100
0001
0100
1000
0100
0001
0100
1000
,
0001
0010
0001
0100
0001
0010
0001
0100
,
0100
1000
0100
0001
0100
1000
0100
0001
,
1000
0010
0100
1001
,
0100
1000
0100
0001
0100
1000
0100
0001
,
1000
0010
1000
0100
1000
0010
1000
0100
,
0100
0001
0100
1000
0100
0001
0100
1000
,
0001
0010
0100
1001
,
0000
0000
0000
0000
0000
0000
0100
0010
,
0100
0000
0000
0010
1000
0000
0001
0000
0100
0000
0000
0000
1001
0000
0000
0000
,
0010
0000
0000
0100
0001
0000
1000
0000
0010
0000
0000
0000
1001
0000
0000
0000
,
0100
0000
0100
0010
1000
0001
0100
0010
,
1000
1000
1000
0001
0100
0010
0010
0000
,
0010
0000
0000
0100
0001
0000
1000
0000
0010
0000
0000
0000
1001
0000
0000
0000
,
0100
0000
0000
0010
1000
0000
0001
0000
0100
0000
0000
0000
1001
0000
0000
0000
,
0010
0000
0010
0100
0001
1000
0010
0100
,
0001
0001
0001
1000
0010
1000
1001
0000
,
0010
0010
0010
1000
0001
0001
1000
0010
,
0100
0001
0101
0000
1000
0010
0010
0000
,
1000
0100
0001
0100
1000
0001
0001
1000
,
0010
0100
0110
0000
0001
1000
1000
0000
,
0100
0100
0100
0001
1000
1000
0001
0100
,
0010
1000
1010
0000
0001
0100
0100
0000
,
0001
0010
1000
0010
0001
1000
1000
0001
,
0100
0010
0110
0000
1000
0001
0001
0000
,
0100
0001
0100
1000
0100
0001
0100
1000
,
0001
0010
0001
0100
0001
0010
0001
0100
,
0100
1000
0100
0001
0100
1000
0100
0001
,
1000
0010
0100
1001
,
0100
1000
0100
0001
0100
1000
0100
0001
,
1000
0010
1000
0100
1000
0010
1000
0100
,
0100
0001
0100
1000
0100
0001
0100
1000
,
0001
0010
0100
1001
,
0100
0000
0000
0010
1000
0000
0001
0000
0100
0000
0000
0000
1001
0000
0000
0000
,
0010
0000
0000
0100
0001
0000
1000
0000
0010
0000
0000
0000
1001
0000
0000
0000
,
0100
0000
0100
0010
1000
0001
0100
0010
,
1000
1000
1000
0001
0100
0010
0010
0000
,
0010
0000
0000
0100
0001
0000
1000
0000
0010
0000
0000
0000
1001
0000
0000
0000
,
0100
0000
0000
0010
1000
0000
0001
0000
0100
0000
0000
0000
1001
0000
0000
0000
,
0010
0000
0010
0100
0001
1000
0010
0100
,
0001
0001
0001
1000
0010
1000
1001
0000
,
0010
0010
0010
1000
0001
0001
1000
0010
,
0100
0001
0101
0000
1000
0010
0010
0000
,
1000
0100
0001
0100
1000
0001
0001
1000
,
0010
0100
0110
0000
0001
1000
1000
0000
,
0100
0100
0100
0001
1000
1000
0001
0100
,
0010
1000
1010
0000
0001
0100
0100
0000
,
0001
0010
1000
0010
0001
1000
1000
0001
,
0100
0010
0100
0001
1000
0010
0100
0000
,
1001
0000
0000
0000
;

//---------------dance-double - ----------------
#NOTES:
     dance-double:
     :
     Easy:
     4:
     :
00000000
00000000
00000000
00000000
,
00000000
00000000
00000000
00000000
,
00000000
00000000
00000000
00000000
,
00000000
00000000
00000000
00000000
,
00000000
00000000
00000000
00000000
,
00010000
10000000
01000000
01100000
,
00001000
00010000
00001000
00011000
,
00000010
00001000
00010000
00000100
,
00010000
00001000
00010000
00011000
,
00100000
01000000
10000000
01100000
,
01000000
00001000
00010000
00011000
,
00000010
00000100
00001000
00000100
,
00010000
00000100
00010000
00011000
,
00000001
00000100
00001000
00000100
,
00010000
00100000
10000000
01000000
,
00100000
00010000
01000000
00001000
,
00010000
00001000
00010000
00011000
,
00100000
00010000
01000000
00001000
,
00000010
00000001
00000100
00000000
,
00001000
00010000
01000000
10000000
,
00100000
01000000
00010000
00011000
,
00000000
00000000
00000000
00000000
,
00100000
00000000
10000000
10010000
,
00001000
00000000
00010000
00011000
,
00000010
00000001
00000001
00000100
,
00000010
00010000
00001000
00011000
,
00100000
00000000
10000000
10010000
,
00001000
00000000
00010000
00011000
,
00001000
00000010
00000010
00001000
,
00000100
00010000
00001000
00011000
,
00010000
01000000
00100000
10010000
,
00010000
01000000
00010000
00011000
,
00000010
00000010
00001000
00001000
,
00000001
00000010
00000100
00011000
,
00010000
01000000
00100000
10010000
,
00010000
01000000
00010000
00011000
,
00000010
00000010
00001000
00001000
,
00000001
00000010
00000100
00011000
,
00100000
01000000
10000000
00010000
,
01000000
00001000
00000010
00000001
,
00000100
00000010
00001000
00000100
,
00010000
00001000
00010000
00011000
,
00000010
00000100
00000001
00001000
,
00000100
00010000
00100000
10000000
,
01000000
00100000
00010000
01000000
,
00001000
00010000
00001000
00011000
,
00100000
00000000
10000000
10010000
,
00100000
00000000
00001000
00011000
,
00000010
00000100
00000100
00000001
,
00000010
00000100
00001000
00011000
,
00100000
00000000
10000000
10010000
,
00100000
00000000
00001000
00011000
,
00000010
00001000
00001000
00000100
,
00000010
00000001
00000100
00011000
,
00010000
01000000
00100000
10010000
,
00010000
01000000
00001000
00011000
,
00000010
00000010
00001000
00001000
,
00000001
00000010
00000100
00011000
,
00010000
01000000
00100000
10010000
,
00010000
01000000
00001000
00011000
,
00000010
00001000
00000100
00000010
,
00000001
00000010
00000100
00011000
,
00000010
00000000
00000000
00000000
;

//---------------dance-double - ----------------
#NOTES:
     dance-double:
     :
     Medium:
     7:
     :
00000000
00000000
00000000
00000000
,
00000000
00000000
00000000
00000000
,
00000000
00000000
00000000
00000000
,
00000000
00000000
00000000
00000000
,
00000000
00000000
00000000
00000000
,
00001000
00000000
00010000
00000000
00001000
00010000
01000000
00000000
,
00010000
00000000
00001000
00000000
00010000
00001000
00000100
00000000
,
00010000
00001000
00000100
00000000
00001000
00000100
00000010
00000000
,
00001000
00000001
00000010
00000100
00001000
00000000
00011000
00000000
,
00010000
00000000
00001000
00000000
00010000
00001000
00000100
00000000
,
00001000
00000000
00010000
00000000
00001000
00010000
01000000
00000000
,
00001000
00010000
01000000
00000000
00010000
01000000
00100000
00000000
,
00010000
10000000
00100000
01000000
00010000
00000000
00011000
00000000
,
00010000
00010000
00010000
00000000
,
00001000
00001000
00001000
00000000
,
00010000
00001000
00000100
00001000
00010000
00001000
00000100
00000000
,
00001000
00000001
00000100
00000000
,
00000100
00000100
00000100
00000000
,
00010000
00010000
00010000
00000000
,
00001000
00010000
01000000
00010000
00001000
00010000
01000000
00000000
,
00010000
10000000
01000000
00000000
,
00000000
00000000
00000000
00000000
,
00010000
00000000
10000000
00000000
00100000
01000000
01000000
00000000
,
00001000
00000000
00010000
00000000
00000100
00010000
00010000
00000000
,
00010000
00000100
00000010
00000000
00000001
00000100
00000010
00000000
,
00010000
00001000
00000100
00001000
00010000
00000000
00011000
00000000
,
00010000
00000000
10000000
00000000
00100000
01000000
01000000
00000000
,
00001000
00000000
00010000
00000000
00000100
00010000
00010000
00000000
,
00010000
00000100
00000010
00000000
00000001
00000100
00000010
00000000
,
00010000
00001000
00000100
00001000
00010000
00000000
00011000
00000000
,
00010000
00000000
00001000
00000000
00010000
00001000
00000100
00000000
,
00001000
00000000
00010000
00000000
00001000
00010000
01000000
00000000
,
00001000
00010000
01000000
00000000
00010000
01000000
00100000
00000000
,
00010000
10000000
00100000
01000000
00010000
00000000
00011000
00000000
,
00001000
00000000
00010000
00000000
00001000
00010000
01000000
00000000
,
00010000
00000000
00001000
00000000
00010000
00001000
00000100
00000000
,
00010000
00001000
00000100
00000000
00001000
00000100
00000010
00000000
,
00001000
00000001
00000010
00000100
00001000
00000000
00011000
00000000
,
00010000
00010000
00010000
00000000
,
00001000
00001000
00001000
00000000
,
00010000
00001000
00000100
00001000
00010000
00001000
00000100
00000000
,
00001000
00000001
00000100
00000000
,
00000100
00000100
00000100
00000000
,
00010000
00010000
00010000
00000000
,
00001000
00010000
01000000
00010000
00001000
00010000
01000000
00000000
,
00010000
10000000
01000000
00000000
,
00010000
00000000
10000000
00000000
00100000
01000000
01000000
00000000
,
00001000
00000000
00010000
00000000
00000100
00010000
00010000
00000000
,
00010000
00001000
00000100
00000000
00001000
00000100
00000010
00000000
,
00001000
00000001
00000010
00000100
00001000
00000000
00011000
00000000
,
00010000
00000000
10000000
00000000
00100000
01000000
01000000
00000000
,
00001000
00000000
00010000
00000000
00000100
00010000
00010000
00000000
,
00001000
00010000
01000000
00000000
00010000
01000000
00100000
00000000
,
00010000
10000000
00100000
01000000
00010000
00000000
00011000
00000000
,
00001000
00000000
01000000
00000000
00001000
00010000
01000000
00000000
,
00010000
00000000
00000100
00000000
00010000
00001000
00000100
00000000
,
00010000
00001000
00000100
00000000
00001000
00000100
00000010
00000000
,
00001000
00000001
00000010
00000100
00000010
00000000
00011000
00000000
,
00010000
00000000
00000100
00000000
00010000
00001000
00000100
00000000
,
00001000
00000000
01000000
00000000
00001000
00010000
01000000
00000000
,
00001000
00010000
01000000
00000000
00010000
01000000
00100000
00000000
,
00010000
10000000
00100000
01000000
00100000
00000000
00011000
00000000
,
00000100
00000000
00000000
00000000
;

//---------------dance-double - ----------------
#NOTES:
     dance-double:
     :
     Hard:
     8:
     :
00000000
00000000
00000000
00000000
,
00000000
00000000
00000000
00000000
,
00000000
00000000
00000000
00000000
,
00000000
00000000
00000000
00000000
,
00000000
00000000
00000000
00000000
,
10000000
01000000
00010000
00001000
01000000
00000000
00010000
00001000
,
00000100
00000001
00000010
00000100
00001000
00000000
00001001
00000000
,
00000010
00000000
00000010
00000100
00000001
00000000
00000001
00000100
,
00001000
00010000
01000000
10000000
00010000
00000000
10010000
00000000
,
10000000
01000000
00010000
00001000
01000000
00000000
00010000
00001000
,
00000100
00000001
00000010
00000100
00001000
00000000
00001001
00000000
,
00000010
00000000
00000010
00000100
00000001
00000000
00000001
00000100
,
00001000
00010000
01000000
10000000
00010000
00000000
10010000
00000000
,
00100000
00000000
00100000
00000000
,
00010000
00000000
01000000
01000000
,
00100000
10000000
01000000
00010000
00001000
00000100
00000001
00000010
,
00000001
00000100
00000010
00001000
00000001
00000000
00000000
00000000
,
00000010
00000000
00000010
00000000
,
00001000
00000000
00000100
00000100
,
00000010
00000001
00000100
00001000
00010000
01000000
10000000
00100000
,
10000000
00010000
01000000
00100000
10000000
00000000
00000000
00000000
,
00000000
00000000
00000000
00000000
00000000
00000000
00001000
00010000
,
00001000
00100000
01000000
10010000
,
00100000
00010000
00000100
00000001
00001000
00000000
00001001
00000000
,
00010000
00001000
00000100
00000001
00001000
00000100
00000001
00000000
,
00000100
00001000
00000001
00001000
00000100
00000000
00001001
00000000
,
00000010
00000100
00010000
00100000
10000000
00000000
10010000
00000000
,
00001000
00010000
01000000
10000000
00010000
00000000
10010000
00000000
,
00100000
01000000
00010000
00001000
00000010
00001000
00000001
00000000
,
00000001
00000100
00000010
00001000
00000001
00000000
00001001
00000000
,
00000001
00000100
00001000
00010000
00000100
00000000
00001000
00010000
,
01000000
10000000
00100000
01000000
00010000
00000000
10010000
00000000
,
00100000
00000000
00100000
01000000
10000000
00000000
10000000
01000000
,
00010000
00001000
00000100
00000001
00001000
00000000
00001001
00000000
,
00000001
00000100
00001000
00010000
00000100
00000000
00001000
00010000
,
01000000
10000000
00100000
01000000
00010000
00000000
10010000
00000000
,
00100000
00000000
00100000
01000000
10000000
00000000
10000000
01000000
,
00010000
00001000
00000100
00000001
00001000
00000000
00001001
00000000
,
00000010
00000000
00000010
00000000
,
00000001
00000000
00001001
00001001
,
00000010
00000001
00000100
00001000
00010000
01000000
10000000
00100000
,
10000000
01000000
00100000
00010000
10000000
00000000
00000000
00000000
,
00100000
00000000
00100000
00000000
,
00010000
00000000
10010000
10010000
,
00100000
10000000
01000000
00010000
00001000
00000100
00000001
00000010
,
00000001
00001000
00000100
00000010
00000001
00000000
00000000
00000000
,
00000001
00000100
00001000
00010000
01000000
00000000
10010000
00000000
,
10000000
01000000
00010000
00001000
00000100
00000000
00001001
00000000
,
00000001
00001000
00000001
00000100
00000010
00000100
00000001
00000000
,
00000010
00000100
00001000
00010000
01000000
00000000
10010000
00000000
,
10000000
01000000
00010000
00001000
00000100
00000000
00001001
00000000
,
00000001
00000100
00001000
00010000
01000000
00000000
10010000
00000000
,
10000000
00010000
10000000
01000000
00100000
01000000
10000000
00000000
,
00100000
01000000
00010000
00001000
00000100
00000000
00001001
00000000
,
00000001
00000100
00001000
00010000
00000100
00000000
00010000
00001000
,
00010000
01000000
10000000
00010000
01000000
00000000
10010000
00000000
,
00100000
00000000
00100000
01000000
10000000
00000000
10000000
01000000
,
00010000
00001000
00000100
00000001
00001000
00000000
00001001
00000000
,
00000001
00000100
00001000
00010000
00000100
00000000
00010000
00001000
,
00010000
01000000
10000000
00010000
01000000
00000000
10010000
00000000
,
00100000
00000000
00100000
01000000
10000000
00000000
10000000
01000000
,
00010000
00001000
00000100
00000001
00001000
00000000
00001001
00000000
,
00000010
00000000
00000000
00000000
;

//---------------dance-double - ----------------
#NOTES:
     dance-double:
     :
     Challenge:
     9:
     :
00000000
00000000
00000000
00000000
,
00000000
00000000
00000000
00000000
,
00000000
00000000
00000000
00000000
,
00000000
00000000
00000000
00000000
,
00000000
00000000
00000000
00000000
,
10000000
00100000
00100000
01000000
00001000
00000000
00011000
00000000
,
00000010
00000100
00000100
00000001
00001000
00000000
00010010
00000000
,
00001000
01000000
00001000
00100000
00010000
00000000
10010000
00000000
,
01000000
00010000
01000000
00001000
00010000
00000000
00010010
00000000
,
00000100
00000010
00000010
00000001
00001000
00000000
00010100
00000000
,
00100000
01000000
01000000
10000000
00010000
00000000
00101000
00000000
,
00010000
00000100
00010000
00000010
00001000
00000000
00001001
00000000
,
00000100
00001000
00000100
00010000
00001000
00000000
00101000
00000000
,
01000000
00000000
00000000
00000000
00000000
00000000
00000000
00000000
00000000
10000000
00000000
00000000
01000000
00000000
00000000
00000000
10000000
00000000
00000000
00000000
00000000
00000000
00000000
00000000
00000000
01000000
00000000
00000000
10000000
00000000
00000000
00000000
01000000
00000000
00000000
00000000
00000000
00000000
00000000
00000000
00000000
10000000
00000000
00000000
01000000
00000000
00000000
00000000
10000000
00000000
00000000
00000000
00000000
00000000
00000000
00000000
00000000
01000000
00000000
00000000
10000000
00000000
00000000
00000000
,
00100000
00000000
00000000
00000000
00000000
00000000
00000000
00000000
00000000
10000000
00000000
00000000
00100000
00000000
00000000
00000000
10000000
00000000
00000000
00000000
00000000
00000000
00000000
00000000
00000000
00100000
00000000
00000000
10000000
00000000
00000000
00000000
00100000
00000000
00000000
00000000
00000000
00000000
00000000
00000000
00000000
10000000
00000000
00000000
00100000
00000000
00000000
00000000
10000000
00000000
00000000
00000000
00000000
00000000
00000000
00000000
00000000
00100000
00000000
00000000
10000000
00000000
00000000
00000000
,
00010000
00000000
00000000
00000000
00000000
00000000
00000000
00000000
00000000
10000000
00000000
00000000
00010000
00000000
00000000
00000000
10000000
00000000
00000000
00000000
00000000
00000000
00000000
00000000
00000000
00010000
00000000
00000000
10000000
00000000
00000000
00000000
00010000
00000000
00000000
00000000
00000000
00000000
00000000
00000000
00000000
10000000
00000000
00000000
00010000
00000000
00000000
00000000
10000000
00000000
00000000
00000000
00000000
00000000
00000000
00000000
00000000
00010000
00000000
00000000
10000000
00000000
00000000
00000000
,
00100000
01000000
00001000
00011000
,
00000010
00000000
00000000
00000000
00000000
00000000
00000000
00000000
00000000
00001000
00000000
00000000
00000010
00000000
00000000
00000000
00001000
00000000
00000000
00000000
00000000
00000000
00000000
00000000
00000000
00000010
00000000
00000000
00001000
00000000
00000000
00000000
00000010
00000000
00000000
00000000
00000000
00000000
00000000
00000000
00000000
00001000
00000000
00000000
00000010
00000000
00000000
00000000
00001000
00000000
00000000
00000000
00000000
00000000
00000000
00000000
00000000
00000010
00000000
00000000
00001000
00000000
00000000
00000000
,
00000001
00000000
00000000
00000000
00000000
00000000
00000000
00000000
00000000
00001000
00000000
00000000
00000001
00000000
00000000
00000000
00001000
00000000
00000000
00000000
00000000
00000000
00000000
00000000
00000000
00000001
00000000
00000000
00001000
00000000
00000000
00000000
00000001
00000000
00000000
00000000
00000000
00000000
00000000
00000000
00000000
00001000
00000000
00000000
00000001
00000000
00000000
00000000
00001000
00000000
00000000
00000000
00000000
00000000
00000000
00000000
00000000
00000001
00000000
00000000
00001000
00000000
00000000
00000000
,
00000100
00000000
00000000
00000000
00000000
00000000
00000000
00000000
00000000
00010000
00000000
00000000
00000100
00000000
00000000
00000000
00010000
00000000
00000000
00000000
00000000
00000000
00000000
00000000
00000000
00000100
00000000
00000000
00010000
00000000
00000000
00000000
00000100
00000000
00000000
00000000
00000000
00000000
00000000
00000000
00000000
00010000
00000000
00000000
00000100
00000000
00000000
00000000
00010000
00000000
00000000
00000000
00000000
00000000
00000000
00000000
00000000
00000100
00000000
00000000
00010000
00000000
00000000
00000000
,
00001000
00000000
00010000
01000000
10000000
00000000
10010000
00000000
,
10010000
00000000
00000000
00000000
00000000
00000000
00001000
00000001
,
00000100
00000000
00000010
00000000
00010000
00001000
01000000
00010000
,
10000000
00000000
00100000
00000000
01000000
00001000
00010000
00000100
,
00000010
00000010
00000010
00000001
00001000
00000000
00010100
00000000
,
01000000
01000000
01000000
00100000
00010000
00000000
10010000
00000000
,
00100000
00000000
01000000
00000000
00001000
00010000
00000010
00001000
,
00000001
00000000
00000100
00000000
00000010
00010000
00001000
00100000
,
01000000
01000000
01000000
10000000
00010000
00000000
00101000
00000000
,
00000010
00000010
00000010
00000100
00001000
00000000
00001001
00000000
,
00000001
00000010
00000010
00000100
00010000
00000000
00011000
00000000
,
00100000
01000000
01000000
10000000
00010000
00000000
00101000
00000000
,
00010000
00000100
00010000
00000010
00001000
00000000
00001001
00000000
,
00000100
00001000
00000100
00010000
00001000
00000000
00101000
00000000
,
01000000
00100000
00100000
10000000
00010000
00000000
01001000
00000000
,
00000010
00000100
00000100
00000001
00001000
00000000
00010010
00000000
,
00001000
01000000
00001000
00100000
00010000
00000000
10010000
00000000
,
01000000
00010000
01000000
00001000
00010000
00000000
00010010
00000000
,
00000100
00000000
00000000
00000000
00000000
00000000
00000000
00000000
00000000
00000001
00000000
00000000
00000100
00000000
00000000
00000000
00000001
00000000
00000000
00000000
00000000
00000000
00000000
00000000
00000000
00000100
00000000
00000000
00000001
00000000
00000000
00000000
00000100
00000000
00000000
00000000
00000000
00000000
00000000
00000000
00000000
00000001
00000000
00000000
00000100
00000000
00000000
00000000
00000001
00000000
00000000
00000000
00000000
00000000
00000000
00000000
00000000
00000100
00000000
00000000
00000001
00000000
00000000
00000000
,
00000010
00000000
00000000
00000000
00000000
00000000
00000000
00000000
00000000
00000001
00000000
00000000
00000010
00000000
00000000
00000000
00000001
00000000
00000000
00000000
00000000
00000000
00000000
00000000
00000000
00000010
00000000
00000000
00000001
00000000
00000000
00000000
00000010
00000000
00000000
00000000
00000000
00000000
00000000
00000000
00000000
00000001
00000000
00000000
00000010
00000000
00000000
00000000
00000001
00000000
00000000
00000000
00000000
00000000
00000000
00000000
00000000
00000010
00000000
00000000
00000001
00000000
00000000
00000000
,
00001000
00000000
00000000
00000000
00000000
00000000
00000000
00000000
00000000
00000001
00000000
00000000
00001000
00000000
00000000
00000000
00000001
00000000
00000000
00000000
00000000
00000000
00000000
00000000
00000000
00001000
00000000
00000000
00000001
00000000
00000000
00000000
00001000
00000000
00000000
00000000
00000000
00000000
00000000
00000000
00000000
00000001
00000000
00000000
00001000
00000000
00000000
00000000
00000001
00000000
00000000
00000000
00000000
00000000
00000000
00000000
00000000
00001000
00000000
00000000
00000001
00000000
00000000
00000000
,
00000010
00000100
00010000
00011000
,
00100000
00000000
00000000
00000000
00000000
00000000
00000000
00000000
00000000
00010000
00000000
00000000
00100000
00000000
00000000
00000000
00010000
00000000
00000000
00000000
00000000
00000000
00000000
00000000
00000000
00100000
00000000
00000000
00010000
00000000
00000000
00000000
00100000
00000000
00000000
00000000
00000000
00000000
00000000
00000000
00000000
00010000
00000000
00000000
00100000
00000000
00000000
00000000
00010000
00000000
00000000
00000000
00000000
00000000
00000000
00000000
00000000
00100000
00000000
00000000
00010000
00000000
00000000
00000000
,
10000000
00000000
00000000
00000000
00000000
00000000
00000000
00000000
00000000
00010000
00000000
00000000
10000000
00000000
00000000
00000000
00010000
00000000
00000000
00000000
00000000
00000000
00000000
00000000
00000000
10000000
00000000
00000000
00010000
00000000
00000000
00000000
10000000
00000000
00000000
00000000
00000000
00000000
00000000
00000000
00000000
00010000
00000000
00000000
10000000
00000000
00000000
00000000
00010000
00000000
00000000
00000000
00000000
00000000
00000000
00000000
00000000
10000000
00000000
00000000
00010000
00000000
00000000
00000000
,
01000000
00000000
00000000
00000000
00000000
00000000
00000000
00000000
00000000
00001000
00000000
00000000
01000000
00000000
00000000
00000000
00001000
00000000
00000000
00000000
00000000
00000000
00000000
00000000
00000000
01000000
00000000
00000000
00001000
00000000
00000000
00000000
01000000
00000000
00000000
00000000
00000000
00000000
00000000
00000000
00000000
00001000
00000000
00000000
01000000
00000000
00000000
00000000
00001000
00000000
00000000
00000000
00000000
00000000
00000000
00000000
00000000
01000000
00000000
00000000
00001000
00000000
00000000
00000000
,
00010000
00000000
00001000
00000100
00000001
00000000
00001001
00000000
,
00000100
00000000
00000010
00000000
00010000
00001000
01000000
00010000
,
10000000
00000000
00100000
00000000
01000000
00001000
00010000
00000100
,
00000010
00000010
00000010
00000001
00001000
00000000
00010100
00000000
,
01000000
01000000
01000000
00100000
00010000
00000000
10010000
00000000
,
00100000
00000000
01000000
00000000
00001000
00010000
00000010
00001000
,
00000001
00000000
00000100
00000000
00000010
00010000
00001000
00100000
,
01000000
01000000
01000000
10000000
00010000
00000000
00101000
00000000
,
00000010
00000010
00000010
00000100
00001000
00000000
00001001
00000000
,
00000001
00000100
00000100
00000010
00010000
00000000
00011000
00000000
,
01000000
00100000
00100000
10000000
00010000
00000000
01001000
00000000
,
00010000
00000010
00010000
00000100
00001000
00000000
00001001
00000000
,
00000010
00001000
00000010
00010000
00001000
00000000
01001000
00000000
,
00100000
01000000
01000000
10000000
00010000
00000000
00101000
00000000
,
00000100
00000010
00000010
00000001
00001000
00000000
00010100
00000000
,
00001000
00100000
00001000
01000000
00010000
00000000
10010000
00000000
,
00100000
00010000
00100000
00001000
00010000
00000000
00010100
00000000
,
00010010
00000000
00000000
00000000
;

//---------------dance-couple - ----------------
#NOTES:
     dance-couple:
     :
     Challenge:
     8:
     :
00000000
00000000
00000000
00000000
,
00000000
00000000
00000000
00000000
,
00000000
00000000
00000000
00000000
,
00000000
00000000
00000000
00000000
,
00000000
00000000
00000000
00000000
,
10001000
00001000
00000001
00000100
10001000
00000000
00000010
00000001
,
10001000
00000100
00000010
00000001
10001000
00000000
00001001
00000000
,
00010010
00000000
00000010
00000100
00011000
00000000
00000010
00001000
,
00010001
00000010
00000100
00001000
00010001
00000000
00001001
00000000
,
10000001
10000000
00010000
01000000
10000001
00000000
00100000
00010000
,
10000001
01000000
00100000
00010000
10000001
00000000
10010000
00000000
,
00101000
00000000
00100000
01000000
10001000
00000000
00100000
10000000
,
00011000
00100000
01000000
10000000
00011000
00000000
10010000
00000000
,
10000000
10000000
11000000
11000000
,
00000001
00000001
00000101
00000101
,
10011001
10011001
10011001
10011001
,
10001000
00010001
01000100
00100010
10001000
00000000
10011001
00000000
,
00001000
00001000
00001100
00001100
,
00010000
00010000
01010000
01010000
,
00001001
10010000
00001001
10010000
,
10001000
00010001
01000100
00100010
10001000
00000000
10011001
00000000
,
00000000
00000000
00000000
00000000
,
10000000
00000000
00010000
00000000
10000000
01000001
01000001
00000000
,
00100000
00000000
10000000
00000000
00010000
01000001
01000001
00000000
,
00100000
10000000
00010001
01000000
00100000
10000000
00010001
00000000
,
10000000
01000000
00100001
00010000
10000000
00000001
10010001
00000000
,
00001000
00000000
00000001
00000000
00001000
10000100
10000100
00000000
,
00000010
00000000
00001000
00000000
00000001
10000100
10000100
00000000
,
00000010
00001000
10000001
00000100
00000010
00001000
10000001
00000000
,
00001000
00000100
10000010
00000001
00001000
10000000
10001001
00000000
,
10000000
10000000
00010001
01000000
10000000
00000000
00100001
00010000
,
10000000
01000000
00100001
00010000
10000000
00000001
10010001
00000000
,
00100000
00000000
00100001
01000000
10010000
00000000
01000001
10000000
,
00010000
00100000
01000001
10000000
00010000
00000001
10010001
00000000
,
00001000
00001000
10000001
00000100
00001000
00000000
10000010
00000001
,
00001000
00000100
10000010
00000001
00001000
10000000
10001001
00000000
,
00000010
00000000
10000010
00000100
00001001
00000000
10000100
00001000
,
00000001
00000010
10000100
00001000
00000001
10000000
10001001
00000000
,
10000000
10000000
00001100
00001100
,
00000001
00000001
01010000
01010000
,
00001001
01010000
00001100
10010000
,
10001000
00010001
01000100
00100010
10001000
00000000
10011001
00000000
,
00010000
00001000
01011100
01011100
,
00000001
10000000
11000101
11000101
,
10010000
00001001
01100110
01100110
,
00000000
00000000
00000000
00111100
,
00010000
10000000
00100001
01000000
00010000
01000001
01000001
00000000
,
00100000
10000000
00010001
01000000
10000000
01000001
01000001
00000000
,
00100000
00010000
10000001
01000000
00010000
10000000
00010001
00000000
,
00010000
01000000
00100001
10000000
00010000
01000001
01000001
00000000
,
00001000
00000001
10000010
00000100
00001000
10000100
10000100
00000000
,
00000010
00000001
10001000
00000100
00000001
10000100
10000100
00000000
,
00000010
00001000
10000001
00000100
00001000
00000001
10001000
00000000
,
00001000
00000100
10000010
00000001
00001000
10000100
10000100
00000000
,
00010000
00010000
10000001
01000000
00010000
00000000
00100001
10000000
,
00010000
01000000
00100001
10000000
00010000
00000000
10010001
00000000
,
00001000
00001000
10000001
00000100
00001000
00000000
10000010
00000001
,
00001000
00000100
10000010
00000001
00001000
00000000
10001001
00000000
,
10000001
10000001
00011000
01000100
10000001
00000000
00100010
00011000
,
10000001
01000100
00100010
00011000
10000001
00000000
10011001
00000000
,
00100010
00000000
00100010
01000100
10011001
00000000
01000100
10000001
,
00011000
00100010
01000100
10000001
00011000
00000000
10011001
00000000
,
00100010
00000000
00000000
00000000
;

//---------------dance-solo - ----------------
#NOTES:
     dance-solo:
     :
     Easy:
     4:
     :
000000
000000
000000
000000
,
000000
000000
000000
000000
,
000000
000000
000000
000000
,
000000
000000
000000
000000
,
000000
000000
000000
000000
,
000000
000000
000010
100010
,
001000
000000
001000
100001
,
000100
100000
000001
001000
,
000100
000000
001000
100001
,
000000
000000
010000
010001
,
000100
000000
000100
100001
,
001000
000001
100000
000100
,
001000
000000
000100
100001
,
001000
000000
001000
000000
,
000001
000000
000001
000000
,
100000
000000
100000
000000
,
000100
000000
000100
100001
,
001000
000000
001000
000000
,
000010
000000
000010
000000
,
100000
000001
100000
000001
,
100000
000100
001000
000001
,
000000
000000
000000
000000
,
000000
000010
100000
100000
,
010000
000000
000001
000001
,
000100
001000
001000
100000
,
000010
000010
000010
000001
,
100000
000000
000001
100001
,
000100
000000
001000
100001
,
000100
001000
010000
000001
,
001000
000100
100000
000010
,
001000
000100
001000
100001
,
000010
001000
000010
100001
,
010000
010000
000001
000001
,
000100
001000
000001
100001
,
000010
000010
001000
001100
,
100000
000001
010000
100001
,
001000
001000
000100
000100
,
000001
001000
000100
100000
,
000100
000000
000100
000000
,
100000
000000
100000
000000
,
000001
001000
000100
100000
,
000010
001000
000100
001100
,
100000
000000
100000
000000
,
000001
000000
000001
000000
,
000100
000001
100000
001000
,
000001
000100
100000
100001
,
001000
000000
001000
100001
,
000001
000000
010000
010010
,
000100
001000
001000
000001
,
100000
000100
001000
100001
,
000001
000000
010000
010010
,
000100
000000
001000
001100
,
100000
000001
001000
000100
,
010000
000001
001000
100001
,
001000
000010
001000
001100
,
100000
000001
001000
100001
,
000010
000010
100000
000010
,
001000
000001
010000
010010
,
100000
000001
001000
001100
,
000010
001000
000001
100001
,
010000
001000
000100
100000
,
000001
001000
100000
100001
,
000100
000000
000000
000000
;

//---------------dance-solo - ----------------
#NOTES:
     dance-solo:
     :
     Medium:
     6:
     :
000000
000000
000000
000000
,
000000
000000
000000
000000
,
000000
000000
000000
000000
,
000000
000000
000000
000000
,
000000
000000
000000
000000
,
000010
000000
100000
000000
000001
001000
000100
000000
,
100000
000000
000001
000000
010000
000001
010000
000000
,
000100
001000
000100
000000
100000
100000
000010
000000
,
000010
100000
001000
100000
001000
000000
001100
000000
,
000001
000000
100000
000000
000100
001000
100000
000000
,
000001
000000
001000
000000
001000
000100
100000
000000
,
000001
001000
000100
000000
000100
100000
000001
000000
,
001000
000010
001000
000010
100000
000000
000001
000000
,
010000
000000
010000
000000
,
000010
000000
000010
000000
,
100000
011000
100000
010001
,
100000
001000
000100
000001
100000
000000
000000
000000
,
000010
000000
000010
000000
,
010000
000000
010000
000000
,
000001
001010
000001
100010
,
001000
000100
100000
000001
001000
000000
000000
000000
,
000000
000000
000000
000000
,
000001
000000
100000
000000
001000
010000
001000
000000
,
000010
000000
000010
000000
100000
000001
001000
000000
,
000001
000000
010000
000000
000100
100000
001000
000000
,
000001
000010
000001
000100
000010
000000
000010
000000
,
001000
000000
000001
000000
100000
001000
000001
000000
,
000100
000000
001000
000000
000010
001000
000100
000000
,
100000
000000
000001
000000
010000
000001
001000
000000
,
000010
001000
000001
001000
000100
000000
000100
000000
,
000001
000000
100000
000000
000100
001000
000010
000000
,
000010
000000
100000
000000
000001
001000
000100
000000
,
001000
000010
001000
000000
000001
001000
100000
000000
,
000010
001000
000010
100000
000001
000000
001100
000000
,
000001
000000
100000
000000
000100
001000
000001
000000
,
001000
000000
000100
000000
100000
000001
100000
000000
,
000100
010000
000001
000000
100000
000010
001000
000000
,
000100
100000
001000
100000
001000
000000
000001
000000
,
000100
000000
000100
000000
,
100000
000000
100000
000000
,
000100
010100
000100
000110
,
000010
000100
000001
100000
001000
000000
000000
000000
,
010000
000000
010000
000000
,
000001
000000
000001
000000
,
000001
010001
100000
100010
,
000100
000001
100000
001000
000001
000000
000000
000000
,
000001
000000
100000
000000
000100
001000
000010
000000
,
001000
000000
000001
000000
100000
001000
000001
000000
,
000100
001000
000100
000000
000001
001000
100000
000000
,
000010
001000
000100
001000
000100
000000
100001
000000
,
000100
000000
001000
000000
000001
001000
100000
000000
,
000010
000000
001000
000000
000001
100000
000100
000000
,
001000
000001
100000
000000
100000
001000
010000
000000
,
000001
001000
000010
001000
000010
000000
100001
000000
,
000001
000000
100000
000000
000100
001000
000100
000000
,
000001
000000
100000
000000
000100
001000
100001
000000
,
001000
010000
001000
000000
000100
000010
000100
000000
,
100000
000001
001000
000100
001000
000000
100001
000000
,
000100
000000
001000
000000
000010
001000
000001
000000
,
100000
000000
000100
000000
001000
000001
001000
000000
,
000100
100000
000001
000000
000100
001000
100000
000000
,
000001
100000
001000
000100
001000
000000
100001
000000
,
000100
000000
000000
000000
;

//---------------dance-solo - ----------------
#NOTES:
     dance-solo:
     :
     Hard:
     8:
     :
000000
000000
000000
000000
,
000000
000000
000000
000000
,
000000
000000
000000
000000
,
000000
000000
000000
000000
,
000000
000000
000000
000000
,
100000
000010
100000
001000
000100
000000
000100
000001
,
100000
001000
000100
000001
010000
000000
010001
000000
,
000100
000000
000100
001000
000001
000000
100000
000100
,
001000
000010
001000
000010
100000
000000
100001
000000
,
001000
001000
000100
100000
000001
000000
100000
000010
,
001000
000001
010000
000100
100000
000000
100001
000000
,
000100
000000
000100
001000
000001
000000
100000
000001
,
100000
000100
001000
000001
100000
000000
100001
000000
,
010000
010000
011000
011000
,
000010
000010
001010
001010
,
100001
100001
100001
100001
,
100000
000100
001000
000001
100000
000000
100001
000000
,
100000
100000
110000
110000
,
000001
000001
000011
000011
,
100001
100001
100001
100001
,
100000
000001
001000
000100
100000
000000
100001
000000
,
000000
000000
000000
000000
000000
000000
000100
001000
,
000001
100000
000100
001100
,
000010
000001
100000
010000
100000
000000
100001
000000
,
000100
001000
000010
001000
010000
000001
100000
000000
,
000001
000100
001000
100000
000001
000000
100001
000000
,
000100
000010
001000
000100
001000
000000
100001
000000
,
000100
000010
100000
010000
000100
000000
001100
000000
,
000001
100000
000100
001000
000010
100000
000001
000000
,
000001
001000
000100
100000
000001
000000
100001
000000
,
001000
001000
000100
100000
000001
000000
001000
000100
,
100000
000001
001000
000100
010000
000000
010001
000000
,
000100
000000
000100
001000
000010
000000
001000
000100
,
100000
001000
000100
000001
100000
000000
100001
000000
,
000100
000100
100000
000001
001000
000000
100001
000000
,
010000
010000
000010
000010
100000
000000
100001
000000
,
000100
000000
000100
001000
000001
000000
001000
000010
,
100000
000010
010000
000001
001000
000000
001100
000000
,
000001
000001
000011
000011
,
100000
100000
110000
110000
,
100001
100001
100001
100001
,
001000
000100
100000
000001
001000
000000
001100
000000
,
000001
000001
010001
010001
,
100000
100000
100010
100010
,
100001
100001
100001
100001
,
010000
000001
100000
000010
001000
000000
000000
000000
,
000001
100000
000001
001000
000100
000000
100001
000000
,
001000
000100
100000
000001
001000
000000
100001
000000
,
000100
001000
000010
100000
000001
100000
000001
000000
,
001000
000100
001000
000100
100000
000000
100001
000000
,
000100
001000
000010
001000
000001
000000
100001
000000
,
000100
010000
000001
001000
000010
000000
100010
000000
,
000100
100000
000010
010000
000001
001000
001000
000000
,
000010
001000
000001
001000
000100
000000
001100
000000
,
100000
100000
000001
001000
000100
000000
000100
100000
,
000001
001000
000100
010000
000010
000000
100001
000000
,
000100
000000
000100
001000
000010
000000
000010
100000
,
000001
000100
001000
100000
000001
000000
010001
000000
,
000100
000100
001000
000001
100000
000000
000100
001000
,
000010
001000
000010
100000
000001
000000
100001
000000
,
000100
000000
000100
001000
001010
000000
100000
000010
,
001000
000001
010000
000001
100000
000000
100001
000000
,
010000
000000
000000
000000
;

//---------------dance-double - Edit by silenttype01----------------
#NOTES:
     dance-double:
     Edit by silenttype01:
     Edit:
     9:
     0.776,0.858,0.387,0.066,0.731:
00000000
00000000
00000000
00000000
,
00000000
00000000
00000000
00000000
,
00000000
00000000
00000000
00000000
,
00000000
00000000
00000000
00000000
,
00000000
00000000
00000000
00000000
,
01020000
00000000
00001000
00000000
01030000
00000000
00001000
00000010
,
00000001
00001000
00000010
00000100
00001000
00010000
00011000
00000000
,
00001000
00010000
00000000
00000000
01000000
00000000
01000000
00000000
00100000
00001000
00000000
00000000
00010000
00000000
00010000
00000000
,
00001000
00000010
00000001
00000010
00001000
00010000
00011000
00000000
,
00002100
00000000
00010000
00000000
00003100
00000000
00010000
00100000
,
10000000
00010000
00100000
01000000
00010000
00001000
00011000
00000000
,
00010000
00001000
00000000
00000000
00000100
00000000
00000100
00000000
00000010
00010000
00000000
00000000
00001000
00000000
00001000
00000000
,
00010000
00100000
10000000
00100000
01000000
00010000
10010000
00000000
,
01000000
00000000
00000000
00000000
00000000
00000000
00000000
00000000
00000000
10000000
00000000
00000000
01000000
00000000
00000000
00000000
10000000
00000000
00000000
00000000
00000000
00000000
00000000
00000000
00000000
01000000
00000000
00000000
10000000
00000000
00000000
00000000
01000000
00000000
00000000
00000000
00000000
00000000
00000000
00000000
00000000
10000000
00000000
00000000
01000000
00000000
00000000
00000000
10000000
00000000
00000000
00000000
00000000
00000000
00000000
00000000
00000000
01000000
00000000
00000000
10000000
00000000
00000000
00000000
,
00100000
00000000
00000000
00000000
00000000
00000000
00000000
00000000
00000000
10000000
00000000
00000000
00100000
00000000
00000000
00000000
10000000
00000000
00000000
00000000
00000000
00000000
00000000
00000000
00000000
00100000
00000000
00000000
10000000
00000000
00000000
00000000
00100000
00000000
00000000
00000000
00000000
00000000
00000000
00000000
00000000
10000000
00000000
00000000
00100000
00000000
00000000
00000000
10000000
00000000
00000000
00000000
00000000
00000000
00000000
00000000
00000000
00100000
00000000
00000000
10000000
00000000
00000000
00000000
,
00010000
00000000
00000000
00000000
00000000
00000000
00000000
00000000
00000000
10000000
00000000
00000000
00010000
00000000
00000000
00000000
10000000
00000000
00000000
00000000
00000000
00000000
00000000
00000000
00000000
00010000
00000000
00000000
10000000
00000000
00000000
00000000
00010000
00000000
00000000
00000000
00000000
00000000
00000000
00000000
00000000
10000000
00000000
00000000
00010000
00000000
00000000
00000000
10000000
00000000
00000000
00000000
00000000
00000000
00000000
00000000
00000000
00010000
00000000
00000000
10000000
00000000
00000000
00000000
,
00100000
01000000
00001000
00011000
,
00000010
00000000
00000000
00000000
00000000
00000000
00000000
00000000
00000000
00001000
00000000
00000000
00000010
00000000
00000000
00000000
00001000
00000000
00000000
00000000
00000000
00000000
00000000
00000000
00000000
00000010
00000000
00000000
00001000
00000000
00000000
00000000
00000010
00000000
00000000
00000000
00000000
00000000
00000000
00000000
00000000
00001000
00000000
00000000
00000010
00000000
00000000
00000000
00001000
00000000
00000000
00000000
00000000
00000000
00000000
00000000
00000000
00000010
00000000
00000000
00001000
00000000
00000000
00000000
,
00000001
00000000
00000000
00000000
00000000
00000000
00000000
00000000
00000000
00001000
00000000
00000000
00000001
00000000
00000000
00000000
00001000
00000000
00000000
00000000
00000000
00000000
00000000
00000000
00000000
00000001
00000000
00000000
00001000
00000000
00000000
00000000
00000001
00000000
00000000
00000000
00000000
00000000
00000000
00000000
00000000
00001000
00000000
00000000
00000001
00000000
00000000
00000000
00001000
00000000
00000000
00000000
00000000
00000000
00000000
00000000
00000000
00000001
00000000
00000000
00001000
00000000
00000000
00000000
,
00000100
00000000
00000000
00000000
00000000
00000000
00000000
00000000
00000000
00010000
00000000
00000000
00000100
00000000
00000000
00000000
00010000
00000000
00000000
00000000
00000000
00000000
00000000
00000000
00000000
00000100
00000000
00000000
00010000
00000000
00000000
00000000
00000100
00000000
00000000
00000000
00000000
00000000
00000000
00000000
00000000
00010000
00000000
00000000
00000100
00000000
00000000
00000000
00010000
00000000
00000000
00000000
00000000
00000000
00000000
00000000
00000000
00000100
00000000
00000000
00010000
00000000
00000000
00000000
,
00001000
00000000
00010000
01000000
10000000
00000000
10010000
00000000
,
10010000
00000000
00000000
00000000
00000000
00000000
00000100
00000100
,
00000010
00000000
00000000
00000001
00000100
00000000
00001000
00000000
00000100
00000000
00000010
00000000
00000110
00000000
00000000
00000000
,
00001000
00000000
00000000
00100000
01000000
00000000
10000000
00000000
00100000
00000000
01000000
00000000
01100000
00000000
00000000
00000000
,
00100000
10000000
00000000
00000000
10000000
00100000
00000000
00000000
00100000
00010000
00000000
00000000
00010000
00001000
00000000
00000000
,
00001000
00000100
00000001
00000100
00001000
00010000
00011000
00000000
,
00100000
00000000
00000000
01000000
10000000
00000000
01000000
00000000
00100000
00000000
00010000
00000000
01000000
00000000
00100000
00000000
,
10000000
00000000
00000000
01000000
00010000
00000000
00001000
00000000
00000100
00000000
00000010
00000000
00000110
00000000
00000000
00000000
,
00000010
00000001
00000000
00000000
00000001
00000010
00000000
00000000
00000010
00001000
00000000
00000000
00001000
00010000
00000000
00000000
,
00010000
01000000
10000000
01000000
00010000
00001000
00011000
00000000
,
00000201
00000000
00001000
00000000
00000301
00000000
00000100
00010000
,
00001000
00100000
01000000
10000000
00100000
01000000
10100000
00000000
,
10000000
01000000
00000000
00000000
00010000
00000000
00010000
00000000
00001000
00000010
00000000
00000000
00000001
00000000
00000001
00000000
,
00000010
00001000
00010000
01000000
10000000
00100000
01100000
00000000
,
12000000
00000000
00010000
00000000
13000000
00000000
01000000
00001000
,
00010000
00000010
00000100
00000001
00000010
00000100
00000011
00000000
,
00000001
00000100
00000000
00000000
00001000
00000000
00001000
00000000
00010000
00100000
00000000
00000000
10000000
00000000
10000000
00000000
,
00100000
00010000
00001000
00000100
00000001
00000010
00001001
00000000
,
00000100
00000000
00000000
00000000
00000000
00000000
00000000
00000000
00000000
00000001
00000000
00000000
00000100
00000000
00000000
00000000
00000001
00000000
00000000
00000000
00000000
00000000
00000000
00000000
00000000
00000100
00000000
00000000
00000001
00000000
00000000
00000000
00000100
00000000
00000000
00000000
00000000
00000000
00000000
00000000
00000000
00000001
00000000
00000000
00000100
00000000
00000000
00000000
00000001
00000000
00000000
00000000
00000000
00000000
00000000
00000000
00000000
00000100
00000000
00000000
00000001
00000000
00000000
00000000
,
00000010
00000000
00000000
00000000
00000000
00000000
00000000
00000000
00000000
00000001
00000000
00000000
00000010
00000000
00000000
00000000
00000001
00000000
00000000
00000000
00000000
00000000
00000000
00000000
00000000
00000010
00000000
00000000
00000001
00000000
00000000
00000000
00000010
00000000
00000000
00000000
00000000
00000000
00000000
00000000
00000000
00000001
00000000
00000000
00000010
00000000
00000000
00000000
00000001
00000000
00000000
00000000
00000000
00000000
00000000
00000000
00000000
00000010
00000000
00000000
00000001
00000000
00000000
00000000
,
00001000
00000000
00000000
00000000
00000000
00000000
00000000
00000000
00000000
00000001
00000000
00000000
00001000
00000000
00000000
00000000
00000001
00000000
00000000
00000000
00000000
00000000
00000000
00000000
00000000
00001000
00000000
00000000
00000001
00000000
00000000
00000000
00001000
00000000
00000000
00000000
00000000
00000000
00000000
00000000
00000000
00000001
00000000
00000000
00001000
00000000
00000000
00000000
00000001
00000000
00000000
00000000
00000000
00000000
00000000
00000000
00000000
00001000
00000000
00000000
00000001
00000000
00000000
00000000
,
00000010
00000100
00010000
00011000
,
00100000
00000000
00000000
00000000
00000000
00000000
00000000
00000000
00000000
00010000
00000000
00000000
00100000
00000000
00000000
00000000
00010000
00000000
00000000
00000000
00000000
00000000
00000000
00000000
00000000
00100000
00000000
00000000
00010000
00000000
00000000
00000000
00100000
00000000
00000000
00000000
00000000
00000000
00000000
00000000
00000000
00010000
00000000
00000000
00100000
00000000
00000000
00000000
00010000
00000000
00000000
00000000
00000000
00000000
00000000
00000000
00000000
00100000
00000000
00000000
00010000
00000000
00000000
00000000
,
10000000
00000000
00000000
00000000
00000000
00000000
00000000
00000000
00000000
00010000
00000000
00000000
10000000
00000000
00000000
00000000
00010000
00000000
00000000
00000000
00000000
00000000
00000000
00000000
00000000
10000000
00000000
00000000
00010000
00000000
00000000
00000000
10000000
00000000
00000000
00000000
00000000
00000000
00000000
00000000
00000000
00010000
00000000
00000000
10000000
00000000
00000000
00000000
00010000
00000000
00000000
00000000
00000000
00000000
00000000
00000000
00000000
10000000
00000000
00000000
00010000
00000000
00000000
00000000
,
01000000
00000000
00000000
00000000
00000000
00000000
00000000
00000000
00000000
00001000
00000000
00000000
01000000
00000000
00000000
00000000
00001000
00000000
00000000
00000000
00000000
00000000
00000000
00000000
00000000
01000000
00000000
00000000
00001000
00000000
00000000
00000000
01000000
00000000
00000000
00000000
00000000
00000000
00000000
00000000
00000000
00001000
00000000
00000000
01000000
00000000
00000000
00000000
00001000
00000000
00000000
00000000
00000000
00000000
00000000
00000000
00000000
01000000
00000000
00000000
00001000
00000000
00000000
00000000
,
00010000
00000000
00001000
00000100
00000001
00000000
00001001
00000000
,
00000010
00000000
00000000
00000100
00000001
00000000
00001000
00000000
00000100
00000000
00000010
00000000
00000110
00000000
00000100
00000000
,
00010000
00000000
00000000
00001000
00010000
00000000
01000000
00000000
00100000
00000000
00010000
00000000
10010000
00000000
10000000
00000000
,
01000000
00010000
00000000
00000000
00010000
00001000
00000000
00000000
00001000
00000010
00000000
00000000
00000010
00000001
00000000
00000000
,
00000001
00000010
00001000
00010000
01000000
10000000
01100000
00010000
,
01000000
00000000
00000000
00100000
10000000
00000000
00010000
00000000
00100000
00000000
01000000
00000000
01100000
00000000
00100000
00000000
,
00001000
00000000
00000000
00010000
00001000
00000000
00000010
00000000
00000100
00000000
00001000
00000000
00001001
00000000
00000001
00000000
,
00000010
00001000
00000000
00000000
00001000
00010000
00000000
00000000
00010000
01000000
00000000
00000000
01000000
10000000
00000000
00000000
,
10000000
01000000
00010000
00001000
00000010
00000001
00000110
00000000
,
00002010
00000000
00010000
00000000
00003010
00000000
00010000
01000000
,
10000000
00010000
01000000
00100000
00010000
00001000
00011000
00000000
,
00010000
00001000
00000000
00000000
00000010
00000000
00000010
00000000
00000100
00010000
00000000
00000000
00001000
00000000
00001000
00000000
,
00010000
01000000
10000000
01000000
00010000
00001000
00011000
00000000
,
00120000
00000000
00001000
00000000
00130000
00000000
00001000
00000100
,
00000001
00001000
00000100
00000010
00001000
00010000
00011000
00000000
,
00001000
00010000
00000000
00000000
00100000
00000000
00100000
00000000
01000000
00001000
00000000
00000000
00010000
00000000
00010000
00000000
,
00001000
00000100
00000001
00000100
00001000
00010000
00011000
00000000
,
00010010
00000000
00000000
00000000
;

//---------------dance-single - Edit by silenttype01----------------
#NOTES:
     dance-single:
     Edit by silenttype01:
     Edit:
     9:
     0.775,0.858,0.398,0.066,0.731: // measure 1
0000
0000
0000
0000
,  // measure 2
0000
0000
0000
0000
,  // measure 3
0000
0000
0000
0000
,  // measure 4
0000
0000
0000
0000
,  // measure 5
0000
0000
0000
0000
,  // measure 6
0021
0000
1000
0000
0031
0000
0001
0100
,  // measure 7
0001
0010
1000
0010
0001
1000
1001
0000
,  // measure 8
0010
1000
0000
0000
0001
0000
0001
0000
0010
0001
0000
0000
1000
0000
1000
0000
,  // measure 9
0001
0010
1000
0010
0001
0100
0110
0000
,  // measure 10
0201
0000
1000
0000
0301
0000
1000
0010
,  // measure 11
1000
0100
0001
0100
1000
0001
1001
0000
,  // measure 12
0100
0001
0000
0000
1000
0000
1000
0000
0100
1000
0000
0000
0001
0000
0001
0000
,  // measure 13
1000
0100
0001
0100
1000
0010
0110
0000
,  // measure 14
0100
0000
0000
0000
0000
0000
0000
0000
0000
0001
0000
0000
0100
0000
0000
0000
0001
0000
0000
0000
0000
0000
0000
0000
0000
0100
0000
0000
0001
0000
0000
0000
0100
0000
0000
0000
0000
0000
0000
0000
0000
0001
0000
0000
0100
0000
0000
0000
0001
0000
0000
0000
0000
0000
0000
0000
0000
0100
0000
0000
0001
0000
0000
0000
,  // measure 15
0010
0000
0000
0000
0000
0000
0000
0000
0000
0001
0000
0000
0010
0000
0000
0000
0001
0000
0000
0000
0000
0000
0000
0000
0000
0010
0000
0000
0001
0000
0000
0000
0010
0000
0000
0000
0000
0000
0000
0000
0000
0001
0000
0000
0010
0000
0000
0000
0001
0000
0000
0000
0000
0000
0000
0000
0000
0010
0000
0000
0001
0000
0000
0000
,  // measure 16
1000
0000
0000
0000
0000
0000
0000
0000
0000
0001
0000
0000
1000
0000
0000
0000
0001
0000
0000
0000
0000
0000
0000
0000
0000
1000
0000
0000
0001
0000
0000
0000
1000
0000
0000
0000
0000
0000
0000
0000
0000
0001
0000
0000
1000
0000
0000
0000
0001
0000
0000
0000
0000
0000
0000
0000
0000
1000
0000
0000
0001
0000
0000
0000
,  // measure 17
0010
0100
1000
1001
,  // measure 18
0010
0000
0000
0000
0000
0000
0000
0000
0000
1000
0000
0000
0010
0000
0000
0000
1000
0000
0000
0000
0000
0000
0000
0000
0000
0010
0000
0000
1000
0000
0000
0000
0010
0000
0000
0000
0000
0000
0000
0000
0000
1000
0000
0000
0010
0000
0000
0000
1000
0000
0000
0000
0000
0000
0000
0000
0000
0010
0000
0000
1000
0000
0000
0000
,  // measure 19
0001
0000
0000
0000
0000
0000
0000
0000
0000
1000
0000
0000
0001
0000
0000
0000
1000
0000
0000
0000
0000
0000
0000
0000
0000
0001
0000
0000
1000
0000
0000
0000
0001
0000
0000
0000
0000
0000
0000
0000
0000
1000
0000
0000
0001
0000
0000
0000
1000
0000
0000
0000
0000
0000
0000
0000
0000
0001
0000
0000
1000
0000
0000
0000
,  // measure 20
0100
0000
0000
0000
0000
0000
0000
0000
0000
1000
0000
0000
0100
0000
0000
0000
1000
0000
0000
0000
0000
0000
0000
0000
0000
0100
0000
0000
1000
0000
0000
0000
0100
0000
0000
0000
0000
0000
0000
0000
0000
1000
0000
0000
0100
0000
0000
0000
1000
0000
0000
0000
0000
0000
0000
0000
0000
0001
0000
0000
1000
0000
0000
0000
,  // measure 21
0100
0000
1000
0100
0001
0000
1001
0000
,  // measure 22
1001
0000
0000
0000
0000
0000
0100
0100
,  // measure 23
0010
0000
0000
0100
0001
0000
1000
0000
0010
0000
0000
0000
1100
0000
0000
0000
,  // measure 24
0001
0000
0000
1000
0010
0000
0100
0000
0001
0000
1000
0000
1010
0000
0000
0000
,  // measure 25
0100
0001
0000
0000
0001
0100
0000
0000
0100
1000
0000
0000
1000
0100
0000
0000
,  // measure 26
0010
1000
0010
0001
0010
0100
0110
0000
,  // measure 27
0001
0000
0000
1000
0010
0000
0100
0000
0001
0000
0000
0000
1010
0000
0000
0000
,  // measure 28
0100
0000
0000
0001
0010
0000
0100
0000
1000
0000
0001
0000
0011
0000
0000
0000
,  // measure 29
0100
1000
0000
0000
1000
0100
0000
0000
0100
0001
0000
0000
0001
0100
0000
0000
,  // measure 30
0010
0001
0010
1000
0010
0100
0110
0000
,  // measure 31
1200
0000
0001
0000
1300
0000
1000
0100
,  // measure 32
1000
0010
0001
0010
1000
0001
1001
0000
,  // measure 33
0100
0001
0000
0000
0010
0000
0010
0000
0100
1000
0000
0000
0010
0000
0010
0000
,  // measure 34
1000
0100
0001
0100
1000
0010
0110
0000
,  // measure 35
1020
0000
0001
0000
1030
0000
0001
0010
,  // measure 36
0001
0100
1000
0100
0001
1000
1001
0000
,  // measure 37
0010
1000
0000
0000
0100
0000
0100
0000
0010
0001
0000
0000
0100
0000
0100
0000
,  // measure 38
0001
0010
1000
0010
0001
0100
0110
0010
,  // measure 39
0100
0000
0000
0000
0000
0000
0000
0000
0000
0001
0000
0000
0100
0000
0000
0000
0001
0000
0000
0000
0000
0000
0000
0000
0000
0100
0000
0000
0001
0000
0000
0000
0100
0000
0000
0000
0000
0000
0000
0000
0000
0001
0000
0000
0100
0000
0000
0000
0001
0000
0000
0000
0000
0000
0000
0000
0000
0100
0000
0000
0001
0000
0000
0000
,  // measure 40
0010
0000
0000
0000
0000
0000
0000
0000
0000
0001
0000
0000
0010
0000
0000
0000
0001
0000
0000
0000
0000
0000
0000
0000
0000
0010
0000
0000
0001
0000
0000
0000
0010
0000
0000
0000
0000
0000
0000
0000
0000
0001
0000
0000
0010
0000
0000
0000
0001
0000
0000
0000
0000
0000
0000
0000
0000
0010
0000
0000
0001
0000
0000
0000
,  // measure 41
1000
0000
0000
0000
0000
0000
0000
0000
0000
0001
0000
0000
1000
0000
0000
0000
0001
0000
0000
0000
0000
0000
0000
0000
0000
1000
0000
0000
0001
0000
0000
0000
1000
0000
0000
0000
0000
0000
0000
0000
0000
0001
0000
0000
1000
0000
0000
0000
0001
0000
0000
0000
0000
0000
0000
0000
0000
1000
0000
0000
0001
0000
0000
0000
,  // measure 42
0010
0100
1000
1001
,  // measure 43
0010
0000
0000
0000
0000
0000
0000
0000
0000
0001
0000
0000
0010
0000
0000
0000
0001
0000
0000
0000
0000
0000
0000
0000
0000
0010
0000
0000
0001
0000
0000
0000
0010
0000
0000
0000
0000
0000
0000
0000
0000
0001
0000
0000
0010
0000
0000
0000
0001
0000
0000
0000
0000
0000
0000
0000
0000
0010
0000
0000
0001
0000
0000
0000
,  // measure 44
1000
0000
0000
0000
0000
0000
0000
0000
0000
0001
0000
0000
1000
0000
0000
0000
0001
0000
0000
0000
0000
0000
0000
0000
0000
1000
0000
0000
0001
0000
0000
0000
1000
0000
0000
0000
0000
0000
0000
0000
0000
0001
0000
0000
1000
0000
0000
0000
0001
0000
0000
0000
0000
0000
0000
0000
0000
1000
0000
0000
0001
0000
0000
0000
,  // measure 45
0100
0000
0000
0000
0000
0000
0000
0000
0000
0001
0000
0000
0100
0000
0000
0000
0001
0000
0000
0000
0000
0000
0000
0000
0000
0100
0000
0000
0001
0000
0000
0000
0100
0000
0000
0000
0000
0000
0000
0000
0000
0001
0000
0000
0100
0000
0000
0000
0001
0000
0000
0000
0000
0000
0000
0000
0000
0100
0000
0000
0001
0000
0000
0000
,  // measure 46
1000
0000
0001
0100
1000
0000
1001
0000
,  // measure 47
0010
0000
0000
0100
1000
0000
0001
0000
0010
0000
0001
0000
0101
0000
0001
0000
,  // measure 48
1000
0000
0000
0001
0010
0000
0100
0000
1000
0000
0001
0000
0011
0000
0001
0000
,  // measure 49
0100
1000
0000
0000
1000
0100
0000
0000
0100
0001
0000
0000
0001
0100
0000
0000
,  // measure 50
0010
0001
0010
1000
0010
0100
0110
0010
,  // measure 51
1000
0000
0000
0001
0010
0000
0100
0000
1000
0000
0001
0000
0011
0000
0010
0000
,  // measure 52
0100
0000
0000
1000
0010
0000
0100
0000
0001
0000
1000
0000
1010
0000
1000
0000
,  // measure 53
0100
0001
0000
0000
0001
0100
0000
0000
0100
1000
0000
0000
1000
0100
0000
0000
,  // measure 54
0010
1000
0010
0001
0010
0100
0110
0000
,  // measure 55
1020
0000
1000
0000
0031
0000
1000
0100
,  // measure 56
1000
0010
0001
0010
1000
0001
1001
0000
,  // measure 57
0010
0001
0000
0000
1000
0000
1000
0000
0010
1000
0000
0000
0001
0000
0001
0000
,  // measure 58
1000
0010
0001
0010
1000
0100
0110
0000
,  // measure 59
1200
0000
0001
0000
1300
0000
0001
0010
,  // measure 60
0001
0100
1000
0100
0001
1000
1001
0000
,  // measure 61
0100
1000
0000
0000
0001
0000
0001
0000
0100
0001
0000
0000
1000
0000
1000
0000
,  // measure 62
0001
0100
1000
0100
0001
0010
0110
0000
,  // measure 63
1001
0000
0000
0000
;
