#TITLE:BURNIN' THE FLOOR;
#SUBTITLE:;
#ARTIST:NAOKI;
#TITLETRANSLIT:;
#SUBTITLETRANSLIT:;
#ARTISTTRANSLIT:;
#CREDIT:;
#BANNER:BURNIN' THE FLOOR.png;
#BACKGROUND:BURNIN' THE FLOOR-bg.png;
#LYRICSPATH:;
#CDTITLE:Dance Dance Revolution 4th Mix.png;
#MUSIC:BURNIN' THE FLOOR.ogg;
#OFFSET:0.000;
#SAMPLESTART:40.243;
#SAMPLELENGTH:15.000;
#SELECTABLE:YES;
#DISPLAYBPM:155.000;
#BPMS:0.000=155.172,12.000=155.057;
#STOPS:;
#BGCHANGES:3.750=BURNIN' THE FLOOR.avi=1.000=1=0=0,
237.500=BURNIN' THE FLOOR-bg.png=1.000=0=0=1,
99999=-nosongbg-=1.000=0=0=0 // don't automatically add -songbackground-
;

//---------------dance-single - ----------------
#NOTES:
     dance-single:
     :
     Beginner:
     1:
     0.186,0.243,0.115,0.000,0.000:
0000
0000
0000
0000
,
0000
0000
0000
0000
,
0000
0000
0000
0000
,
0000
0000
0000
0000
,
0000
0000
0000
0000
,
0000
1000
0000
1000
,
0000
0001
0000
0001
,
0000
0100
0000
0100
,
0000
0010
0000
1000
,
1000
0000
0000
0000
,
0000
0100
0000
1000
,
0000
0001
0000
1000
,
0000
0010
0000
1000
,
0000
0100
0000
0010
,
0000
0100
0000
1000
,
0000
0001
0000
0100
,
0000
1000
0000
0100
,
0000
0010
0010
0010
,
0000
0100
0000
0000
,
0000
1001
0000
0110
,
0000
0100
0000
0000
,
0000
1001
0000
0110
,
0000
0100
0000
0000
,
0000
1001
0000
0110
,
0000
0100
0000
0000
,
0100
0100
0100
0000
,
1000
1000
1000
1000
,
0000
0100
0000
0001
,
0000
0010
0000
0010
,
0000
0100
0000
0001
,
0001
0000
0100
0000
,
1000
0000
0100
0000
,
0100
0100
0100
0000
,
1001
0000
0100
0000
,
1000
1000
0000
0000
,
0100
0100
0000
0000
,
1000
1000
0000
0000
,
0100
0100
0000
0000
,
0001
0001
0000
0000
,
0100
0100
0000
0000
,
0001
0001
0000
0000
,
0100
0100
0100
0000
,
1000
1000
1000
1000
,
0000
0100
0000
0001
,
0000
0010
0000
0010
,
0000
0100
0000
0001
,
0001
0000
0100
0000
,
1000
0000
0100
0000
,
0100
0100
0100
0000
,
1001
0000
0100
0000
,
1000
1000
1000
1000
,
0000
0100
0000
0001
,
0000
0010
0000
0010
,
0000
0100
0000
0001
,
0001
0000
0100
0000
,
1000
0000
0100
0000
,
1001
0000
1001
0000
,
1001
0000
0100
0000
,
0100
0100
0000
0000
;

//---------------dance-single - ----------------
#NOTES:
     dance-single:
     :
     Easy:
     4:
     0.272,0.272,0.063,0.000,0.000:
0000
0000
0000
0000
,
0000
0000
0000
0000
,
0000
0000
0000
0000
,
0000
0000
0000
0000
,
0000
0000
0000
0000
,
0000
1000
0000
1000
,
0000
0001
0000
0001
,
0000
0100
0000
0100
,
0000
0010
0000
1000
,
0001
0000
0000
0000
,
0010
0100
1000
0001
,
1000
1000
0001
0001
,
0100
0010
1000
0001
,
0100
0100
0010
0010
,
1000
0100
0010
0001
,
1000
1000
0100
0100
,
0010
0001
1000
0100
,
0010
0000
0010
0000
,
1000
0100
0001
0100
,
0000
1001
0000
0110
,
1000
0100
0010
0001
,
0000
1001
0000
0110
,
1000
0100
0001
0010
,
0000
1001
0000
0110
,
1000
0010
0100
0001
,
1000
1000
1000
0000
,
0001
0100
0001
0010
,
0100
1000
0010
1000
,
0100
0010
0001
0100
,
0010
0001
0010
0001
,
1000
0100
0010
0001
,
1000
0100
1000
0100
,
1000
0100
0010
0000
,
0001
1000
0001
1000
,
0001
0000
1000
0000
,
0100
0000
0100
0000
,
0010
0000
0001
0000
,
1000
0000
1000
0000
,
0010
0000
0100
0000
,
0001
0000
0001
0000
,
1000
0000
0100
0000
,
0010
0010
0010
0010
,
0001
0100
0001
0010
,
0100
1000
0010
1000
,
0100
0010
0001
0100
,
0010
0001
0010
0001
,
1000
0100
0010
0001
,
1000
0100
1000
0100
,
1000
0100
0010
0000
,
0001
1000
0001
1000
,
0001
0100
0001
0010
,
0100
1000
0010
1000
,
0100
0010
0001
0100
,
0010
0001
0010
0001
,
1000
0100
0010
0001
,
1000
0100
1000
0100
,
0010
1000
0100
0010
,
0001
0100
0010
1000
,
0100
0000
0000
0000
;

//---------------dance-single - ----------------
#NOTES:
     dance-single:
     :
     Medium:
     6:
     0.375,0.433,0.083,0.000,0.000:
0000
0000
0000
0000
,
0000
0000
0000
0000
,
0000
0000
0000
0000
,
0000
0000
0000
0000
,
0000
0000
0000
0000
,
1000
0100
1000
0100
,
0010
0001
0010
0001
,
1000
0010
1000
0010
,
0100
0001
0100
0001
,
1000
0000
0000
0000
,
1100
0000
1100
0000
0001
0100
0001
0000
,
1000
0000
0100
0000
0010
0001
0010
0000
,
0101
0000
0101
0000
0010
0100
0010
0000
,
1000
0000
0001
0000
0100
0010
0100
0000
,
0001
0010
0100
0000
1000
0010
0100
0000
,
0001
1000
0100
0000
0010
0001
1000
0000
,
0110
0110
1001
0110
,
0001
1000
0001
0000
,
1000
0100
0010
0001
,
1000
0100
0001
0100
,
0010
1000
0100
0010
,
0001
0100
1000
0100
,
0010
0001
1000
0100
,
0010
0001
1000
0010
,
0100
0001
1000
0100
,
0010
0001
0100
0010
0000
0000
0000
0000
,
1000
0000
0100
0000
0010
0001
0010
0000
,
0100
1000
0100
0000
0010
0001
0100
0000
,
0010
1000
0100
0000
,
0010
0001
0010
0000
0100
1000
0100
0000
,
0010
0001
0100
0010
,
1000
0100
1000
0000
0001
0010
0001
0000
,
1000
0100
0010
0000
,
0001
1000
0100
0010
0001
0000
0000
0000
,
1000
0000
0100
0000
0010
0010
0010
0000
,
0001
0000
0100
0000
0010
0010
0010
0000
,
1000
0100
0001
0010
,
0100
0100
0100
0000
1000
1000
1000
0000
,
0001
0000
0100
0000
0010
0010
0010
0000
,
1000
0000
0100
0000
0010
0010
0010
0000
,
0001
0100
0010
1000
,
0100
0100
0100
0000
0100
0000
0000
0000
,
0001
0000
0100
0000
0010
1000
0010
0000
,
0100
0001
0100
0000
0010
1000
0100
0000
,
0010
0001
0100
0000
,
0010
1000
0010
0000
0100
0001
0100
0000
,
0010
1000
0100
0010
,
0001
0100
0001
0000
1000
0010
1000
0000
,
0001
0100
0010
0000
,
1000
0001
0100
0010
1000
0000
0000
0000
,
0001
0000
0100
0000
0010
1000
0010
0000
,
0100
0001
0100
0000
0010
1000
0100
0000
,
0010
0001
0100
0000
,
0010
1000
0010
0000
0100
0001
0100
0000
,
0010
1000
0100
0010
,
0001
0100
0001
0000
1000
0010
1000
0000
,
0001
0000
0100
0010
0000
0000
1000
0000
,
0100
0010
0000
0000
0001
0000
0100
0010
,
0000
0000
0000
0000
,
0000
1000
0001
0100
0000
0000
0000
0000
;

//---------------dance-single - ----------------
#NOTES:
     dance-single:
     :
     Hard:
     7:
     0.482,0.495,0.156,0.000,0.036:
0000
0000
0000
0000
,
0000
0000
0000
0000
,
0000
0000
0000
0000
,
0000
0000
0000
0000
,
0000
0000
0000
0000
,
1000
0100
1000
0000
0001
0100
0001
0000
,
1000
0010
1000
0000
0001
0010
0001
0000
,
0100
0010
1000
0000
0100
0010
0001
0000
,
0000
1000
0000
1000
0100
0010
0001
0000
,
0100
0000
0000
0000
,
1010
0000
1100
0000
0010
0001
0100
0000
,
0010
1000
0100
0010
0001
0100
0010
0000
,
1001
0000
1100
0000
0010
0001
0100
0000
,
0010
1000
0100
0010
0001
0000
1100
0000
,
0001
0100
0100
0000
1000
0100
0100
0000
,
0010
0001
0001
0000
1000
0010
0010
0000
,
0101
0000
1100
0000
0010
0001
0100
0010
,
1000
0000
0001
0000
0100
0010
0100
0000
,
0001
0000
1000
0000
0100
0010
0100
0000
,
1000
0001
1000
0010
1000
0100
0100
0000
,
0010
0001
0100
0000
0010
1000
0100
0000
,
0010
0001
1000
0010
0100
0001
0010
0000
,
0100
1000
0001
0000
0100
0010
1000
0000
,
0100
0010
0001
0100
0010
1000
0100
0000
,
0010
0001
0100
0010
1000
0100
0010
0000
,
0001
1000
0100
0010
0000
0000
0000
0000
,
0001
0100
0010
0000
1000
0100
0010
0000
,
0001
1000
0100
0010
0000
0001
0001
0000
,
1000
0100
0010
0001
0000
0100
0100
0000
,
0010
0000
1000
0000
0100
0010
0001
0000
,
0100
0010
1000
0100
0000
0010
0000
0001
,
0000
1000
0000
0100
0000
0010
0001
0100
,
0010
0000
1000
0001
0000
0000
0000
0110
,
0000
1100
0000
0101
0000
0000
0000
0000
,
1000
0000
0000
0010
0000
0000
0100
0000
0000
0000
0001
0000
1000
0000
0100
0000
,
0010
0000
0000
0001
0000
0000
0100
0000
0000
0000
0010
0000
1000
0000
0100
0000
,
0010
0000
0000
0001
0000
0000
1000
0000
0000
0000
0100
0000
0010
0000
0001
0000
,
1000
0000
0000
0010
0000
0000
0100
0000
0001
0000
1000
0000
0100
0000
0010
0000
,
0001
0000
0000
1000
0000
0000
0010
0000
0000
0000
0100
0000
0001
0000
1000
0000
,
0100
0000
0000
0010
0000
0000
0001
0000
0000
0000
1000
0000
0010
0000
0100
0000
,
0001
0000
0000
1000
0000
0000
0100
0000
0000
0000
0010
0000
0001
0000
0100
0000
,
0010
1000
0100
0010
0001
0100
0010
0000
,
1000
0100
0010
0000
0001
0100
0010
0000
,
1000
0001
0100
0010
0000
1000
1000
0000
,
0001
0100
0010
1000
0000
0100
0100
0000
,
0010
0000
0001
0000
0100
0010
1000
0000
,
0100
0010
0001
0100
0000
0010
0000
1000
,
0000
0100
0000
0010
0000
0001
0100
0010
,
1000
0000
0100
0010
0000
0000
0000
1001
,
0000
0110
0000
1001
0000
0100
0010
0001
,
1000
0000
0100
0000
0010
0001
0100
0000
,
0010
1000
0100
0010
0000
0001
0001
0000
,
0100
0010
1000
0100
0000
0010
0010
0000
,
1001
0000
0110
0000
0001
1000
0100
0000
,
0010
0001
0100
0010
0000
1000
1000
0000
,
0100
0010
0001
0100
0010
1000
0001
0000
,
1000
0100
0010
0001
0000
0001
1000
0010
,
0100
0001
0000
0001
0010
0100
1000
0001
,
0100
0100
0000
0000
0010
0000
1000
0100
,
0000
0010
0001
0100
0000
0000
0000
0000
;

//---------------dance-double - ----------------
#NOTES:
     dance-double:
     :
     Easy:
     4:
     0.286,0.302,0.031,0.000,0.000:
00000000
00000000
00000000
00000000
,
00000000
00000000
00000000
00000000
,
00000000
00000000
00000000
00000000
,
00000000
00000000
00000000
00000000
,
00000000
00000000
00000000
00000000
,
10000000
01000000
00100000
00100000
,
00001000
00010000
00000100
00000100
,
00000010
00000001
00000100
00000100
,
00000010
00010000
00001000
01000000
,
00100000
00000000
00000000
00000000
,
10000000
00010000
01000000
01000000
,
00001000
00010000
00000010
00000010
,
00001000
00000001
00000100
00010000
,
00001000
00100000
01000000
10000000
,
10010000
00000000
01000000
00000000
,
00011000
00000000
00000100
00000000
,
00000010
00000001
00001000
00000100
,
00010000
00000000
00011000
00000000
,
01000000
00100000
10000000
00010000
,
01000000
00100000
10000000
01000000
,
00100000
00010000
01000000
00001000
,
00010000
00000010
00000100
00000001
,
00001000
00000100
00010000
00001000
,
00100000
00010000
01000000
00001000
,
00010000
00000000
00000000
00000000
,
00001000
00010000
00001000
00000000
,
00000100
00001000
00000100
00001000
,
01000000
00010000
01000000
00010000
,
00000100
00001000
01000000
00010000
,
00000010
00001000
00100000
00010000
,
00000100
00000010
00000001
00001000
,
00000010
00010000
00001000
01000000
,
00100000
10000000
01000000
00000000
,
00100000
00001000
00010000
00000000
,
00000100
00000100
00000100
00000000
,
00000010
00000010
00000010
00000000
,
00000001
00000001
00000001
00000000
,
00001000
00000100
00010000
00001000
,
00100000
00100000
00100000
00000000
,
01000000
01000000
01000000
00000000
,
10000000
10000000
10000000
00000000
,
00010000
00100000
00001000
00010000
,
00000100
00001000
00000100
00001000
,
01000000
00010000
01000000
00010000
,
00000100
00001000
01000000
00010000
,
00000010
00001000
00100000
00010000
,
00000100
00000010
00000001
00001000
,
00000010
00010000
00001000
01000000
,
00100000
10000000
01000000
00000000
,
00100000
00001000
00010000
00000000
,
00000100
00001000
00100000
00010000
,
00000010
00001000
01000000
00010000
,
00000100
00001000
00000001
00000000
,
00000010
00000100
00010000
00001000
,
00100000
00010000
10000000
01000000
,
00100000
00001000
00010000
00000100
,
00000010
00000001
00000100
00000010
,
00010000
00001000
00100000
00010000
,
10000000
00000000
00000000
00000000
;

//---------------dance-double - ----------------
#NOTES:
     dance-double:
     :
     Medium:
     6:
     0.377,0.402,0.156,0.000,0.000:
00000000
00000000
00000000
00000000
,
00000000
00000000
00000000
00000000
,
00000000
00000000
00000000
00000000
,
00000000
00000000
00000000
00000000
,
00000000
00000000
00000000
00000000
,
10000000
00000000
10000000
00000000
00010000
01000000
00001000
00000000
,
00010000
00000000
00010000
00000000
00000100
00001000
00000001
00000000
,
00000100
00000000
00000100
00000000
00000010
00010000
00001000
00000000
,
00100000
00000000
00100000
00000000
00010000
10000000
01000000
00000000
,
00100000
00000000
00000000
00000000
,
10010000
00000000
10010000
00000000
01000000
00010000
00010000
00000000
,
00100000
00001000
00010000
00000100
,
00001001
00000000
00001001
00000000
00000100
00000010
00000010
00000000
,
00010000
00001000
00100000
01000000
,
10000000
01000000
01000000
00000000
00100000
00010000
00010000
00000000
,
01000000
00001000
00010000
00000010
,
00001000
00000100
00000010
00000001
,
00001000
00000100
00010000
00011000
,
00100000
01000000
10010000
00000000
,
01000000
00000000
00001000
00000000
00010000
00001000
00000000
00000000
,
00010000
00000010
00001001
00000000
,
00000100
00000000
00010000
00000000
00001000
00010000
00000000
00000000
,
00001000
01000000
10010000
00000000
,
01000000
00100000
00011000
00000000
,
00000100
00000010
00000001
00001000
,
00000100
00010000
00001000
00000000
,
00100000
00000000
00010000
00000000
10000000
01000000
10000000
00000000
,
00010000
01000000
00010000
00000000
00100000
00000000
00001000
00000000
,
00010000
00000000
00000100
00000000
00000010
00000001
00000010
00000000
,
00000100
00001000
00000100
00000000
00010000
00000000
00001000
00000000
,
00100000
01000000
10000000
00100000
,
01000000
00001000
00010000
00000010
,
00001000
00000100
00001000
00000000
00000001
00000100
00000001
00000000
,
00001100
00011000
00110000
00000000
,
10000000
00000000
01000000
00000000
00100000
00100000
00100000
00000000
,
00001000
00000000
00010000
00000000
00000100
00000100
00000100
00000000
,
00001000
00000000
00000001
00000000
00000100
00000100
00000100
00000000
,
00000010
00010000
00001000
00100000
,
01000000
00000000
10000000
00000000
00010000
00010000
00010000
00000000
,
01000000
00000000
00001000
00000000
00010000
00010000
00010000
00000000
,
00000100
00000000
00000010
00000000
00000001
00000001
00000001
00000000
,
00001000
00000100
00010000
00001000
,
00100000
00000000
00010000
00000000
10000000
01000000
10000000
00000000
,
00010000
01000000
00010000
00000000
00100000
00000000
00001000
00000000
,
00010000
00000000
00000100
00000000
00000010
00000001
00000010
00000000
,
00000100
00001000
00000100
00000000
00010000
00000000
00001000
00000000
,
00100000
01000000
10000000
00100000
,
01000000
00001000
00010000
00000010
,
00001000
00000100
00001000
00000000
00000001
00000100
00000001
00000000
,
00001100
00011000
00110000
00000000
,
01000000
00000000
10000000
00000000
00010000
01000000
00010000
00000000
,
00100000
00001000
00010000
00000000
00000100
00000000
00000010
00000000
,
00000001
00000100
00000001
00000000
00001000
00000100
00010000
00000000
,
00001000
00100000
00010000
10000000
,
00100000
01000000
00001000
00000000
00010000
00000000
00000100
00000000
,
00000010
00000001
00000100
00000000
00000010
00000000
00010000
00000000
,
00001000
00000000
01000000
00100000
00000000
00000000
10000000
00000000
,
01000000
00100000
00000000
00000000
00001000
00000000
00010000
00000100
,
00000000
00000000
00000000
00000000
,
00000000
00001000
00000001
00000100
00000000
00000000
00000000
00000000
;

//---------------dance-double - ----------------
#NOTES:
     dance-double:
     :
     Hard:
     8:
     0.497,0.526,0.396,0.000,0.000:
00000000
00000000
00000000
00000000
,
00000000
00000000
00000000
00000000
,
00000000
00000000
00000000
00000000
,
00000000
00000000
00000000
00000000
,
00000000
00000000
00000000
00000000
,
10000000
00000000
00010000
00000000
01000000
00001000
00010000
00000000
,
00000100
00001000
00000001
00000100
00000000
00000010
00010000
00000000
,
00001000
00000000
00100000
00000000
01000000
10000000
00010000
00000000
,
01000000
00001000
00000000
00001000
00010000
00000100
00001000
00000000
,
00000101
00000000
00000000
00000000
,
00001100
00000000
00001100
00000000
00010000
00001000
00001000
00000000
,
00100000
00010000
10000000
01000000
00100000
00010000
00010000
00000000
,
01001000
00000000
00011000
00000000
00000010
00001000
00001000
00000000
,
00000001
00000010
00000100
00001000
00000100
00000010
00000010
00000000
,
00001001
00011000
10010000
01100000
,
00011000
00000110
00001001
00011000
,
00000100
00000010
00000001
00001000
,
00000010
00010000
00001000
01000000
00010000
10000000
01000000
00000000
,
00100000
00010000
01000000
00000000
00001000
00010000
00000100
00000000
,
00000010
00000001
00000100
00000010
00001000
00000100
00000000
00000000
,
00010000
00001000
00100000
00000000
00010000
10000000
01000000
00000000
,
00100000
00001000
00010000
00000100
00000000
00000000
00000000
00000000
,
00000010
00000001
00000100
00000000
00000010
00001000
00000100
00000000
,
00010000
00001000
00100000
00010000
10000000
01000000
00100000
00000000
,
00011000
00000000
00000000
00000000
,
00000010
00000100
00000001
00001000
00000000
00000000
00000000
00000000
,
00010100
00000000
00101000
00000000
00010000
10000000
10000000
00000000
,
01000000
00100000
00010000
00000000
01000000
00001000
00010000
00000000
,
00000100
00000010
00000001
00000100
00000000
00000100
00000000
00000100
,
00000000
00001001
00000000
00010100
00000000
00101000
00000000
10010000
,
01000000
00100000
00001000
00010000
00000000
00000100
00000100
00000000
,
00000010
00000001
00000100
00000010
00000000
00001000
00001000
00000000
,
00000100
00010000
00001000
00100000
00000000
00010000
00010000
10000000
,
00000000
01100000
00000000
00011000
00000000
00001001
00000000
00000000
,
00000100
00000100
00000100
00000100
00000000
00010000
00001000
00100000
,
00010000
00010000
00010000
00010000
00000000
10000000
01000000
00100000
,
00001000
00001000
00001000
00001000
00000000
00010000
00000100
00000010
,
00000001
00000100
00000001
00001000
00000100
00010000
00000100
00001000
,
00000001
00000001
00000001
00000001
00000000
00001000
00000100
00010000
,
00001000
00001000
00001000
00001000
00100000
01000000
10000000
00000000
,
00100000
00100000
00100000
00100000
00000000
01000000
00001000
00010000
,
00001000
00000000
00000000
00000000
,
00010100
00000000
00101000
00000000
00010000
10000000
10000000
00000000
,
01000000
00100000
00010000
00000000
01000000
00001000
00010000
00000000
,
00000100
00000010
00000001
00000100
00000000
00000100
00000000
00000100
,
00000000
00001001
00000000
00010100
00000000
00101000
00000000
10010000
,
01000000
00100000
00001000
00010000
00000000
00000100
00000100
00000000
,
00000010
00000001
00000100
00000010
00000000
00001000
00001000
00000000
,
00000100
00010000
00001000
00100000
00000000
00010000
00010000
10000000
,
00000000
01100000
00000000
00011000
00000000
00001001
00000000
00000000
,
00000110
00000000
00001001
00000000
00000100
00010000
00001000
00000000
,
00100000
00010000
10000000
00000000
00100000
01000000
00001000
00000000
,
00010000
00000100
00000010
00000001
00000000
00001000
00000000
00000100
,
00000000
00011000
00000000
01100000
00000000
10010000
00000000
00011000
,
00000100
00000010
00000001
00001000
00000000
00000100
00000100
00000000
,
00010000
00001000
00100000
00010000
00000000
10000000
10000000
00000000
,
01000000
00100000
00010000
01000000
00000000
00000000
00001000
00010000
,
00000100
00000010
00000000
00000000
00000001
00000100
00000010
00001000
,
00000100
00000100
00000000
00000000
00010000
00000000
00001000
00100000
,
00000000
00010000
10000000
01000000
00000000
00000000
00000000
00000000
;

//---------------dance-couple - ----------------
#NOTES:
     dance-couple:
     :
     Challenge:
     8:
     0.560,0.742,1.000,0.000,0.036:
00000000
00000000
00000000
00000000
,
00000000
00000000
00000000
00000000
,
00000000
00000000
00000000
00000000
,
00000000
00000000
00000000
00000000
,
00000000
00000000
00000000
00000000
,
10000000
01000000
10000000
00000000
00000001
00000100
00000001
00000000
,
10000000
00100000
10000000
00000000
00000001
00000010
00000001
00000000
,
01000000
00100000
00010000
00000000
00000100
00000010
00001000
00000000
,
00000000
10000001
00000000
10000001
01000100
00100010
00011000
00000000
,
01000100
00000000
00000000
00000000
,
00010000
00000000
01000000
00000000
00100000
10000000
00100000
00000000
,
00001000
00000000
00000100
00000000
00000010
00000001
00000010
00000000
,
11000000
00000000
11000000
00000000
00010000
01000000
00010000
00000000
,
00001100
00000000
00001100
00000000
00000001
00000100
00000001
00000000
,
00010000
00100000
01000000
00000000
10000000
00100000
01000000
00000000
,
00000001
00000010
00000100
00000000
00001000
00000010
00000100
00000000
,
10010000
00001001
01100000
00000110
,
10000001
00011000
10000001
00000000
,
00001000
00000100
00000010
00000001
,
00001000
00000100
00000001
00000100
,
00010000
00100000
01000000
10000000
,
00010000
01000000
10000000
01000000
,
00100010
00011000
10000001
01000100
,
00100010
00011000
10000001
00100010
,
01000100
00011000
10000001
01000100
,
00100010
00011000
01000100
00100010
00000000
00000000
00000000
00000000
,
10000001
00000000
01000100
00000000
00100000
00010000
00100000
00000000
,
00000010
00001000
01000010
00000000
10000000
00000000
00100000
00000000
,
00000100
00000001
00000010
00000000
,
01000000
00010000
01000000
00000000
00000100
00001000
00000100
00000000
,
00000010
00000001
10000000
01000000
,
00001000
00000100
00001000
00000000
00100000
00010000
00100000
00000000
,
01000001
10000100
00100010
00000000
,
01001000
00010001
00100100
01000010
10001000
00000000
00000000
00000000
,
00010001
00000000
00000000
00100000
00000000
00000000
01000000
00000000
00000000
00000000
10000000
00000000
00010000
00000000
01000000
00000000
,
00100001
00000000
00000000
10000000
00000000
00000000
01000000
00000000
00000000
00000000
00100000
00000000
00010000
00000000
01000000
00000000
,
00100001
00000000
00000000
10000000
00000000
00000000
00010000
00000000
00000000
00000000
01000000
00000000
00100000
00000000
10000000
00000000
,
00010001
00000000
00000000
00100000
00000000
00000000
01000000
00000000
10000001
00000000
00010000
00000000
01000000
00000000
00100000
00000000
,
10000001
00000000
00000000
00001000
00000000
00000000
00000010
00000000
00000000
00000000
00000100
00000000
00000001
00000000
00001000
00000000
,
10000100
00000000
00000000
00000010
00000000
00000000
00000001
00000000
00000000
00000000
00001000
00000000
00000010
00000000
00000100
00000000
,
10000001
00000000
00000000
00001000
00000000
00000000
00000100
00000000
00000000
00000000
00000010
00000000
00000001
00000000
00000100
00000000
,
10000010
00001000
00000100
00000010
10000001
00000100
00000010
00000000
,
00010000
00000000
01000001
00000000
00100000
10000000
00100001
00000000
,
01000000
00010000
01000001
00000000
00100000
10000000
01000001
00000000
,
00100000
00010000
01000000
00000000
,
00000100
00000001
00000100
00000000
00100000
10000000
00100000
00000000
,
00000010
00000000
10000001
00000000
00001000
00000100
10001000
00000000
,
00000001
00000100
10000001
00000000
00001000
00000010
10001000
00000000
,
00000001
00000100
00000010
00000000
,
10001000
00010001
01000100
00100010
10001000
00000000
00000000
00000000
,
00010001
00000000
01000100
00000000
00100010
10001000
00100010
00000000
,
01000100
00010001
01000100
00000000
00100010
10001000
01000100
00000000
,
00100010
00010001
01000100
00000000
,
00100010
10001000
00100010
00000000
01000100
00010001
01000100
00000000
,
00100010
10001000
01000100
00100010
,
00010001
01000100
00010001
00000000
10001000
00100010
10001000
00000000
,
00010000
00000000
01000000
00100000
00000000
00000000
00000001
00000000
,
00000100
00000010
00000000
00000000
10001000
00000000
01000100
00100010
,
01000100
01000100
00000000
00000000
00100010
00000000
00010001
01000100
,
00000000
00100010
10001000
01000100
00000000
00000000
00000000
00000000
;

//---------------dance-solo - ----------------
#NOTES:
     dance-solo:
     :
     Easy:
     4:
     0.271,0.302,0.156,0.000,0.000:
000000
000000
000000
000000
,
000000
000000
000000
000000
,
000000
000000
000000
000000
,
000000
000000
000000
000000
,
000000
000000
000000
000000
,
010000
000100
100000
000001
,
000100
000010
100000
000001
,
010000
000100
100000
000001
,
000100
000010
100000
000001
,
001100
000000
000000
000000
,
000010
000010
100000
001000
,
010000
000001
000100
001000
,
010000
010000
000001
001000
,
000010
100000
000100
001000
,
100010
000000
010001
000000
,
000110
000000
010100
000000
,
001000
001000
000100
000001
,
100000
001000
000100
000100
,
000001
000000
010000
000000
,
000010
001000
000100
100000
,
001000
000000
000100
000000
,
000001
010000
000010
000000
,
001000
000000
000100
000000
,
100000
001000
010000
000001
,
000110
000000
000000
000000
,
010000
010000
010000
000000
,
000100
100000
001000
010000
,
000001
001000
000010
000000
,
100000
001000
010000
000000
,
000000
100001
000000
001100
,
100000
001000
010000
010000
,
000001
001000
000010
000000
,
100000
001000
010000
000000
,
000000
100001
000000
001100
,
100000
100000
100000
000000
,
000010
000010
000010
000000
,
010000
010000
010000
000000
,
000001
000001
000001
000000
,
000100
000100
000100
000000
,
001000
001000
001000
000000
,
010000
010000
010000
000000
,
100001
000000
000000
000000
,
001000
000100
100000
000010
,
010000
001000
000010
001000
,
010000
000001
100000
000000
,
000000
001100
000000
100001
,
001000
000100
000001
000001
,
000000
010000
000010
001000
,
000000
100000
000001
000100
,
000000
010010
000000
001100
,
100000
000001
001000
000100
,
100000
000010
010000
000000
,
001000
000100
000001
000000
,
001000
000100
100000
000000
,
001000
010000
000001
001000
,
000010
100000
000100
010000
,
000001
000001
000001
000100
,
000100
000100
000010
000010
,
000010
000000
000000
000000
;

//---------------dance-solo - ----------------
#NOTES:
     dance-solo:
     :
     Medium:
     6:
     0.411,0.464,0.344,0.000,0.000:
000000
000000
000000
000000
,
000000
000000
000000
000000
,
000000
000000
000000
000000
,
000000
000000
000000
000000
,
000000
000000
000000
000000
,
000001
001000
000010
000000
000010
000000
000010
000000
,
100000
001000
000001
001000
,
100000
001000
010000
000000
010000
000000
010000
000000
,
000001
001000
000100
100000
,
010010
000000
000000
000000
,
101000
000000
101000
000000
000001
001000
000010
000000
,
100000
000100
010000
000000
001000
000000
100001
000000
,
000110
100001
010100
100001
,
001000
000000
000100
000000
000001
010000
000010
000000
,
100000
100000
100000
000000
001000
001000
001000
000000
,
000100
000100
000100
000000
000001
000001
000001
000000
,
010010
100100
001001
101000
,
010001
000000
000000
000000
,
100000
000000
000010
000000
001000
000100
000100
000000
,
100000
000000
001000
000000
010000
000001
000001
000000
,
000100
000000
001000
000000
010000
000001
000001
000000
,
001000
000000
000100
000000
100000
000010
000010
000000
,
010000
000000
000001
000000
100000
001000
001000
000000
,
000100
000000
000001
000000
010000
000010
000010
000000
,
100000
000100
001000
000001
,
100010
010001
001100
000000
,
100000
000000
000001
000000
010000
001000
000100
000000
,
000001
001000
000010
000000
100000
000000
001000
000000
,
000100
000001
001000
000000
000010
100000
001000
000000
,
010000
000001
001000
000010
,
100000
001000
010000
000000
000001
001000
000010
000000
,
100000
001000
000100
000001
,
010010
100100
011000
000000
,
000100
000001
001000
000100
,
100000
010000
100000
000100
000000
000000
000000
000000
,
010000
000010
010000
000001
000000
000000
000000
000000
,
000100
001000
000100
000001
000000
000000
000000
000000
,
010000
000010
010000
000000
000100
100000
001000
000000
,
010000
000001
010000
000010
000000
000000
000000
000000
,
100000
000100
100000
010000
000000
000000
000000
000000
,
001000
000010
001000
000001
000000
000000
000000
000000
,
101000
100100
010010
000101
,
100000
000000
001000
000000
010000
000001
001000
000000
,
000010
100000
000100
000000
010000
000000
001000
000000
,
000100
000001
100000
000000
000100
001000
000010
000000
,
100001
010100
100001
000000
,
000100
001000
010000
000000
000001
000000
001000
000000
,
000010
100000
001000
000000
010000
000000
000001
000000
,
000100
001000
010000
000000
000001
000000
001000
000000
,
100010
010001
000110
000000
,
100000
000000
001000
000000
010000
000001
000100
000000
,
000010
010000
001000
000000
100000
000000
000001
000000
,
001000
000100
001000
000000
100001
000000
000000
000000
,
010000
001000
000100
000001
,
100000
000010
100000
000000
000100
010000
000100
000000
,
100000
001000
000100
000001
,
010000
000100
010000
000000
100001
000000
000100
010000
,
000100
000000
100001
000000
000100
000010
000100
000000
,
100001
000000
000000
000000
,
000000
000100
000010
001000
000000
000000
000000
000000
;

//---------------dance-solo - ----------------
#NOTES:
     dance-solo:
     :
     Hard:
     8:
     0.499,0.495,0.333,0.000,0.036:
000000
000000
000000
000000
,
000000
000000
000000
000000
,
000000
000000
000000
000000
,
000000
000000
000000
000000
,
000000
000000
000000
000000
,
100001
000000
001100
000000
010000
001000
000010
000000
,
010000
000001
001000
000100
000000
001000
000010
000000
,
100000
001000
010000
000000
000001
001000
000010
000000
,
100100
000000
001001
000000
100000
001000
000100
000000
,
100001
000000
000000
000000
,
010100
000110
100100
010001
,
001000
000100
000001
001000
000010
100000
001000
000000
,
000100
000001
010000
000000
000100
001000
000010
000000
,
100000
001000
000100
000001
010000
001000
000100
000000
,
000001
001000
000010
000000
100000
000001
010000
000000
,
001000
000100
000001
000000
001000
000010
100000
000000
,
010100
100010
010001
001100
,
100001
000000
000000
000000
,
001000
010000
000001
100000
000000
000010
000010
000000
,
000100
001000
100000
000001
001000
000010
000000
000000
,
100000
000100
010000
000001
000000
000100
000100
000000
,
001000
010000
000001
100000
000000
000000
000000
000000
,
000010
001000
000100
100000
000000
001000
000100
000000
,
000001
010000
000010
100000
000000
000100
001000
000000
,
000010
100000
001000
000100
000001
010000
000010
000000
,
100100
001001
000110
000000
,
100000
000000
001000
000000
000100
000001
010000
000000
,
000010
100000
000001
000000
001100
000000
100001
000000
,
000010
001000
000100
100000
000000
001000
000100
000000
,
000001
010000
000100
001000
000000
000010
100000
000000
,
010001
001100
010001
100010
,
001100
000000
100001
000000
001000
001000
001000
000000
,
000100
000001
010000
000010
001000
000100
100000
000000
,
001000
000100
000001
010000
000100
001000
000010
000000
,
100001
000000
000000
001000
000000
000000
000100
000000
000000
000000
000001
000000
001000
000000
000100
000000
,
100000
000000
000000
001000
000000
000000
010000
000000
000000
000000
000001
000000
001000
000000
000010
000000
,
100000
000000
000000
001000
000000
000000
000100
000000
000000
000000
000001
000000
010000
000000
000010
000000
,
001000
000000
000000
000100
000000
000000
100000
000000
000000
000000
001000
000000
000100
000000
000001
000000
,
010000
000000
000000
000010
000000
000000
100000
000000
000000
000000
000100
000000
001000
000000
000010
000000
,
100000
000000
000000
000001
000000
000000
010000
000000
000000
000000
001000
000000
000100
000000
000001
000000
,
010000
000000
000000
000010
000000
000000
001000
000000
000000
000000
000100
000000
100000
000000
001000
000000
,
000100
000001
010000
000010
,
000101
000000
010010
000000
000100
001000
010000
000000
,
000001
001000
000100
100000
,
001000
000100
000001
010000
000010
001000
000100
000000
,
100000
000010
000100
000001
010000
001000
000100
000000
,
000001
001000
000010
100000
000000
001000
001000
000000
,
000100
000001
010000
000010
000000
100000
100000
000000
,
001000
000100
000001
001000
000010
100000
000001
000000
,
011000
100001
001010
100001
,
010000
001000
000100
000001
010000
001000
001000
000000
,
000100
000001
100000
000010
000000
001000
001000
000000
,
000100
100000
001000
000100
000001
010000
000010
000000
,
001000
000100
100000
000010
000000
010000
010000
000000
,
000001
000100
000001
000000
010000
000010
010000
000000
,
000100
100000
000100
000000
001000
000010
001000
000000
,
000001
000100
000001
010000
000000
000000
000010
100000
,
000010
001000
000000
000000
000100
001000
000100
100000
,
000010
000010
000000
000000
010000
000000
000001
000100
,
000000
000010
010000
001000
000000
000000
000000
000000
;

//---------------dance-single - Edit by silenttype01----------------
#NOTES:
     dance-single:
     Edit by silenttype01:
     Challenge:
     9:
     0.603,0.804,0.636,0.094,0.141: // measure 1
0000
0000
0000
0000
,  // measure 2
0000
0000
0000
0000
,  // measure 3
0000
0000
0000
0000
0000
0000
0000
0001
,  // measure 4
0001
0000
0100
0000
,  // measure 5
1010
0000
0000
0000
0000
0000
0000
0000
0101
0000
0000
0000
0000
0000
1000
0100
,  // measure 6
0010
0001
0100
0010
0100
0001
1000
0100
,  // measure 7
0001
0100
1000
0002
0000
0000
0000
0003
,  // measure 8
0000
1000
0010
0100
0010
1000
0001
0010
,  // measure 9
1000
0010
0001
2000
0000
3000
0000
0000
,  // measure 10
0220
0000
0000
0330
,  // measure 11
0011
0000
0101
0000
0010
1000
0100
0000
,  // measure 12
0010
0001
0100
0010
1000
0100
0010
0000
,  // measure 13
0001
0010
0100
0000
0100
1000
0010
0000
,  // measure 14
0010
0100
0001
1000
0010
0100
1100
0000
,  // measure 15
1100
0101
1001
0000
1001
0011
0110
0000
,  // measure 16
0110
1100
1010
0000
1010
0110
0101
0000
,  // measure 17
0101
1001
1010
0000
0100
1000
0010
0100
,  // measure 18
0001
0000
0010
0000
0010
0000
0001
0000
1000
0001
0000
1000
0001
0000
0100
0000
,  // measure 19
0000
0100
0000
0001
0000
1010
0000
0010
,  // measure 20
0000
0100
0000
0001
0000
1100
0000
0001
,  // measure 21
0000
1000
0000
0100
0000
0011
0000
0001
,  // measure 22
0000
0010
0000
0100
0000
1000
0002
0100
,  // measure 23
0003
0010
0000
0100
0000
0011
0000
1000
,  // measure 24
0200
0010
0300
0001
0000
0101
0000
0010
,  // measure 25
2000
0100
3000
0110
0000
0110
0000
0010
,  // measure 26
0001
1000
0001
0000
1000
0001
1000
0000
0001
1000
0001
0000
0100
0000
0100
0000
,  // measure 27
0010
0000
1000
0000
0001
0100
0010
0000
,  // measure 28
1000
0000
0100
0000
0010
0001
1000
0001
,  // measure 29
0100
0000
0010
0000
1000
0100
1000
0000
,  // measure 30
0011
0000
0000
1000
0010
1000
0100
0010
,  // measure 31
0001
0000
0100
0000
0010
1000
0100
0000
,  // measure 32
0101
0000
1000
0000
0100
1000
0010
0000
,  // measure 33
0101
0000
1000
0000
0010
0001
0100
0000
,  // measure 34
0000
1100
1010
0011
,  // measure 35
0101
0000
1100
0000
0000
1000
0000
1000
,  // measure 36
0000
0110
0000
1001
0000
0110
0000
0000
,  // measure 37
1001
0000
0000
0011
0000
0000
0101
0000
0000
0000
0100
0000
1000
0000
0100
0000
,  // measure 38
0101
0000
0000
0110
0000
0000
0011
0000
0001
0000
0010
0000
1000
0000
0100
0000
,  // measure 39
1100
0000
0000
0101
0000
0000
0110
0000
0000
0000
0010
0000
0001
0000
0100
0000
,  // measure 40
0110
0000
0000
1100
0000
0000
0101
0000
0000
0000
0100
0000
0010
0000
0001
0000
,  // measure 41
0011
0000
0000
0110
0000
0000
1001
0000
0000
0000
0000
0000
0000
0000
0000
0000
,  // measure 42
0220
0000
0000
0330
,  // measure 43
0001
0000
0000
0000
1000
0000
0100
0010
0100
0000
0010
0000
0001
0000
0000
0000
,  // measure 44
1000
0000
0000
0000
0001
0000
0100
0010
0100
0000
0010
0000
1000
0000
0100
0000
,  // measure 45
0010
0000
0000
0000
0001
0000
1000
0100
1000
0000
0001
0000
0100
0000
0000
0000
,  // measure 46
0010
0000
0000
0000
1000
0000
0001
0100
0001
0000
1000
0000
0100
0000
0001
0000
,  // measure 47
0100
0000
0000
0000
0010
0000
0001
0100
0001
0000
0010
0000
0100
0000
0000
0000
,  // measure 48
1000
0000
0000
0000
0010
0000
0100
1000
0100
0000
0010
0000
1000
0000
0010
0000
,  // measure 49
0100
0000
0000
0000
0001
0000
1000
0100
1000
0000
0010
0000
0100
0000
0100
0000
,  // measure 50
0000
0011
0000
0000
0000
1100
0100
0100
,  // measure 51
0100
0000
1000
0000
0010
0000
0100
0001
1000
0000
0100
0000
0010
0000
0100
0000
,  // measure 52
1000
0000
0001
0000
0100
0000
0010
0001
0010
0000
0100
0000
0001
0000
1000
0000
,  // measure 53
0010
0000
1000
0000
0010
0000
0100
0001
0100
0000
0001
0000
0010
0000
1000
0000
,  // measure 54
0010
0000
0001
0000
0100
0000
1000
0100
0010
0000
1000
0000
0001
0000
0010
0000
,  // measure 55
0100
0000
1000
0000
0100
0000
0001
0100
1000
0000
0001
0000
0100
0000
0010
0000
,  // measure 56
0001
0000
0010
0000
1000
0000
0100
0010
0001
0000
0100
0000
1000
0000
0100
0000
,  // measure 57
0010
1000
0000
0001
0000
1000
0000
0001
,  // measure 58
0000
1001
0000
1001
0000
1000
0100
0001
,  // measure 59
0011
0110
0000
0000
0000
1000
0010
0100
,  // measure 60
0001
0010
0001
0010
0100
1000
0100
0000
0000
0000
0000
0000
0000
0000
0000
0000
;

//---------------dance-double - Edit by silenttype01----------------
#NOTES:
     dance-double:
     Edit by silenttype01:
     Challenge:
     9:
     0.531,0.557,0.146,0.063,0.104:
00000000
00000000
00000000
00000000
,
00000000
00000000
00000000
00000000
,
00000000
00000000
00000000
00000000
00000000
00000000
00000000
10000000
,
10000000
00000000
00010000
00000000
,
10100000
00000000
00000000
00000000
00000000
00000000
00000000
00000000
01010000
00000000
00000000
00000000
00000000
00000000
10000000
01000000
,
00010000
00001000
00000100
00000001
,
00001000
00010000
10000000
01000000
,
00010000
00000000
00000000
00000000
01000000
00000000
00000000
00000000
10000000
00000000
00000000
00000000
00010000
00000000
00000000
01000000
,
00000000
00100000
00000000
00010000
00001000
00000100
00000001
00001000
,
00000020
00000000
00000000
00000000
,
00001030
00000100
00000010
00000001
00000100
00001000
00010000
01000000
,
00100000
00010000
00100000
01000000
10000000
00100000
10000000
01000000
,
00010000
00001000
00000100
00000001
00000010
00000001
00000100
00000010
,
00001000
00000010
00000100
00001000
00010000
00100000
10000000
01000000
,
00100000
00010000
01000000
00100000
00010000
00001000
00000100
00000010
,
00001000
00000100
00000001
00000100
00001000
00000010
00000100
00001000
,
00010000
00100000
01000000
00010000
00100000
01000000
00010000
00001000
,
00000100
00000000
00000010
00000000
00000010
00000000
00001000
00000000
00000001
00000100
00000000
00000001
00000100
00000000
00000010
00000000
,
00000000
00000100
00000000
00000001
00000000
00000100
00000000
00001000
,
00000000
00010000
00000000
10000000
00000000
01000000
00000000
00100000
,
00000000
00010000
00000000
01000000
00000000
00100000
00000000
00001000
,
00000000
00010000
00000000
00000100
00000000
00001000
00000200
00000010
,
00000300
00000001
00000000
00001000
00000000
00000100
00000000
00000010
,
00002000
00010000
00003000
01000000
00000000
10000000
00000000
00100000
,
02000000
00010000
03000000
10000000
00000000
01000000
00000000
00010000
,
00001000
00010000
00001000
00000000
00010000
00001000
00010000
00000000
00001000
00010000
00001000
00000000
00010000
00000000
00010000
00000000
,
00001000
00000000
01000000
00000000
00100000
10000000
01000000
00000000
,
00010000
00000000
00001000
00000000
00000010
00000001
00000100
00000001
,
00001000
00000000
00000010
00000000
00000100
00001000
00010000
00000000
,
00100000
00000000
01000000
00000000
00010000
00100000
00010000
10000000
,
01000000
00000000
00010000
00000000
00001000
00010000
00001000
00000000
,
00000100
00000000
00001000
00000000
00000100
00000010
00000100
00000001
,
00001000
00000000
00010000
00000000
10000000
01000000
00100000
00000000
,
00000000
00000000
01100000
00000000
10010000
00000000
00100000
00100000
,
10010000
00000000
00011000
00000000
00000000
00001000
00000000
00001000
,
00000000
00000110
00000000
00001001
00000000
00000110
00000000
00000000
,
00000001
00000000
00000000
00000100
00000000
00000000
00001000
00000000
00000000
00000000
00010000
00000000
00001000
00000000
00000100
00000000
,
00000010
00000000
00000000
00001000
00000000
00000000
00000100
00000000
00000010
00000000
00001000
00000000
00010000
00000000
01000000
00000000
,
00100000
00000000
00000000
00001000
00000000
00000000
01000000
00000000
00000000
00000000
00100000
00000000
10000000
00000000
00000000
00000000
,
01000000
00000000
00000000
00010000
00000000
00000000
00001000
00000000
00000000
00000000
00010000
00000000
01000000
00000000
00000000
00000000
,
00100000
00000000
00000000
00010000
00000000
00000000
01000000
00000000
00000000
00000000
00000000
00000000
00000000
00000000
00000000
00000000
,
00022000
00000000
00000000
00033000
,
00001000
00000000
00000000
00000000
00000100
00000000
00000010
00001000
00000010
00000000
00001000
00000000
00000100
00000000
00000000
00000000
,
00000010
00000000
00000000
00000000
00000001
00000000
00001000
00000100
00001000
00000000
00000100
00000000
00000000
00000000
00000001
00000000
,
00000100
00000000
00000000
00000000
00010000
00000000
00001000
00010000
00001000
00000000
00010000
00000000
01000000
00000000
00000000
00000000
,
00100000
00000000
00000000
00000000
00010000
00000000
10000000
01000000
10000000
00000000
01000000
00000000
00000000
00000000
00010000
00000000
,
00001000
00000000
00000000
00000000
00000010
00000000
00001000
00000010
00001000
00000000
00010000
00000000
00001000
00000000
00000000
00000000
,
01000000
00000000
00000000
00000000
00100000
00000000
00010000
00100000
00010000
00000000
00001000
00000000
00000000
00000000
00000100
00000000
,
00000010
00000000
00000000
00000000
00000100
00000000
00001000
00010000
00001000
00000000
00010000
00000000
00100000
00000000
00000000
00000000
,
10000000
00000000
00000000
00000000
01000000
00000000
00010000
01000000
00010000
00000000
00001000
00000000
00000010
00000000
00000010
00000000
,
00000010
00000100
00001000
00000001
00000010
00000100
00010000
00001000
,
00010000
00100000
01000000
10000000
01000000
00100000
10000000
00010000
,
01000000
00100000
00001000
00100000
01000000
00010000
00100000
01000000
,
10000000
01000000
00010000
00001000
00000010
00000001
00001000
00000001
,
00000100
00001000
00010000
00000100
00001000
00000010
00000100
00000001
,
00000010
00001000
00010000
01000000
00100000
01000000
10000000
00100000
,
00100000
01000000
10000000
00010000
00000000
00000000
00000100
00000100
,
00000010
00001000
00000000
00000001
00000001
00000010
00001000
00000100
,
00001100
00000110
00000000
00000000
00000000
00000001
00000100
00000010
,
00001000
00000100
00000101
00001001
00000000
00000000
00000000
00000000
;

//---------------dance-double - ----------------
#NOTES:
     dance-double:
     :
     Beginner:
     1:
     0.161,0.212,0.031,0.000,0.000:
00000000
00000000
00000000
00000000
,
00000000
00000000
00000000
00000000
,
00000000
00000000
00000000
00000000
,
00000000
00000000
00000000
00000000
,
00000000
00000000
00000000
00000000
,
10000000
00000000
00100000
00000000
,
00001000
00000000
00000100
00000000
,
00000010
00000000
00000100
00000000
,
00000010
00000000
00001000
00000000
,
00100000
00000000
00000000
00000000
,
10000000
00000000
01000000
00000000
,
00001000
00000000
00000010
00000000
,
00001000
00000000
00000100
00000000
,
00001000
00000000
01000000
00000000
,
10010000
00000000
01000000
00000000
,
00011000
00000000
00000100
00000000
,
00000010
00000000
00001000
00000000
,
00010000
00000000
00011000
00000000
,
01000000
00000000
10000000
00000000
,
01000000
00000000
10000000
00000000
,
00100000
00000000
01000000
00000000
,
00010000
00000000
00000100
00000000
,
00001000
00000000
00010000
00000000
,
00100000
00000000
01000000
00000000
,
00010000
00000000
00000000
00000000
,
00001000
00000000
00001000
00000000
,
00000100
00000000
00000100
00000000
,
01000000
00000000
01000000
00000000
,
00000100
00000000
01000000
00000000
,
00000010
00000000
00100000
00000000
,
00000100
00000000
00000001
00000000
,
00000010
00000000
00001000
00000000
,
00100000
00000000
01000000
00000000
,
00100000
00000000
00010000
00000000
,
00000100
00000000
00000100
00000000
,
00000010
00000000
00000010
00000000
,
00000001
00000000
00000001
00000000
,
00001000
00000000
00010000
00000000
,
00100000
00000000
00100000
00000000
,
01000000
00000000
01000000
00000000
,
10000000
00000000
10000000
00000000
,
00010000
00000000
00001000
00000000
,
00000100
00000000
00000100
00000000
,
01000000
00000000
01000000
00000000
,
00000100
00000000
01000000
00000000
,
00000010
00000000
00100000
00000000
,
00000100
00000000
00000001
00000000
,
00000010
00000000
00001000
00000000
,
00100000
00000000
01000000
00000000
,
00100000
00000000
00010000
00000000
,
00000100
00000000
00100000
00000000
,
00000010
00000000
01000000
00000000
,
00000100
00000000
00000001
00000000
,
00000010
00000000
00010000
00000000
,
00100000
00000000
10000000
00000000
,
00100000
00000000
00010000
00000000
,
00000010
00000000
00000100
00000000
,
00010000
00000000
00100000
00000000
,
10000000
00000000
00000000
00000000
;
