#TITLE:부담;
#SUBTITLE:;
#ARTIST:백지영;
#TITLETRANSLIT:BU DAM;
#SUBTITLETRANSLIT:;
#ARTISTTRANSLIT:BACK JI YOUNG;
#CREDIT:;
#BANNER:BU DAM.png;
#BACKGROUND:BU DAM-bg.png;
#LYRICSPATH:;
#CDTITLE:./CDTITLES/KOREAN DANCE MUSIC.png;
#MUSIC:BU DAM.mp3;
#OFFSET:1.466;
#SAMPLESTART:19.538;
#SAMPLELENGTH:14.940;
#SELECTABLE:YES;
#DISPLAYBPM:140.000;
#BPMS:0.000=140.000,50.000=141.000,52.000=140.000,58.000=142.000,60.000=140.000,82.000=141.000,84.000=140.000,114.000=141.000,116.000=140.000,178.000=141.000,180.000=140.000,194.000=144.000,196.000=140.000;
#STOPS:;
#BGCHANGES:;

//---------------dance-single - ----------------
#NOTES:
     dance-single:
     :
     Easy:
     3:
     0.296,0.347,0.295,0.000,0.000:
0000
0000
0000
0000
,
0000
0000
0000
0000
,
0000
0000
0000
0000
,
0000
0000
0000
0000
,
0000
0000
0000
0000
,
1000
0001
0100
1001
,
0100
1001
0100
1001
,
0001
1000
0100
1001
,
0100
1001
0100
1001
,
1000
0100
0010
0001
,
1000
0010
0100
0001
,
0010
0010
0010
0010
,
1001
0000
0000
0000
,
1001
0100
1000
0100
,
0001
0010
0001
1000
,
0100
0010
0001
1000
,
0010
0100
0001
1000
,
0001
0000
1000
0000
,
0001
1000
0001
1000
,
0100
0100
0001
0100
,
1001
0000
0000
0000
,
0010
0000
1000
0000
,
0001
0000
0100
0000
,
1001
0100
1001
0100
,
0010
0010
0100
0100
,
1001
0100
1001
0100
,
1000
1000
0001
0001
,
1000
1000
0001
0001
,
0110
0000
0000
0000
,
1000
0100
0001
0100
,
1000
0100
0001
0100
,
1001
0100
0001
0100
,
1000
0100
0001
0100
,
1001
0100
0010
0001
,
0100
1000
0100
0001
,
1000
0100
0100
0100
,
0001
0000
0000
0000
,
1000
0100
0001
0100
,
1000
0100
0001
0100
,
1001
0000
0000
0000
,
1000
0100
0001
0100
,
1000
0000
0000
0000
,
0001
0000
0000
0000
,
0110
1001
0110
1001
,
0110
0000
0000
0000
,
0001
0100
1000
0100
,
0001
0100
1000
0100
,
1001
0100
1001
0100
,
1001
0100
1001
0100
,
0010
1000
0100
0001
,
0100
1000
0010
0001
,
0010
1000
0100
0001
,
0100
1000
0001
0100
,
1001
0000
0000
0000
;

//---------------dance-single - ----------------
#NOTES:
     dance-single:
     :
     Medium:
     4:
     0.312,0.376,0.131,0.000,0.000:
0000
0000
0000
0000
,
0000
0000
0000
0000
,
0000
0000
0000
0000
,
0000
0000
0000
0000
,
0000
0000
0000
0000
,
0010
0000
0010
0000
0001
0100
1000
0000
,
0100
0001
1000
1000
,
0010
0000
0010
0000
1000
0100
0001
0000
,
0100
1000
0001
0001
,
1000
1000
0001
0001
,
0010
1000
0100
0000
0010
0001
0100
0000
,
0010
1000
0001
0100
,
0010
0000
0000
0000
,
0010
1000
0001
0100
,
0010
1000
0001
0100
,
1000
0100
0010
0001
,
1000
0100
0010
0001
,
1000
0000
0001
0000
,
0010
1000
0100
0001
,
0100
1000
0010
1000
,
0001
0000
0000
0000
,
1000
0000
0001
0000
,
0010
1000
0100
0000
0010
0001
0100
0000
,
0001
0001
1000
0000
1000
1000
0001
0000
,
1000
1000
0001
0001
,
1000
0000
0001
0000
1000
0100
0001
0000
,
0100
0000
1000
0000
0001
0100
1000
0000
,
0001
0000
0001
0000
0010
0001
0100
0000
,
1001
0000
0000
0000
,
0010
1000
0001
0100
,
0010
1000
0001
0010
,
0001
1000
0100
0010
,
0001
1000
0010
1000
,
0001
0010
0001
1000
,
0001
0100
0010
1000
,
0001
0110
1001
0100
,
0010
0000
0000
0000
,
1001
0010
0100
1001
,
0010
1000
0100
1001
,
0010
0001
0100
1001
,
0010
1000
0100
1001
,
0010
1001
0100
1001
,
0010
1001
0100
1001
,
0010
0000
0010
0000
0010
0000
1000
0001
,
1000
0000
0000
0000
,
0010
1000
0001
0100
,
0010
1000
0001
0100
,
1000
0100
0010
0001
,
1000
0100
0010
0001
,
1000
0000
0001
0000
1000
0001
1000
0000
,
0010
1000
0100
0001
,
0100
1000
0010
1000
,
0001
0000
1000
0000
0001
0100
1000
0000
,
0100
0000
0000
0000
;

//---------------dance-single - ----------------
#NOTES:
     dance-single:
     :
     Hard:
     7:
     0.451,0.521,0.153,0.000,0.000:
0000
0000
0000
0000
,
0000
0000
0000
0000
,
0000
0000
0000
0000
,
0000
0000
0000
0000
,
0000
0000
0000
0000
,
0010
0000
0000
0000
0000
1000
0100
0001
,
0100
0000
0000
1000
,
0001
0000
0000
0000
0000
1000
0001
0100
,
0010
0000
0000
1000
,
0001
0000
1000
0100
0000
0000
0000
0000
,
1000
0000
0001
0100
0000
0000
0000
0000
,
0010
0000
0010
0000
1000
0001
0100
0010
,
1000
0000
0000
0000
,
1000
0100
0010
0001
1000
0100
0010
0001
,
0100
0010
1000
0001
0100
0010
1000
0001
,
0100
0001
1000
0010
0100
0001
1000
0010
,
1000
0100
0010
0001
1000
0100
0010
0001
,
1000
0100
0001
0000
1000
0100
0001
0000
,
1001
0100
0010
0000
0001
0100
1001
0000
,
1000
0100
0010
0001
0100
0001
1000
0010
,
0100
0000
0000
0000
,
1001
0000
0010
0000
1000
0100
0001
0000
,
1000
0100
0001
0000
1000
0100
0001
0000
,
1000
1000
0100
0000
0001
0001
0100
0000
,
1000
1000
0001
0001
1000
0001
0100
0000
,
0010
0000
0010
0000
1000
0001
0100
0000
,
0010
0000
0010
0000
0001
1000
0100
0000
,
1000
0000
0001
0000
1000
0001
0100
0000
,
0010
0000
0000
0000
,
1000
0100
0010
0001
1000
0100
0010
0001
,
0100
0010
1000
0001
0100
0010
1000
0001
,
0100
0001
1000
0010
0100
0001
1000
0010
,
1000
0100
0010
0001
1000
0100
0010
0001
,
1000
0100
0001
0000
1000
0100
0001
0000
,
1001
0100
0010
0000
0001
0100
1001
0000
,
1000
0100
0010
0001
0100
0001
1000
0010
,
0100
0000
0000
0000
,
0001
0100
0010
1000
0001
0100
0010
1000
,
0100
0010
0001
1000
0100
0010
0001
1000
,
0100
1000
0001
0010
0100
1000
0001
0010
,
0001
0100
0010
1000
0001
0100
0010
1000
,
0001
0100
1000
0000
0001
0100
1000
0000
,
1001
0100
0010
0000
1000
0100
1001
0000
,
0001
0100
0010
1000
0100
1000
0001
0010
,
0100
0000
0000
0000
,
1001
0100
1000
0100
0001
0100
1000
0000
,
1001
0100
0001
0100
1000
0100
0001
0000
,
1001
0100
0010
0001
0010
1000
0100
0000
,
1001
0100
0010
1000
0010
0001
0100
0000
,
0010
0000
0010
0000
1001
0100
1000
0000
,
0010
0000
0010
0000
1001
0100
0001
0000
,
1000
0000
1000
0001
0001
0000
0001
1000
,
0001
0000
0001
0100
1000
0000
1000
0100
,
1001
0000
0000
0000
;

//---------------dance-double - ----------------
#NOTES:
     dance-double:
     :
     Easy:
     3:
     0.268,0.289,0.044,0.000,0.000:
00000000
00000000
00000000
00000000
,
00000000
00000000
00000000
00000000
,
00000000
00000000
00000000
00000000
,
00000000
00000000
00000000
00000000
,
00000000
00000000
00000000
00000000
,
00011000
01000000
00010000
01000000
,
10000000
01000000
00010000
00001000
,
00010000
01000000
00010000
00001000
,
00000100
00001000
00000100
00000001
,
00001000
00000100
00001000
00000001
,
00000100
00001000
00010000
00001000
,
00001000
00010000
01000000
10000000
,
00100000
00000000
00000000
00000000
,
10000000
00010000
10000000
00010000
,
10000000
01000000
00010000
00001000
,
00010000
00001000
00010000
00001000
,
00000100
00000001
00001000
00000001
,
00001000
00000000
00000001
00000000
,
00001000
00000001
00001000
00000100
,
00010000
00001000
00010000
01000000
,
10000000
00000000
00000000
00000000
,
00010000
00000000
10000000
00000000
,
00010000
10000000
01000000
00010000
,
00001000
00010000
00001000
00000100
,
00001000
00010000
00001000
00010000
,
01000000
10000000
00010000
01000000
,
00001000
00000100
00000001
00001000
,
00000001
00000001
00001000
00001000
,
00011000
00000000
00000000
00000000
,
00011000
01000000
10000000
00010000
,
10000000
00010000
01000000
10000000
,
01000000
00010000
00100000
00010000
,
10000000
01000000
00010000
00001000
,
00000100
00000001
00001000
00000001
,
00000100
00001000
00000100
00000001
,
00001000
00000100
00000100
00000100
,
00010000
00000000
00000000
00000000
,
00001000
00010000
00001000
01000000
,
10000000
01000000
00010000
10000000
,
01000000
00010000
00001000
00000100
,
00000001
00001000
00000100
00010000
,
00001000
00000000
00000000
00000000
,
00010000
00000000
00000000
00000000
,
00001000
00010000
00001000
00000100
,
00000001
00000000
00000000
00000000
,
00010000
01000000
10000000
00010000
,
01000000
00100000
00010000
00001000
,
00000100
00000001
00000010
00001000
,
00010000
00100000
10000000
01000000
,
00010000
00001000
00000100
00000001
,
00001000
00000001
00001000
00000100
,
00010000
00001000
00010000
01000000
,
10000000
00100000
10000000
01000000
,
01100000
00000000
00000000
00000000
;

//---------------dance-double - ----------------
#NOTES:
     dance-double:
     :
     Medium:
     5:
     0.301,0.347,0.055,0.000,0.000:
00000000
00000000
00000000
00000000
,
00000000
00000000
00000000
00000000
,
00000000
00000000
00000000
00000000
,
00000000
00000000
00000000
00000000
,
00000000
00000000
00000000
00000000
,
00001001
00000000
00000000
00000000
00000000
00000000
00000001
00000100
,
00001000
00010000
01000000
10000000
00010000
00000000
00010000
00000000
,
01100000
00000000
00000000
00000000
00000000
00000000
10000000
01000000
,
00010000
00001000
00000100
00000001
00001000
00000000
00001000
00000000
,
00000001
00000000
00001000
00000001
00000000
00000000
00000000
00000000
,
00001000
00000000
00000100
00010000
00000000
00000000
00000000
00000000
,
00001000
00000000
00001000
00000000
00001000
00010000
00001000
00000100
,
00000001
00000000
00000000
00000000
,
10000000
01000000
00010000
00000000
00001000
00000100
00000001
00000000
,
00001000
00000000
00001000
00000000
00001000
00000001
00001000
00000000
,
00000001
00000100
00001000
00000000
00001000
00000100
00000001
00000000
,
00001000
00000000
00001000
00000000
00000001
00001000
00000001
00000000
,
00000100
00000000
00001000
00000000
,
00010000
00000000
00001000
00000000
00010000
01000000
10000000
00000000
,
00010000
00000000
10000000
00000000
00010000
01000000
10000000
00000000
,
01000000
00000000
00000000
00000000
,
00100000
00000000
10000000
00000000
,
00010000
10000000
01000000
00000000
00010000
00001000
00010000
00000000
,
00001000
00001000
00010000
00010000
,
00001000
00010000
00001000
00010000
,
00000100
00000100
00010000
00001000
,
01000000
01000000
00001000
00010000
,
00001000
00001000
00010000
00010000
,
10010000
00000000
00000000
00000000
,
10000000
00010000
10000000
00010000
,
10000000
00000000
00010000
00000000
10000000
00000000
00100000
00010000
,
00001000
00010000
00001000
00010000
,
00001000
00000100
00001000
00010000
,
01000000
00010000
00001000
00000100
,
00000001
00001000
00000100
00000001
,
00000100
00001000
00000010
00010000
,
00001000
00000000
00000000
00000000
,
00001000
00010000
00001000
01000000
,
00001000
00010000
00000100
00001000
,
00000001
00001000
00000001
00001000
,
00000100
00010000
01000000
00010000
,
00001000
00000100
00000001
00000010
,
00001000
00010000
01000000
10000000
,
00100000
00010000
00001000
00000010
,
00000001
00000000
00000000
00000000
,
00001000
00010000
00011000
00000100
,
00001000
00000000
00010000
00000000
00001000
00000000
00010000
01000000
,
10000000
00010000
10000000
00010000
,
00010000
00100000
00100000
00100000
,
00010000
10000000
00100000
00010000
,
00001000
00010000
00001000
00000100
,
00000001
00000010
00001000
00010000
,
00100000
10000000
00010000
01000000
,
10010000
00000000
00000000
00000000
;

//---------------dance-double - ----------------
#NOTES:
     dance-double:
     :
     Hard:
     8:
     0.454,0.492,0.044,0.000,0.000:
00000000
00000000
00000000
00000000
,
00000000
00000000
00000000
00000000
,
00000000
00000000
00000000
00000000
,
00000000
00000000
00000000
00000000
,
00000000
00000000
00000000
00000000
,
00010000
00000000
00001000
00000000
00010000
01000000
10000000
00010000
,
01000000
10000000
01000000
00010000
00100000
00001000
00010000
00000000
,
00001000
00000000
00010000
00000000
00001000
00000100
00000001
00001000
,
00000100
00000001
00000100
00001000
00000010
00010000
00001000
00000000
,
00010000
00100000
10000000
01000000
00010000
01000000
10000000
00000000
,
00100000
00010000
00001000
00000010
00001000
00010000
00100000
00000000
,
00010000
00001000
00000100
00001000
,
00000001
00000000
00000000
00000000
,
00000010
00001000
00000001
00001000
00000100
00000010
00000001
00001000
,
00000100
00001000
00100000
10000000
00010000
10000000
01000000
00010000
,
00001000
00010000
00001000
00000100
00000001
00001000
00000001
00001000
,
00000100
00000010
00000001
00001000
00000100
00001000
00000100
00000000
,
00010000
00001000
00010000
01000000
10000000
00010000
01000000
10000000
,
01000000
00010000
00100000
00010000
10000000
01000000
00010000
00001000
,
00010000
00000000
00001000
00000000
00001000
00000000
00010000
00001000
,
00000100
00000000
00000000
00000000
,
10010000
01000000
10000000
00000000
00010000
10000000
00010000
00000000
,
00100000
00010000
01000000
00000000
00100000
00010000
00001000
00000000
,
00010000
00001000
00000100
00000000
00000010
00001000
00000100
00000000
,
00000010
00000001
00000100
00000000
00001000
00000100
00000001
00000000
,
00001000
00000000
00001000
00000000
00000001
00000100
00001000
00000000
,
00010000
00000000
00010000
00000000
00001000
00010000
01000000
00000000
,
10000000
10000000
00010000
00010000
,
01100000
00000000
00000000
00000000
,
00100000
00010000
10000000
00010000
01000000
00100000
10000000
00010000
,
01000000
00010000
00000010
00000001
00001000
00000001
00000100
00001000
,
00010000
00001000
00010000
01000000
10000000
00010000
10000000
00010000
,
01000000
00100000
10000000
00010000
01000000
00010000
01000000
00000000
,
00001000
00010000
00001000
00000100
00000001
00001000
00000100
00000001
,
00000100
00001000
00000010
00001000
00000001
00000100
00001000
00010000
,
00001000
00000000
00010000
00000000
00010000
00000000
00001000
00010000
,
01000000
00000000
00000000
00000000
,
00010000
00000000
10000000
00000000
,
00010000
10000000
01000000
00010000
01000000
10000000
00010000
01000000
,
00100000
00000000
00000000
00000000
10000000
01000000
00010000
00001000
,
00000100
00000001
00001000
00000100
00001000
00000000
00001000
00000000
,
00000001
00001000
00000001
00000100
00000010
00000000
00000010
00000000
,
00001000
00000100
00010000
00001000
00010000
00000000
00010000
00000000
,
00001000
00001000
00010000
01000000
,
10010000
00000000
00000000
00000000
,
00000010
00001000
00000001
00001000
00000100
00000010
00000001
00001000
,
00000100
00001000
00100000
10000000
00010000
10000000
01000000
00010000
,
00001000
00010000
00001000
00000100
00000001
00001000
00000001
00001000
,
00000100
00000010
00000001
00001000
00000100
00001000
00000100
00000000
,
00010000
00001000
00010000
01000000
10000000
00010000
01000000
10000000
,
01000000
00010000
00100000
00010000
10000000
01000000
00010000
00001000
,
00010000
00000000
00001000
00000000
00001000
00000000
00010000
00001000
,
00000100
00000000
00001000
00000100
00000001
00000000
00000001
00000100
,
00011000
00000000
00000000
00000000
;

//---------------dance-couple - ----------------
#NOTES:
     dance-couple:
     :
     Challenge:
     6:
     0.580,1.000,1.000,0.000,0.000:
00000000
00000000
00000000
00000000
,
00000000
00000000
00000000
00000000
,
00000000
00000000
00000000
00000000
,
00000000
00000000
00000000
00000000
,
00000000
00000000
00000000
00000000
,
10000000
00010001
01000000
10010001
,
01000000
10010001
01000000
10010001
,
00001000
10000001
00000100
10001001
,
00000100
10001001
00000100
10001001
,
00010000
01000000
00100000
10000000
,
00000001
00000100
00000010
00001000
,
00100010
00100010
00100010
00100010
,
10011001
00000000
00000000
00000000
,
00100010
10001000
00010001
01000100
,
00100010
10001000
00010001
01000100
,
10001000
01000100
00100010
00010001
,
10001000
01000100
00100010
00010001
,
10001000
00000000
00010001
00000000
,
00100010
10001000
01000100
00010001
,
01000100
10001000
00100010
10001000
,
00010001
00000000
00000000
00000000
,
10011001
00000000
00100010
00000000
10000000
01000000
00010000
00000000
,
00001000
00000100
00000001
00000000
00010000
01000000
10000000
00000000
,
00001000
00001000
00000100
00000000
00010000
00010000
01000000
00000000
,
00001000
00001000
00010000
00010000
00001000
00000001
00000100
00000000
,
00100000
00000000
00100000
00000000
10000000
00010000
01000000
00000000
,
00000010
00000000
00000010
00000000
00000001
00001000
00000100
00000000
,
10001000
00000000
00010001
00000000
10001000
00010001
01000100
00000000
,
00100010
00000000
00000000
00000000
,
10001000
01000100
00010001
01000100
,
10001000
01000100
00010001
01000100
,
10010000
01000001
00010000
01000001
,
10000000
01000001
00010000
01000001
,
00001001
10000100
00000001
10000100
,
00001000
10000100
00000001
10000100
,
10001000
01000100
01000100
01000100
,
00010001
00000000
00000000
00000000
,
10010001
00100000
01000000
10010000
,
10001001
00000010
00000100
00001001
,
00100001
10000000
01000000
10010000
,
10000010
00000001
00000100
00001001
,
00100000
10010000
00000010
00001001
,
01000000
10010000
00000100
00001001
,
00100010
00000000
00100010
00000000
00100010
00000000
10001000
00010001
,
10001000
00000000
00000000
00000000
,
10011001
01000100
10001000
01000100
00010001
01000100
10001000
00000000
,
10011001
01000100
00010001
01000100
10001000
01000100
00010001
00000000
,
10011001
01000100
00100010
00010001
00100010
10001000
01000100
00000000
,
10011001
01000100
00100010
10001000
00100010
00010001
01000100
00000000
,
00100010
00000000
00100010
00000000
10011001
01000100
10001000
00000000
,
00100010
00000000
00100010
00000000
10011001
01000100
00010001
00000000
,
10001000
00000000
10001000
00010001
00010001
00000000
00010001
10001000
,
00010001
00000000
00010001
01000100
10001000
00000000
10001000
01000100
,
10011001
00000000
00000000
00000000
;

//---------------dance-solo - ----------------
#NOTES:
     dance-solo:
     :
     Easy:
     4:
     0.296,0.347,0.295,0.000,0.000:
000000
000000
000000
000000
,
000000
000000
000000
000000
,
000000
000000
000000
000000
,
000000
000000
000000
000000
,
000000
000000
000000
000000
,
010000
000001
001000
100010
,
001000
010001
001000
100010
,
000001
010000
001000
100001
,
001000
100010
001000
010001
,
100000
001000
000100
000001
,
100000
000100
001000
000010
,
010000
010000
010000
010000
,
100001
000000
000000
000000
,
010010
001000
100000
001000
,
000001
000100
000001
010000
,
001000
000100
000001
100000
,
000100
001000
000010
100000
,
000001
000000
010000
000000
,
000010
100000
000001
100000
,
001000
001000
000001
001000
,
100010
000000
000000
000000
,
000100
000000
010000
000000
,
000001
000000
001000
000000
,
100010
001000
010001
001000
,
000010
000010
100000
100000
,
010001
001000
100010
001000
,
010000
010000
000001
000001
,
100000
100000
000010
000010
,
001100
000000
000000
000000
,
100000
001000
000001
001000
,
010000
001000
000010
001000
,
100001
001000
000010
001000
,
010000
001000
000010
001000
,
100001
001000
000100
000001
,
001000
100000
001000
000001
,
100000
001000
001000
001000
,
000001
000000
000000
000000
,
010000
001000
000010
001000
,
100000
001000
000001
001000
,
100001
000000
000000
000000
,
010000
001000
000010
001000
,
010000
000000
000000
000000
,
000001
000000
000000
000000
,
001100
100001
001100
100001
,
001100
000000
000000
000000
,
000010
001000
100000
001000
,
000001
001000
010000
001000
,
100001
001000
010001
001000
,
100010
001000
010001
001000
,
000010
100000
001000
000001
,
001000
010000
000100
000001
,
000100
100000
001000
000010
,
001000
010000
000001
001000
,
100010
000000
000000
000000
;

//---------------dance-solo - ----------------
#NOTES:
     dance-solo:
     :
     Medium:
     5:
     0.312,0.376,0.131,0.000,0.000:
000000
000000
000000
000000
,
000000
000000
000000
000000
,
000000
000000
000000
000000
,
000000
000000
000000
000000
,
000000
000000
000000
000000
,
000100
000000
000100
000000
000001
001000
010000
000000
,
001000
000010
100000
100000
,
000100
000000
000100
000000
010000
001000
000001
000000
,
001000
100000
000010
000010
,
010000
010000
000001
000001
,
000100
010000
001000
000000
000100
000001
001000
000000
,
000100
100000
000010
001000
,
000100
000000
000000
000000
,
000100
100000
000010
001000
,
000100
010000
000001
001000
,
100000
001000
010000
000001
,
100000
001000
000100
000001
,
010000
000000
000010
000000
,
000100
100000
001000
000001
,
001000
100000
000100
010000
,
000010
000000
000000
000000
,
100000
000000
000001
000000
,
000100
100000
001000
000000
000100
000001
001000
000000
,
000010
000010
010000
000000
010000
010000
000001
000000
,
100000
100000
000010
000010
,
010000
000000
000001
000000
100000
001000
000010
000000
,
001000
000000
010000
000000
000001
001000
100000
000000
,
000010
000000
000010
000000
000100
000001
001000
000000
,
100010
000000
000000
000000
,
000100
010000
000001
001000
,
000100
100000
000010
000100
,
000001
100000
001000
010000
,
000001
100000
000100
010000
,
000001
000100
000010
010000
,
000001
001000
000100
100000
,
000001
001100
100001
001000
,
000100
000000
000000
000000
,
100001
000010
001000
100001
,
000100
010000
001000
100001
,
000100
000010
001000
100001
,
000100
010000
001000
100001
,
000100
010010
001000
100001
,
000100
010010
001000
100001
,
000100
000000
000100
000000
000100
000000
010000
000010
,
010000
000000
000000
000000
,
000100
100000
000010
001000
,
000100
100000
000010
001000
,
100000
001000
010000
000001
,
100000
001000
010000
000001
,
100000
000000
000010
000000
010000
000001
010000
000000
,
000010
100000
001000
000001
,
001000
100000
000100
010000
,
000010
000000
100000
000000
000001
001000
010000
000000
,
001000
000000
000000
000000
;

//---------------dance-solo - ----------------
#NOTES:
     dance-solo:
     :
     Hard:
     7:
     0.451,0.521,0.164,0.000,0.000:
000000
000000
000000
000000
,
000000
000000
000000
000000
,
000000
000000
000000
000000
,
000000
000000
000000
000000
,
000000
000000
000000
000000
,
000100
000000
000000
000000
000000
010000
001000
000010
,
001000
000000
000000
010000
,
000010
000000
000000
000000
000000
100000
000001
001000
,
000100
000000
000000
100000
,
000010
000000
010000
000100
000000
000000
000000
000000
,
100000
000000
000001
001000
000000
000000
000000
000000
,
000010
000000
000010
000000
100000
000100
001000
000001
,
100000
000000
000000
000000
,
010000
001000
000100
000001
010000
001000
000100
000001
,
001000
000010
100000
000100
001000
000010
100000
000100
,
001000
000001
100000
000100
001000
000001
100000
000100
,
010000
001000
000100
000001
010000
001000
000100
000001
,
100000
001000
000010
000000
100000
001000
000010
000000
,
100001
001000
000100
000000
000010
001000
100001
000000
,
010000
001000
000100
000001
001000
000010
100000
000100
,
001000
000000
000000
000000
,
100001
000000
000010
000000
010000
001000
000001
000000
,
100000
001000
000010
000000
010000
001000
000001
000000
,
100000
100000
001000
000000
000001
000001
001000
000000
,
010000
010000
000010
000010
100000
000001
001000
000000
,
000100
000000
000100
000000
010000
000010
001000
000000
,
000100
000000
000100
000000
000001
100000
001000
000000
,
010000
000000
000010
000000
100000
000001
001000
000000
,
000100
000000
000000
000000
,
100000
001000
000100
000001
010000
001000
000100
000001
,
001000
000100
100000
000010
001000
000100
100000
000010
,
001000
000001
100000
000100
001000
000001
100000
000100
,
010000
001000
000100
000001
010000
001000
000100
000001
,
100000
001000
000010
000000
010000
001000
000001
000000
,
100001
001000
000100
000000
000010
001000
100001
000000
,
010000
001000
000100
000001
001000
000011
100000
000100
,
001000
000000
000000
000000
,
000010
001000
000100
100000
000010
001000
000100
100000
,
001000
010000
000001
000100
001000
010000
000001
000100
,
001000
100000
000001
000100
001000
100000
000001
000100
,
000010
001000
000100
100000
000000
001000
000100
100000
,
000010
001000
100000
000000
000001
001000
010000
000000
,
100001
001000
000100
000000
100000
001000
010001
000000
,
000010
001000
000100
100000
001000
010000
000001
000100
,
001000
000000
000000
000000
,
100001
001000
010000
001000
000001
001000
100000
000000
,
100001
001000
000010
001000
100000
001000
000001
000000
,
100001
001000
010000
000001
010000
100000
001000
000000
,
100001
001000
000010
100000
000010
000001
001000
000000
,
000100
000000
000100
000000
100001
001000
010000
000000
,
000100
000000
000100
000000
100001
001000
000010
000000
,
100000
000000
100000
000001
000001
000000
000010
010000
,
000010
000000
000001
001000
010000
000000
100000
001000
,
010001
000000
000000
000000
;

//---------------dance-double - Edit by silenttype01----------------
#NOTES:
     dance-double:
     Edit by silenttype01:
     Challenge:
     8:
     0.549,0.577,0.098,0.218,0.131: // measure 1
00000000
00000000
00000000
00000000
,  // measure 2
00000000
00000000
00000000
00000000
,  // measure 3
00000000
00000000
00000000
00000000
,  // measure 4
00000000
00000000
00000000
00000000
,  // measure 5
00000000
00000000
00000000
00000000
,  // measure 6
00010000
00000000
00000010
00000000
00000010
00000000
00000100
00000100
00000000
00000001
00000001
00000000
00001000
00000000
00001000
00000000
,  // measure 7
00000001
00000000
00000100
00000000
00000100
00000000
00000010
00000010
00000000
00010000
00010000
00000000
00001000
00000000
00001000
00000000
,  // measure 8
00100000
00000000
01000000
00000000
01000000
00000000
10000000
10000000
00000000
00010000
00010000
00000000
10000000
00000000
10000000
00000000
,  // measure 9
01000000
00000000
00100000
00000000
00100000
00000000
00001000
00001000
00000000
00010000
00010000
00000000
00000100
00000000
00000100
00000000
,  // measure 10
00001000
00000000
00000010
00000000
00000010
00000000
00000001
00000001
00000000
00001000
00001000
00000000
00000100
00000000
00000100
00000000
,  // measure 11
00000010
00000000
00001000
00000000
00001000
00000000
00000010
00000010
00000000
00000001
00000001
00000000
00000010
00000000
00000010
00000000
,  // measure 12
00010000
00000000
00001000
00000000
00001000
00000000
00010000
00010000
00000000
00100000
00100000
00000000
01000000
00000000
01000000
00000000
,  // measure 13
20020000
00000000
00000000
30030000
,  // measure 14
00100000
00010000
10000000
00010000
01000000
00100000
10000000
00010000
,  // measure 15
01000000
00010000
00000010
00000001
00001000
00000001
00000100
00001000
,  // measure 16
00010000
00001000
00010000
01000000
10000000
00010000
10000000
00010000
,  // measure 17
01000000
00100000
10000000
00010000
01000000
00010000
01000000
00001000
,  // measure 18
00010000
00000000
00000000
00001000
00000000
00000000
00000100
00000000
00000000
00000001
00000000
00000000
00001000
00000000
00000000
00000100
00000000
00000000
00000000
00000000
00000001
00000000
00000000
00000000
,  // measure 19
00000100
00000000
00000000
00001000
00000000
00000000
00000010
00000000
00001000
00000000
00000000
00000001
00000000
00000000
00000100
00000000
,  // measure 20
00002000
00000000
00013000
02000000
00000000
00000000
00000000
00000000
,  // measure 21
03000000
00000000
00000000
00000000
,  // measure 22
11000000
00000000
00000000
00000000
00110000
00000000
10000000
00010000
00000000
10000000
00010000
00000000
11000000
00000000
00000000
00000000
,  // measure 23
01000000
01000000
01000000
00010000
00001000
00001000
00001000
00000000
,  // measure 24
01000000
00010000
00100000
00001000
00000100
00001000
00010000
00000000
,  // measure 25
00000100
00001000
00000010
00010000
01000000
00010000
00001000
00000000
,  // measure 26
00000100
00000100
00000001
00000001
00001001
00001001
00000000
00000001
,  // measure 27
00000001
00000010
00000010
00001000
00011000
00011000
00000000
00010000
,  // measure 28
00001000
00000000
00000000
00100000
00000000
00000000
10000000
00000000
01000000
00000000
00000000
00010000
00000000
00000000
00100000
00000000
,  // measure 29
20020000
00000000
00000000
30030000
,  // measure 30
10000000
01000000
00100000
00010000
10000000
00100000
02000000
00001000
,  // measure 31
00000000
00010000
00000000
03001000
00010000
00100000
10000000
01000000
,  // measure 32
00010000
00001000
00000100
00000010
00001000
00000100
00002000
00000001
,  // measure 33
00000000
00000010
00000000
00000001
00000000
00000010
00000000
00003001
,  // measure 34
00000010
00000001
00001000
00000100
00000010
00000001
00002000
00000100
,  // measure 35
00003000
00000010
00000020
00000001
00000030
00002000
00000001
00003001
,  // measure 36
00000100
00000010
00010000
00000100
00001000
00000010
00000100
00001000
,  // measure 37
00010000
00000100
00000020
00000001
00000000
00000100
00000000
00000031
,  // measure 38
00001000
00000001
00000100
00001000
00000100
00001000
00000200
00001000
,  // measure 39
00000300
00001000
00001000
01000000
00010000
00100000
01000000
10000000
,  // measure 40
00010000
00100000
01000000
00010000
01000000
00010000
02000000
00010000
,  // measure 41
03000000
00010000
00010000
00000100
00001000
00000100
00000010
00000010
,  // measure 42
00000010
00000001
00000100
00000100
00001000
00010000
00001000
00001000
,  // measure 43
00001000
00010000
01000000
01000000
10000000
00100000
00010000
00001000
,  // measure 44
00002000
00010000
00010000
00010000
,  // measure 45
00010000
00003200
00000302
00002003
,  // measure 46
00003010
00001000
00000001
00001000
00000100
00000010
00000001
00001000
,  // measure 47
00000100
00001000
00100000
10000000
00010000
10000000
01000000
00010000
,  // measure 48
00001000
00010000
00001000
00000100
00000001
00001000
00000001
00001000
,  // measure 49
00000100
00000010
00000001
00001000
00000100
00001000
00000100
00010000
,  // measure 50
00001000
00000000
00000000
00010000
00000000
00000000
01000000
00000000
00000000
10000000
00000000
00000000
00010000
00000000
00000000
01000000
00000000
00000000
00000000
00000000
10000000
00000000
00000000
00000000
,  // measure 51
01000000
00000000
00000000
00010000
00000000
00000000
00100000
00000000
00010000
00000000
00000000
10000000
00000000
00000000
01000000
00000000
,  // measure 52
00020000
00000000
00031000
00000200
00000000
00000010
00000010
00000010
,  // measure 53
00000000
00000000
00000000
00000000
00000000
00000010
00000010
00000310
;
