#TITLE:BRILLIANT 2U;
#SUBTITLE:(CLUB VER.);
#ARTIST:NAOKI;
#TITLETRANSLIT:;
#SUBTITLETRANSLIT:;
#ARTISTTRANSLIT:;
#CREDIT:;
#BANNER:BRILLIANT 2U (CLUB VER.).png;
#BACKGROUND:BRILLIANT 2U (CLUB VER.)-bg.png;
#LYRICSPATH:;
#CDTITLE:Dance Dance Revolution 2nd Append -Club v2-.png;
#MUSIC:BRILLIANT 2U (CLUB VER.).ogg;
#OFFSET:0.000;
#SAMPLESTART:27.200;
#SAMPLELENGTH:15.000;
#SELECTABLE:YES;
#DISPLAYBPM:150.000;
#BPMS:0.000=150.000;
#STOPS:;
#BGCHANGES:;

//---------------dance-single - ----------------
#NOTES:
     dance-single:
     :
     Easy:
     5:
     0.293,0.419,0.246,0.000,0.000:
0000
0000
0000
0000
,
0000
0000
0000
0000
,
0000
0000
0000
0000
,
0000
0000
0000
0000
,
0000
0000
0000
0000
,
0000
0000
0000
0000
,
0000
0000
0000
0000
,
0010
0010
0001
0001
,
0100
0100
1000
1000
,
0010
0000
0010
0000
,
0010
0000
0100
0000
0001
1000
0100
0000
,
0010
0000
0010
0000
,
0010
0001
0100
1000
,
0010
0000
0010
0000
,
0010
0000
0100
0000
0001
1000
0100
0000
,
0010
0000
0010
0000
,
0010
0001
0100
1000
,
0010
0000
0010
0000
,
1001
1001
1001
1001
,
0100
0000
0100
0000
,
1001
1001
1001
1001
,
0010
0000
0010
0000
,
1001
1001
1001
1001
,
0100
0000
0100
0000
,
0001
1000
0001
1000
,
0010
0000
0010
0000
,
0010
0100
0110
0000
,
0010
0000
0010
0000
,
0100
0010
1001
0000
,
0010
0100
0001
0100
,
1000
0100
1001
0000
,
0010
0100
1000
0100
,
0001
0010
0001
0010
,
0100
0000
0100
0000
,
0010
0000
0100
0000
1000
0001
0100
0000
,
0010
1000
0100
0001
,
0100
1000
0010
0001
,
0100
0000
0100
0000
,
0010
0000
0100
0000
0001
1000
0100
0000
,
0010
0001
1000
0100
,
0010
0001
0100
1000
,
0001
0000
0010
0000
,
0100
1000
0010
0001
,
1000
0100
0001
0100
,
1001
1001
0110
0110
,
0001
1000
0001
0110
,
0001
0001
0001
0001
,
1000
1000
1000
0110
,
0001
0001
0001
0001
,
0100
0100
0000
0000
0000
0000
0000
0001
,
1000
0001
0000
0010
0100
0010
0100
0010
,
0100
0000
0000
0000
;

//---------------dance-single - ----------------
#NOTES:
     dance-single:
     :
     Medium:
     6:
     0.370,0.449,0.446,0.000,0.000:
0000
0000
0000
0000
,
0000
0000
0000
0000
,
0000
0000
0000
0000
,
0000
0000
0000
0000
,
0000
0000
0000
0000
,
0000
0000
0000
0000
,
0000
0000
0000
0000
,
0010
0010
1001
1001
,
0100
0000
0100
0000
1000
0100
0001
0010
,
0100
0000
0010
0100
,
0010
0000
0100
0000
0001
1000
0100
0010
,
0100
0000
0010
0100
,
0010
1001
0100
1001
,
0010
0000
0010
0100
,
0010
0000
0100
0000
0001
1000
0100
0010
,
0100
0000
0010
0100
,
0010
0001
0100
1001
,
0010
1001
0010
0000
,
1001
0011
1100
1001
,
0100
1001
0100
0000
,
1001
0101
1010
1001
,
0010
1001
0010
0000
,
1001
0011
1100
1001
,
0100
1001
0100
0000
,
0001
1000
0100
0010
0001
0100
1000
0000
,
0010
0000
0010
0100
,
0011
1100
0110
0000
,
0001
0000
0010
1000
,
0101
1010
1001
0000
,
0010
0100
0001
0100
,
1000
0100
1001
0000
,
0010
0100
1000
0100
,
1000
0001
0100
0010
1000
0100
0010
0001
,
0100
0010
1000
0001
,
0010
0000
0100
0000
1000
0001
0100
0010
,
1000
0001
0100
0001
,
0100
1000
0010
0001
,
0100
0001
0100
1000
,
0010
0000
0100
0000
0001
1000
0100
0010
,
0100
0001
1000
0100
,
0010
0001
0100
1000
,
0001
0000
0010
0000
,
0100
1000
0010
0001
,
1000
0100
0001
0100
,
1010
1100
0011
0101
,
1000
0010
0001
0110
,
1001
1100
1001
1100
,
0010
0001
1000
0110
,
0001
1000
0001
0000
0001
1000
0001
0000
,
0100
0100
0000
0000
0000
0000
0000
0001
,
1000
0100
0000
0010
0001
0100
1000
0100
,
0010
0000
0000
0000
;

//---------------dance-single - ----------------
#NOTES:
     dance-single:
     :
     Hard:
     8:
     0.442,0.478,0.539,0.000,0.106:
0000
0000
0000
0000
,
0000
0000
0000
0000
,
0000
0000
0000
0000
,
0000
0000
0000
0000
,
0000
0000
0000
0000
,
0000
0000
0000
0000
,
0000
0000
0000
0000
,
0010
0010
1000
0100
,
1000
0000
1000
0000
0100
0000
0001
0100
,
1000
0000
0010
0000
0100
0001
0010
0000
,
1100
0000
0011
0000
0100
1000
0001
0000
,
0101
0000
1010
0000
0100
0001
0010
0000
,
0100
1000
0001
0100
,
1010
0000
0101
0000
0010
0100
1000
0000
,
0010
0100
0001
0000
1010
0000
0100
0000
,
0001
0010
0100
1000
,
0010
0100
0001
0000
0010
0100
1000
0000
,
1001
0101
1001
1010
,
0110
0000
1001
0000
0101
0000
0010
1000
,
0100
0001
0100
1000
,
0110
0000
1001
0000
0110
0000
0001
1000
,
0100
0010
0001
0100
,
1010
0000
0101
0000
1001
0000
0010
0100
,
0001
1000
0010
0100
,
1001
0000
0100
0000
0010
0001
0010
0000
,
0001
0000
0100
0000
1000
0100
0000
0001
0000
0010
0000
0000
0000
0000
0000
0000
,
0100
0000
1000
0000
0010
0100
0000
0001
0000
0000
0000
0000
0000
0000
0000
0000
,
1000
0000
0100
0000
0010
0001
0000
0100
0000
0010
0000
0000
0000
0000
0000
0000
,
1000
0000
0001
0000
0010
0100
0000
1000
0000
0000
0000
0000
0000
0000
0000
0000
,
0001
0000
0100
0000
1000
0100
0000
0001
0000
0010
0000
0000
0000
0000
0000
0000
,
0100
0000
1000
0000
0010
0100
0000
0001
0000
0000
0000
0000
0000
0000
0000
0000
,
1000
0000
0100
0000
0010
0001
0000
0100
0000
0010
0000
0000
0000
0000
0000
0000
,
1000
0001
0010
0100
1000
0001
0100
0010
,
1000
0000
0001
0000
1000
0001
0100
0000
,
0011
0000
1100
0000
0001
1000
0100
0000
,
0001
0000
1000
0000
0001
1000
0100
0000
,
0110
1001
0010
0100
,
0011
0000
1100
0000
0001
1000
0100
0000
,
1000
1000
0001
0000
0110
0000
1001
0000
,
0110
0000
1000
0000
0001
0000
0010
0100
,
1000
0101
0010
0010
,
1010
0000
0101
0000
0010
1000
0100
0000
,
1001
0000
0110
0000
1001
0000
0010
0100
,
0010
0001
0100
0010
,
1001
0000
0110
0000
1001
0000
0010
0100
,
0001
1000
0010
0100
,
1001
0000
0110
0000
1001
0000
0010
0100
,
1000
0001
0010
1001
,
0100
1001
0010
1001
,
0100
0010
0001
0000
1000
0000
0100
0000
,
1000
0001
0100
0000
0001
1000
0100
0010
,
1001
0000
0000
0000
;

//---------------dance-double - ----------------
#NOTES:
     dance-double:
     :
     Easy:
     5:
     0.293,0.419,0.246,0.000,0.000:
00000000
00000000
00000000
00000000
,
00000000
00000000
00000000
00000000
,
00000000
00000000
00000000
00000000
,
00000000
00000000
00000000
00000000
,
00000000
00000000
00000000
00000000
,
00000000
00000000
00000000
00000000
,
00000000
00000000
00000000
00000000
,
00100000
00100000
00010000
00010000
,
00001000
00001000
00000001
00000001
,
00000010
00000000
00000010
00000000
,
00000100
00000000
00001000
00000000
00010000
01000000
10000000
00000000
,
00100000
00000000
00100000
00000000
,
01000000
00010000
00001000
00000100
,
00000010
00000000
00000010
00000000
,
00000001
00000000
00001000
00000000
00010000
01000000
10000000
00000000
,
00100000
00000000
00100000
00000000
,
10000000
01000000
00010000
00001000
,
00000010
00000000
00000010
00000000
,
00001001
00001001
00001001
00001001
,
00000100
00000000
00000100
00000000
,
00011000
00011000
00011000
00011000
,
00100000
00000000
00100000
00000000
,
10010000
10010000
10010000
10010000
,
01000000
00000000
01000000
00000000
,
00010000
00001000
00010000
00001000
,
00000010
00000000
00000010
00000000
,
00001000
00010000
01100000
00000000
,
00100000
00000000
00100000
00000000
,
00010000
00001000
00001001
00000000
,
00000010
00000100
00001000
00010000
,
10000000
01000000
10010000
00000000
,
00100000
01000000
00010000
00001000
,
00000010
00000001
00000010
00000001
,
00000100
00000000
00000100
00000000
,
00000010
00000000
00000100
00000000
00001000
00010000
00000100
00000000
,
00001000
00010000
01000000
10000000
,
00010000
00100000
10000000
00010000
,
01000000
00000000
01000000
00000000
,
00001000
00000000
00010000
00000000
00000100
00001000
00000001
00000000
,
00000010
00000100
00001000
00010000
,
01000000
00100000
10000000
00010000
,
00001000
00000000
00000010
00000000
,
00000100
00001000
00010000
00100000
,
10000000
01000000
00010000
00001000
,
10010000
10010000
00011000
00011000
,
00000100
00000001
00001000
00000110
,
00001000
00001000
00001000
00001000
,
00010000
00010000
00010000
01100000
,
10000000
10000000
10000000
10000000
,
01000000
01000000
00000000
00000000
00000000
00000000
00000000
00010000
,
10000000
00010000
00000000
00010000
00001000
00010000
00001000
00010000
,
00001000
00000000
00000000
00000000
;

//---------------dance-double - ----------------
#NOTES:
     dance-double:
     :
     Medium:
     7:
     0.442,0.478,0.575,0.000,0.000:
00000000
00000000
00000000
00000000
,
00000000
00000000
00000000
00000000
,
00000000
00000000
00000000
00000000
,
00000000
00000000
00000000
00000000
,
00000000
00000000
00000000
00000000
,
00000000
00000000
00000000
00000000
,
00000000
00000000
00000000
00000000
,
00100000
00100000
10000000
01000000
,
10000000
00000000
10000000
00000000
01000000
00000000
00010000
00001000
,
00000010
00000000
00000010
00000000
00000010
00000001
00000100
00000000
,
00000011
00000000
00001100
00000000
00000010
00010000
01000000
00000000
,
10100000
00000000
11000000
00000000
01000000
00010000
00001000
00000000
,
00000010
00000001
00000100
00010000
,
10100000
00000000
01010000
00000000
00100000
00001000
00000100
00000000
,
00000010
00010000
00001000
00000000
00011000
00000000
01000000
00000000
,
00010000
00100000
01000000
00010000
,
00000010
00001000
00000100
00000000
00000001
00000100
00000010
00000000
,
00001010
00001100
00011000
01010000
,
01100000
00000000
10010000
00000000
01010000
00000000
00001000
00010000
,
00000100
00000001
00001000
00000100
,
00001001
00000000
00000110
00000000
00011000
00000000
00010000
10000000
,
01000000
00010000
00001000
00000100
,
00001001
00000000
00000110
00000000
00011000
00000000
00010000
10000000
,
01000000
00100000
00010000
01000000
,
00011000
00000000
00000100
00000000
00001000
00010000
00001000
00000000
,
00010000
00000000
00100000
00000000
01000000
10000000
01000000
00000000
,
00010000
00000000
00000010
00000000
00000100
00000001
00000100
00000000
,
00001000
00000000
00100000
00000000
01000000
10000000
01000000
00000000
,
00010000
00000010
00001001
00000110
,
00000001
00000100
00001000
00010000
01000000
00000000
10000000
00000000
,
10000000
01000000
00010000
00001000
00000100
00000000
00000001
00000000
,
00000001
00000100
00001000
00010000
01000000
00000000
10000000
00000000
,
10000000
01000000
00010000
00001000
00000100
00000001
00001000
00000000
,
00001000
00000000
00010000
00000000
10000000
00010000
01000000
00000000
,
00110000
00000000
11000000
00000000
00010000
10000000
01000000
00000000
,
00010000
00000000
00001000
00000000
00000001
00001000
00000100
00000000
,
00000110
00011000
10000000
01000000
,
00110000
00000000
11000000
00000000
00010000
10000000
01000000
00000000
,
10000000
10000000
00010000
00000000
00011000
00000000
00000110
00000000
,
00001001
00000000
00000100
00000000
00011000
00000000
00100000
10000000
,
01000000
01010000
00100000
00100000
,
00110000
00000000
01010000
00000000
00010000
10000000
01000000
00000000
,
10010000
00000000
01100000
00000000
00011000
00000000
00000010
00000001
,
00000100
00001000
00100000
01000000
,
10010000
00000000
01100000
00000000
00011000
00000000
00000010
00000001
,
00000100
00001000
00100000
01000000
,
10010000
00000000
01100000
00000000
00011000
00000000
00000001
00001000
,
00000100
00001000
00100000
10010000
,
00100000
10010000
00010000
00011000
,
00000010
00000100
00001000
00000000
00010000
00000000
01000000
00000000
,
10000000
00010000
01000000
00000000
00001000
00010000
00000100
00000010
,
00001001
00000000
00000000
00000000
;

//---------------dance-single - Edit by silenttype01----------------
#NOTES:
     dance-single:
     Edit by silenttype01:
     Challenge:
     9:
     0.618,0.668,0.751,0.106,0.475: // measure 1
0000
0000
0000
0000
,  // measure 2
0000
0000
0000
0000
,  // measure 3
0000
0000
0000
0000
,  // measure 4
0000
0000
0000
0000
,  // measure 5
0000
0000
0000
0000
,  // measure 6
0010
0101
0010
1100
,  // measure 7
0010
0101
0010
1100
,  // measure 8
0010
0101
0010
1100
,  // measure 9
0011
0000
0000
0000
0101
0000
0000
0000
0011
0000
0000
0000
0100
1000
0100
1000
,  // measure 10
0100
0000
0000
0001
0000
0000
0001
0000
0000
0001
0000
0000
1001
0000
0000
0000
,  // measure 11
0000
0000
0000
0000
1000
0000
0001
0000
0100
0000
0001
0000
1000
0100
1000
0000
,  // measure 12
1010
0000
1001
0000
0101
0100
0001
0010
,  // measure 13
0001
0000
1000
0000
0010
0000
1000
0000
0010
0100
0010
0100
0010
0000
0100
0010
,  // measure 14
0000
0000
0000
0010
0000
0000
0010
0000
0000
0010
0000
0000
0110
0000
0000
0000
,  // measure 15
1000
0000
1000
0000
1000
0000
0000
0000
0001
0100
0000
0001
0100
0000
0000
0000
,  // measure 16
0011
0000
0101
0000
1100
0000
0101
0001
,  // measure 17
2000
0000
0010
0000
3000
0000
0100
1000
0100
0000
0010
0000
0000
0000
0000
0000
,  // measure 18
0100
0000
0000
0100
0000
0000
0100
0000
0000
0100
0000
0000
0100
0000
0010
0000
,  // measure 19
0000
1010
0000
0000
0101
0000
0000
1001
0000
0000
1100
0000
0100
0000
0010
0000
,  // measure 20
0001
0000
0000
1000
0000
0000
1000
0000
0000
0001
1000
0000
1000
0000
0010
0000
,  // measure 21
0000
0110
0000
0000
0101
0000
0000
1100
0000
0000
0101
0000
0100
0000
0001
0000
,  // measure 22
0010
0000
0000
0010
0000
0000
0010
0000
0000
0010
0000
0000
0010
0000
0100
0000
,  // measure 23
0000
1100
0000
0000
1100
0000
0000
1100
0000
0000
1100
0000
1000
0000
0001
0000
,  // measure 24
0100
0000
0000
0100
0000
0000
0100
0000
0000
1000
0100
0000
0100
0000
0001
0000
,  // measure 25
0000
0011
0000
0000
0110
0000
0000
1100
0000
0000
0110
0000
0010
0000
0001
0000
,  // measure 26
1000
0000
0000
0000
0000
0000
0000
0000
0001
0000
0000
0000
0000
0000
0000
0000
0010
0000
0000
0000
0100
0000
0000
0000
0000
0000
0000
0000
1000
0000
0000
0000
0000
0000
0000
0000
0000
0002
0000
0000
0000
0000
0000
0000
0000
0000
0000
0000
0000
0000
0000
0000
0000
0000
0000
0000
0000
0000
0000
0000
0000
0000
0000
0000
,  // measure 27
1003
0000
0000
0000
0000
0000
0000
0000
0001
0000
0000
0000
0000
0000
0000
0000
0001
0000
0000
0000
0100
0000
0000
0000
0000
0000
0000
0000
0000
0020
0000
0000
0000
0000
0000
0000
0000
0000
0000
0000
0000
0000
0000
0000
0000
0000
0000
0000
0030
0000
0000
0000
0000
0000
0000
0000
0000
0000
0000
0000
0000
0000
0000
0000
,  // measure 28
0001
0000
0000
0000
0000
0000
0000
0000
1000
0000
0000
0000
0000
0000
0000
0000
1000
0000
0000
0000
0001
0000
0000
0000
0000
0000
0000
0000
0010
0000
0000
0000
0000
0000
0000
0000
0000
0200
0000
0000
0000
0000
0000
0000
0000
0000
0000
0000
0000
0000
0000
0000
0000
0000
0000
0000
0000
0000
0000
0000
0000
0000
0000
0000
,  // measure 29
0301
0000
0010
0000
0001
0100
0000
0010
1000
0000
0001
0000
0100
0000
0010
0000
,  // measure 30
1000
0000
0000
0000
0000
0000
0000
0000
0001
0000
0000
0000
0000
0000
0000
0000
0100
0000
0000
0000
0010
0000
0000
0000
0000
0000
0000
0000
1000
0000
0000
0000
0000
0000
0000
0000
0000
0200
0000
0000
0000
0000
0000
0000
0000
0000
0000
0000
0000
0000
0000
0000
0000
0000
0000
0000
0000
0000
0000
0000
0000
0000
0000
0000
,  // measure 31
0310
0000
0000
0000
0000
0000
0000
0000
0010
0000
0000
0000
0000
0000
0000
0000
1000
0000
0000
0000
0001
0000
0000
0000
0000
0000
0000
0000
0000
2000
0000
0000
0000
0000
0000
0000
0000
0000
0000
0000
0000
0000
0000
0000
0000
0000
0000
0000
3000
0000
0000
0000
0000
0000
0000
0000
0000
0000
0000
0000
0000
0000
0000
0000
,  // measure 32
0010
0000
0000
0000
0000
0000
0000
0000
0010
0000
0000
0000
0000
0000
0000
0000
1000
0000
0000
0000
0001
0000
0000
0000
0000
0000
0000
0000
1000
0000
0000
0000
0000
0000
0000
0000
0000
0002
0000
0000
0000
0000
0000
0000
0000
0000
0000
0000
0000
0000
0000
0000
0000
0000
0000
0000
0003
0000
0000
0000
0000
0000
0000
0000
,  // measure 33
1000
0100
1000
0100
0010
0001
0010
0001
1000
0100
1000
0100
0010
0001
0010
0001
,  // measure 34
1000
0000
0000
1000
0000
0000
1000
0000
0000
1000
0000
0000
1001
0000
0000
0000
,  // measure 35
0000
0000
0000
0000
0001
0000
0100
0000
1000
0000
0100
0000
0001
0010
0001
0000
,  // measure 36
0011
0000
1010
0000
0011
0100
1000
0001
,  // measure 37
0100
0000
0010
0000
1000
0000
0100
0000
1000
0001
1000
0001
1000
0000
0001
1000
,  // measure 38
0000
0000
0000
1000
0000
0000
1000
0000
0000
1000
0000
0000
1001
0000
0000
0000
,  // measure 39
0100
0000
0100
0000
0100
0000
0000
0000
0100
0010
0000
1000
0100
0000
0000
0000
,  // measure 40
0101
0000
0011
0000
1010
0000
1100
1000
,  // measure 41
0020
0000
0100
0000
0030
0000
0001
0100
0010
0000
1000
0000
0000
0000
0000
0000
,  // measure 42
0001
0000
0000
0100
0000
0000
0010
0000
0000
0100
0000
0000
0001
0000
0100
0000
,  // measure 43
0000
1100
0000
0000
0011
0000
0000
0110
0000
0000
1010
0000
0010
0000
0100
0000
,  // measure 44
0010
0000
0000
1000
0000
0000
1000
0000
0000
0001
0010
0000
0100
0000
1000
0000
,  // measure 45
0000
0110
0000
0000
0011
0000
0000
0101
0000
0000
0110
0000
0100
0000
0001
0000
,  // measure 46
0011
0000
0000
0100
0000
0000
0100
0000
0000
1000
0100
0000
0100
0000
0010
0000
,  // measure 47
0000
0110
0000
0000
1100
0000
0000
1001
0000
0000
1100
0000
0010
0000
0001
0000
,  // measure 48
1000
0000
0100
0000
1000
0000
0000
0000
0010
0100
0000
0100
0001
0000
0000
0000
,  // measure 49
0010
0000
1000
0000
0001
0000
0000
0000
0100
0000
0000
0000
0100
1000
0010
0000
,  // measure 50
0110
0101
0000
0100
0000
0110
0110
0100
,  // measure 51
0110
1010
0000
0100
0101
0001
0011
0100
,  // measure 52
2000
0000
0000
3000
;

//---------------dance-double - Edit by silenttype01----------------
#NOTES:
     dance-double:
     Edit by silenttype01:
     Hard:
     9:
     0.610,0.668,0.645,0.070,0.428:
00000000
00000000
00000000
00000000
,
00000000
00000000
00000000
00000000
,
00000000
00000000
00000000
00000000
,
00000000
00000000
00000000
00000000
,
00000000
00000000
00000000
00000000
,
00001000
00110000
00001000
01010000
,
00001000
00110000
00001000
01010000
,
00001000
00110000
00001000
01010000
,
10100000
00000000
00000000
00000000
11000000
00000000
00000000
00000000
01010000
00000000
00000000
00000000
00010000
00001000
00010000
00001000
,
00010000
00000000
00000000
01000000
00000000
00000000
10000000
00000000
00000000
00100000
00000000
00000000
10010000
00000000
00000000
00000000
,
00000000
00000000
00000000
00000000
10000000
00000000
00010000
00000000
01000000
00000000
00010000
00000000
10000000
01000000
10000000
00000000
,
10100000
00000000
00110000
00000000
00010010
00010000
00001000
00000100
,
00000001
00000000
00000010
00000000
00000001
00000000
00001000
00000000
00000001
00000100
00000001
00000100
00000001
00000000
00000100
00000001
,
00000000
00000000
00000000
00001000
00000000
00000000
00000010
00000000
00000000
00000001
00000000
00000000
00000110
00000000
00000000
00000000
,
00000001
00000000
00000001
00000000
00000001
00000000
00000000
00000000
00001000
00000100
00000000
00001000
00000100
00000000
00000000
00000000
,
00000011
00000000
00001010
00000000
00101000
00000000
00011000
00001000
,
02000000
00000000
00100000
00000000
03000000
00000000
10000000
00010000
10000000
00000000
00010000
00000000
00000000
00000000
00000000
00000000
,
10000000
00000000
00000000
00100000
00000000
00000000
00010000
00000000
00000000
00001000
00000000
00000000
00000100
00000000
00001000
00000000
,
00000000
00011000
00000000
00000000
00110000
00000000
00000000
01010000
00000000
00000000
00011000
00000000
00010000
00000000
00001000
00000000
,
00010000
00000000
00000000
01000000
00000000
00000000
00010000
00000000
00000000
00001000
00000000
00000000
00000100
00000000
00001000
00000000
,
00000000
00011000
00000000
00000000
00001010
00000000
00000000
00001100
00000000
00000000
00011000
00000000
00001000
00000000
00010000
00000000
,
00001000
00000000
00000000
00000100
00000000
00000000
00001000
00000000
00000000
00010000
00000000
00000000
01000000
00000000
00010000
00000000
,
00000000
00011000
00000000
00000000
00110000
00000000
00000000
01010000
00000000
00000000
00011000
00000000
00010000
00000000
00001000
00000000
,
00010000
00000000
00000000
00001000
00000000
00000000
00000010
00000000
00000000
00001000
00010000
00000000
00010000
00000000
00001000
00000000
,
00000100
00000010
00000100
00000000
00000000
00000000
00000001
00001000
00000001
00000000
00001000
00000000
00000001
00000000
00001000
00000000
,
00000010
00000000
00000000
00000000
00000000
00000000
00000000
00000000
00000100
00000000
00000000
00000000
00000000
00000000
00000000
00000000
00001000
00000000
00000000
00000000
00010000
00000000
00000000
00000000
00000000
00000000
00000000
00000000
01000000
00000000
00000000
00000000
00000000
00000000
00000000
00000000
00000000
02000000
00000000
00000000
00000000
00000000
00000000
00000000
00000000
00000000
00000000
00000000
00000000
00000000
00000000
00000000
00000000
00000000
00000000
00000000
00000000
00000000
00000000
00000000
00000000
00000000
00000000
00000000
,
03100000
00000000
00000000
00000000
00000000
00000000
00000000
00000000
01000000
00000000
00000000
00000000
00000000
00000000
00000000
00000000
00010000
00000000
00000000
00000000
00001000
00000000
00000000
00000000
00000000
00000000
00000000
00000000
00000000
00000200
00000000
00000000
00000000
00000000
00000000
00000000
00000000
00000000
00000000
00000000
00000000
00000000
00000000
00000000
00000000
00000000
00000000
00000000
00000000
00000000
00000000
00000000
00000000
00000000
00000000
00000000
00000000
00000000
00000000
00000000
00000000
00000000
00000000
00000000
,
00000310
00000000
00000000
00000000
00000000
00000000
00000000
00000000
00000100
00000000
00000000
00000000
00000000
00000000
00000000
00000000
00001000
00000000
00000000
00000000
00010000
00000000
00000000
00000000
00000000
00000000
00000000
00000000
01000000
00000000
00000000
00000000
00000000
00000000
00000000
00000000
00000000
02000000
00000000
00000000
00000000
00000000
00000000
00000000
00000000
00000000
00000000
00000000
00000000
00000000
00000000
00000000
00000000
00000000
00000000
00000000
00000000
00000000
00000000
00000000
00000000
00000000
00000000
00000000
,
03100000
00000000
01000000
00000000
00010000
00001000
00000000
00000100
00000010
00000000
00001000
00000000
00000100
00000000
00000010
00000000
,
00001000
00000010
00000001
00000010
00001000
00000010
00000001
00000100
,
00001000
00000100
00000001
00000100
00001000
00010000
00100000
10000000
,
00100000
00010000
00100000
10000000
01000000
00010000
01000000
10000000
,
00010000
01000000
00010000
01000000
00100000
10000000
00100000
10000000
00010000
01000000
00010000
01000000
00100000
10000000
00100000
10000000
,
00010000
00000000
00000000
00010000
00000000
00000000
00100000
00000000
00000000
00100000
00000000
00000000
10010000
00000000
00000000
00000000
,
00000000
00000000
00000000
00000000
10000000
00000000
00100000
00000000
01000000
00000000
00010000
00000000
00100000
00010000
00100000
00000000
,
00110000
00000000
01100000
00000000
11000000
00010000
00001000
00010000
,
00000010
00000000
00000100
00000000
00001000
00000000
00000100
00000000
00000010
00001000
00000010
00001000
00000010
00000000
00000100
00000001
,
00000000
00000000
00000000
00000010
00000000
00000000
00000010
00000000
00000000
00000010
00000000
00000000
00001001
00000000
00000000
00000000
,
00000001
00000000
00000001
00000000
00000001
00000000
00000000
00000000
00001000
00000100
00000000
00001000
00000100
00000000
00000000
00000000
,
00000011
00000000
00001010
00000000
00101000
00000000
00011000
00001000
,
02000000
00000000
00100000
00000000
03000000
00000000
10000000
00010000
10000000
00000000
00010000
00000000
00000000
00000000
00000000
00000000
,
10000000
00000000
00000000
00100000
00000000
00000000
00010000
00000000
00000000
00001000
00000000
00000000
00000100
00000000
00001000
00000000
,
00000000
00011000
00000000
00000000
00110000
00000000
00000000
01010000
00000000
00000000
00011000
00000000
00010000
00000000
00001000
00000000
,
00010000
00000000
00000000
01000000
00000000
00000000
00010000
00000000
00000000
00001000
00000000
00000000
00000100
00000000
00001000
00000000
,
00000000
00011000
00000000
00000000
00001010
00000000
00000000
00001100
00000000
00000000
00011000
00000000
00001000
00000000
00010000
00000000
,
00001000
00000000
00000000
00000100
00000000
00000000
00001000
00000000
00000000
00010000
00000000
00000000
01000000
00000000
00010000
00000000
,
00000000
00011000
00000000
00000000
00110000
00000000
00000000
10100000
00000000
00000000
11000000
00000000
00100000
00000000
00010000
00000000
,
10000000
00000000
01000000
00000000
10000000
00000000
00000000
00000000
00100000
01000000
00000000
01000000
00010000
00000000
00000000
00000000
,
10000000
00000000
01000000
00000000
00010000
00000000
00000000
00000000
00001000
00000000
00000000
00000000
00001000
00000100
00000010
00000000
,
00000110
00000101
00000000
00000100
00000000
00000101
00000101
00000100
,
00001000
00010000
00000000
01000000
00010000
00001000
00010000
01000000
,
20000000
00000000
00000000
30000000
;
