#TITLE:BOOM BOOM DOLLAR;
#SUBTITLE:(K.O.G. G3 MIX);
#ARTIST:King Kong & D.Jungle Girls;
#TITLETRANSLIT:;
#SUBTITLETRANSLIT:;
#ARTISTTRANSLIT:;
#CREDIT:;
#BANNER:BOOM BOOM DOLLAR (K.O.G G3 MIX).png;
#BACKGROUND:BOOM BOOM DOLLAR (K.O.G G3 MIX)-bg.png;
#LYRICSPATH:;
#CDTITLE:Dance Dance Revolution 3rd Mix.png;
#MUSIC:BOOM BOOM DOLLAR (K.O.G G3 MIX).ogg;
#OFFSET:0.000;
#SAMPLESTART:35.300;
#SAMPLELENGTH:15.000;
#SELECTABLE:YES;
#DISPLAYBPM:170.000;
#BPMS:0=169.8,4=169.98;
#BGCHANGES:2.75=BOOM BOOM DOLLAR (K.O.G G3 MIX).avi=1=1=0=0;

//---------------dance-single - ----------------
#NOTES:
     dance-single:
     :
     Beginner:
     1:
     :
0000
0000
0000
0000
,
0000
0000
0000
0000
,
0000
0000
0000
0000
,
0000
0000
0000
0000
,
0000
0000
0000
0000
,
0000
0000
0000
0000
,
0000
0000
0000
0000
,
0000
0000
0000
0000
,
0000
0000
0000
0000
,
0001
0000
1000
0000
,
0001
0000
1000
0000
,
0001
0000
1000
0000
,
0100
0100
0100
0100
,
0000
0000
0010
0000
,
0100
0000
0010
0000
,
0100
0000
0010
0000
,
0001
0001
0001
0001
,
0000
1000
0000
0100
,
0000
0001
0000
0100
,
0000
1000
0000
0010
,
0020
0000
0000
0030
,
0000
0001
0000
0010
,
0000
1000
0000
0010
,
0000
0001
0000
0100
,
0200
0000
0300
0000
,
0010
0010
0010
0000
,
1000
1000
1000
0000
,
0010
0010
0010
0000
,
0001
0001
0001
0000
,
0100
0100
0100
0000
,
1000
1000
1000
0000
,
0020
0000
0030
0000
,
0200
0000
0300
0000
,
0010
0010
0010
0000
,
0001
0000
0100
0000
,
0010
0010
0010
0000
,
1000
0000
0100
0000
,
0010
0010
0010
0000
,
0100
0100
0100
0000
,
0002
0000
0003
0000
,
2000
0000
3000
0000
,
0000
1000
0000
0001
,
0000
1000
0000
0001
,
0000
0010
0000
0100
,
0100
0100
0100
0000
,
0000
1000
0000
0001
,
0000
1000
0000
0001
,
0000
0100
0000
0010
,
0010
0010
0010
0000
,
0010
0010
0010
0010
,
0010
0010
0010
0000
,
0010
0010
0010
0010
,
0010
0010
0010
0000
,
0100
0100
0100
0100
,
0100
0100
0100
0000
,
0100
0100
0100
0100
,
0100
0100
0100
0000
,
1001
0000
0000
0000
;

//---------------dance-single - ----------------
#NOTES:
     dance-single:
     :
     Easy:
     5:
     :
0000
0000
0000
0000
,
0000
0000
0000
0000
,
0000
0000
0000
0000
,
0000
0000
0000
0000
,
0000
0000
0000
0000
,
0000
0000
0000
0000
,
0000
0000
0000
0000
,
0000
0000
0000
0000
,
0000
0000
0000
0000
,
0001
0000
1000
0000
,
0001
0000
1000
0000
,
0001
0000
1000
0000
,
0001
0001
1000
1000
,
0100
0000
0100
0000
,
0001
0000
1000
0000
,
0100
0100
1000
0001
,
0010
1000
0001
0100
,
0010
1000
0100
0001
,
0100
1000
0001
0100
,
0001
0001
1000
1000
,
0001
0100
1000
0010
,
0100
0100
1000
0001
,
1000
1000
0001
0001
,
0100
1000
0001
0100
,
1001
0100
0100
0100
,
0010
0010
0100
0100
,
1000
1000
0001
0001
,
0100
0100
1000
1000
,
0001
0001
1000
0001
,
1000
1000
0001
0001
,
0100
1000
0001
0100
,
0010
0010
0010
0010
,
0100
0100
0100
0100
,
1001
0100
1000
0100
,
0001
1000
0100
0100
,
1001
0100
0001
0100
,
1000
0001
0100
0100
,
0010
0010
0100
0100
,
0001
0000
0001
0000
1000
0001
1000
0000
,
0010
0010
0010
0010
,
0100
0000
0100
0000
0100
0100
0100
0000
,
0010
1000
0100
0001
,
0100
1000
0100
0010
,
0001
1000
0010
0001
,
0100
1000
0100
0001
,
0100
0100
1000
0001
,
0100
0100
0001
1000
,
0010
0010
1000
0001
,
0010
0010
0001
1000
,
0010
0010
0010
0010
,
0010
0000
0010
0000
0010
0000
0010
0010
,
0010
0010
0010
0010
,
0010
0000
0010
0000
0010
0000
0010
0010
,
0010
0010
0010
0010
,
0010
0000
0010
0000
0010
0000
0010
0010
,
0010
0010
0010
0010
,
0010
0010
0010
0010
,
1001
0000
0000
0000
;

//---------------dance-single - ----------------
#NOTES:
     dance-single:
     :
     Medium:
     7:
     :
0000
0000
0000
0000
,
0000
0000
0000
0000
,
0000
0000
0000
0000
,
0000
0000
0000
0000
,
0000
0000
0000
0000
,
0000
0000
0000
0000
,
0000
0000
0000
0000
,
0000
0000
0000
0000
,
0000
0000
0000
0000
,
0001
0001
1000
1000
,
0100
0100
0001
1000
,
0001
0001
1000
1000
,
0010
1000
0100
0000
0001
0100
1000
0000
,
0010
0010
0100
0100
,
0001
0001
1000
1000
,
0100
0100
0001
1000
,
0010
1000
0100
0000
0001
0100
1000
0000
,
0010
0001
0010
1000
,
0010
0000
0010
0000
1000
0000
0001
0100
,
1000
0100
0001
1000
,
0100
0000
0001
0000
0100
0000
1000
0100
,
0001
0010
1000
0010
,
0001
0000
1000
0000
0001
0000
0010
0001
,
0100
1000
0100
0001
,
1000
0000
0100
0000
0100
0000
0100
0100
,
0010
0001
1000
0100
,
0010
1000
0100
0000
1000
0100
0001
0000
,
0100
1000
0001
1000
,
0001
0001
1000
1000
,
0010
1000
0001
0100
,
1000
0100
0001
0000
1000
0010
0001
0000
,
0010
1000
0100
0000
0100
1000
0010
0000
,
1000
0100
0001
0000
0001
0100
1000
0000
,
0010
0010
1000
1000
,
0001
0000
0001
0000
1000
0000
0001
0100
,
1000
0100
0001
1000
,
0100
0001
0100
0100
,
0010
0010
1100
0101
,
0010
0000
1000
0000
0100
0100
0100
0000
,
0010
0000
0010
0000
0010
1000
0010
0000
,
0100
0000
0100
0000
0100
0001
1000
0000
,
0001
0001
1000
1000
,
0001
0001
1000
0001
,
1000
1000
0001
0001
,
1000
0000
0001
0000
1000
0000
0001
0001
,
0001
1000
0001
1000
,
0001
0001
1000
1000
,
0001
1000
0001
1000
,
0010
0010
0100
0100
,
0100
1000
0100
0001
0100
1000
0100
0001
,
0100
1000
0100
0001
0100
1000
0100
0001
,
0010
1000
0010
0001
0010
1000
0010
0001
,
0010
1000
0010
0001
0010
1000
0010
0001
,
0100
1000
0100
0001
0100
1000
0100
0001
,
0100
1000
0100
0001
0100
1000
0100
0001
,
0010
1000
0010
0001
0100
1000
0100
0001
,
0010
1000
0010
0001
0100
1000
0100
0001
,
1000
0000
0000
0000
;

//---------------dance-single - ----------------
#NOTES:
     dance-single:
     :
     Hard:
     8:
     :
0000
0000
0000
0000
,
0000
0000
0000
0000
,
0000
0000
0000
0000
,
0000
0000
0000
0000
,
0000
0000
0000
0000
,
0000
0000
0000
0000
,
0000
0000
0000
0000
,
0000
0000
0000
0000
,
0000
0000
0000
0000
,
0001
0000
1000
0000
0010
1000
0100
0000
,
0010
0001
0100
0000
0010
1000
0100
0000
,
0010
0000
1000
0000
0010
1000
0100
0000
,
0010
1000
0100
0001
0100
1000
0010
0000
,
1000
0000
0100
0000
0001
0001
0100
0000
,
1000
1000
0100
0000
0001
0001
0100
0000
,
1000
0000
0001
0000
0100
0100
1000
0000
,
0010
1000
0100
0001
0100
1000
0010
0000
,
1000
0000
0010
0000
1001
0000
0100
0100
,
0010
0000
0010
0000
1000
0000
0001
0100
,
1000
0100
0001
1000
,
0001
0000
1000
0100
1000
0000
0001
0100
,
0010
0000
0010
0000
1000
0001
0100
0010
,
1000
0000
1000
0000
0010
1000
0100
1000
,
0001
0000
1000
0000
0001
0100
0010
1000
,
0001
1000
0001
0100
0010
1000
0100
1000
,
0001
0001
0100
0001
,
1000
0100
0001
0100
1000
0100
0001
1000
,
0001
1000
0001
1000
,
0010
1000
0100
0001
0100
1000
0010
0001
,
0010
0010
1000
0001
,
0100
1000
0100
0001
0010
0001
0100
1000
,
0100
0001
0010
0001
0100
1000
0100
0001
,
1000
0100
0001
0100
1000
0001
0100
0000
,
0010
0000
0010
0000
1000
0010
0001
0000
,
0010
1000
0001
0001
,
0010
0000
0010
0000
0001
0010
1000
0000
,
0010
0001
1000
0001
,
0010
0000
0010
0000
0100
0001
0010
0000
,
0100
0000
0100
0000
1000
0001
0100
0010
,
1000
0000
1000
0000
1000
0100
0001
0100
,
1000
0010
1000
0100
0001
0100
1000
0010
,
1000
1000
0001
0001
,
1000
0001
1000
0001
,
1000
0010
0001
0010
1000
0100
0010
0001
,
0100
0010
1000
0100
0001
0100
1000
0001
,
1000
1000
0001
0001
,
1000
0001
1000
1000
,
0001
0100
1000
0100
0001
1000
0100
0001
,
0100
1000
0010
1000
0100
1000
0001
0000
,
1000
0010
1000
0001
0010
0001
0100
0001
,
0100
1000
0100
1000
0100
0001
0010
0001
,
0010
0001
0100
1000
0100
0001
1000
0100
,
1000
0100
1000
0100
0001
0100
0001
0100
,
0001
0100
1000
0100
1000
0100
1000
0100
,
0001
0100
0001
0100
0001
0100
1000
0001
,
0100
0001
0100
0001
0100
1000
0100
0001
,
0010
0001
0010
0001
0100
0010
1000
0100
,
1001
0000
0000
0000
;

//---------------dance-double - ----------------
#NOTES:
     dance-double:
     :
     Easy:
     5:
     :
00000000
00000000
00000000
00000000
,
00000000
00000000
00000000
00000000
,
00000000
00000000
00000000
00000000
,
00000000
00000000
00000000
00000000
,
00000000
00000000
00000000
00000000
,
00000000
00000000
00000000
00000000
,
00000000
00000000
00000000
00000000
,
00000000
00000000
00000000
00000000
,
00000000
00000000
00000000
00000000
,
00001000
00000000
00010000
00000000
,
00001000
00000000
00010000
00000000
,
00001000
00000100
00000001
00001000
,
00000010
00000010
00000010
00000010
,
00001000
00000000
00000001
00000000
,
00001000
00000000
00000001
00000000
,
00001000
00100000
10000000
01000000
,
00010000
00001000
00010000
00001000
,
00010000
00010000
00001000
00001000
,
00010000
00000000
00100000
00000000
10000000
00000000
01000000
00010000
,
00001000
00010000
00001000
00010000
,
00001000
00000100
00000001
00001000
,
00000100
00000001
00000100
00001000
,
00100000
00001000
00000100
00001000
,
00010000
00010000
00001000
00001000
,
00010000
00000000
00100000
00000000
10000000
00000000
00010000
00010000
,
10000000
10000000
00010000
10000000
,
01000000
00000000
01000000
00000000
00010000
00001000
00000000
00000000
,
00010000
00010000
00001000
00010000
,
00001000
00000100
00000001
00001000
,
00000001
00000001
00001000
00000001
,
00000100
00000000
00000100
00000000
00001000
00010000
00000000
00000000
,
00100000
00000000
00000000
00000000
,
00000100
00000000
00000000
00000000
,
00010000
10000000
01000000
00010000
,
00001000
00000000
00000100
00000000
00000001
00000000
00001000
00000001
,
00001000
00000100
00000001
00001000
,
00000100
00000000
00001000
00000001
,
00000100
00000100
00001000
00001000
,
00100000
00100000
00010000
00010000
,
10000000
00010000
10000000
01000000
,
00010000
00001000
00000100
00000001
,
00001000
00001000
00000001
00000001
,
00001000
00000001
00001000
00000001
,
00001000
00001000
00000001
00000001
,
00001000
01000000
10000000
00010000
,
10000000
10000000
00010000
00010000
,
10000000
00010000
10000000
00010000
,
10000000
10000000
00010000
00010000
,
00000100
00000001
00001000
00000001
,
00000010
00000010
00000010
00000010
,
00000010
00000000
00000010
00000000
00000010
00000000
00000010
00000010
,
00001000
00001000
00001000
00001000
,
00001000
00000000
00001000
00000000
00001000
00000000
00001000
00001000
,
00010000
00010000
00010000
00010000
,
00010000
00000000
00010000
00000000
00010000
00000000
00010000
00010000
,
00100000
00100000
00100000
00100000
,
00100000
00100000
00100000
00100000
,
00011000
00000000
00000000
00000000
;

//---------------dance-double - ----------------
#NOTES:
     dance-double:
     :
     Medium:
     6:
     :
00000000
00000000
00000000
00000000
,
00000000
00000000
00000000
00000000
,
00000000
00000000
00000000
00000000
,
00000000
00000000
00000000
00000000
,
00000000
00000000
00000000
00000000
,
00000000
00000000
00000000
00000000
,
00000000
00000000
00000000
00000000
,
00000000
00000000
00000000
00000000
,
00000000
00000000
00000000
00000000
,
10000000
10000000
00010000
00010000
,
10000000
01000000
00010000
00001000
,
00010000
00001000
00000100
00000001
,
00000010
00000001
00000100
00000000
00001000
00000100
00000001
00000000
,
00001000
00001000
00000100
00000100
,
00001000
00100000
10000000
01000000
,
00010000
01000000
10000000
00100000
,
10000000
01000000
00010000
00000000
00001000
00000100
00000001
00000000
,
00000010
00000000
00000010
00000000
00001000
00000001
00001000
00000000
,
00000010
00000000
00000010
00000000
00001000
00100000
10000000
00000000
,
00010000
00010000
10000000
10000000
,
01000000
00000000
01000000
00000000
00010000
00001000
00000100
00000000
,
00001000
00010000
00001000
00001000
,
00010000
00100000
00010000
00001000
,
00011000
00000000
00011000
00000000
00010000
00001000
00010000
00000000
,
00001000
00001000
00001000
00001000
,
00010000
00010000
00001000
00001000
,
00100000
00010000
00001000
00000000
00010000
00001000
00000000
00000000
,
00010000
00010000
00001000
00001000
,
00010000
01000000
10000000
00000000
00100000
00010000
00001000
00000000
,
00010000
00010000
00001000
00010000
,
00001000
00000100
00000001
00000000
00000010
00001000
00010000
00000000
,
00001000
00001000
00010000
00010000
,
01000000
01000000
01000000
01000000
,
10000000
10000000
00010000
00010000
,
00100000
00000000
10000000
00000000
00010000
00000000
01000000
01000000
,
01000000
00010000
10000000
01000000
,
00010000
00001000
00000100
00000001
,
00001000
00001000
00000001
00000001
,
00001000
00000100
00000001
00000100
,
00001000
00001000
00010000
00010000
,
00100000
00000000
00100000
00000000
00100000
00100000
00100000
00000000
,
00010000
10000000
00010000
10000000
,
00010000
00010000
00001000
00001000
,
00010000
00010000
00001000
00001000
,
00000100
00000000
00000100
00000000
00000001
00000000
00000001
00001000
,
00000001
00001000
00000001
00001000
,
00010000
00010000
10000000
10000000
,
00010000
10000000
00010000
10000000
,
00100000
00100000
00001000
00001000
,
00010000
10000000
00010000
10000000
,
00010000
01000000
10010000
01010000
,
00011000
00010100
00011000
01001000
,
00011000
00001100
00011000
01010000
,
00001000
00010000
00001000
00010000
,
01000000
00010000
00001000
00000100
,
00011000
01000000
00011000
00000100
,
00010000
01000000
10000000
00010000
,
00011000
00000000
00000000
00000000
;

//---------------dance-double - ----------------
#NOTES:
     dance-double:
     :
     Hard:
     9:
     :
00000000
00000000
00000000
00000000
,
00000000
00000000
00000000
00000000
,
00000000
00000000
00000000
00000000
,
00000000
00000000
00000000
00000000
,
00000000
00000000
00000000
00000000
,
00000000
00000000
00000000
00000000
,
00000000
00000000
00000000
00000000
,
00000000
00000000
00000000
00000000
,
00000000
00000000
00000000
00000000
,
00100000
10000000
01000000
00010000
01000000
10000000
00100000
00010000
,
00001000
00000010
00001000
00010000
00100000
00010000
00001000
00000010
,
00001000
00010000
00001000
00000000
00010000
00000000
00001000
00000000
,
00010000
00100000
10000000
10000000
,
00010000
10000000
01000000
00010000
00001000
00000100
00000001
00001000
,
00000100
00000001
00000100
00001000
00000010
00001000
00000100
00000001
,
00000100
00001000
00000010
00001000
00000100
00001000
00000001
00000000
,
00001000
00000001
00001000
00100000
,
00010000
00100000
10000000
01000000
00010000
00001000
00010000
01000000
,
10000000
00100000
00010000
00001000
00010000
00001000
00000100
00000001
,
00001000
00000100
00000001
00000100
00001000
00000001
00001000
00000000
,
00000001
00000000
00001000
00000001
00000100
00000000
00001000
00010000
,
01000000
00000000
10000000
00000000
00100000
00000000
00010000
00001000
,
00000100
00000000
00001000
00000000
00010000
00000000
00001000
00000100
,
00000001
00000000
00001000
00000000
00000100
00000000
00001000
00000100
,
00010000
00001000
00001000
00001000
,
00000100
00000100
00000001
00000001
,
00001000
00000100
00000001
00000100
00001000
00000001
00000100
00001000
,
00010000
00010000
01000000
01000000
,
00010000
00000000
00001000
00010000
01000000
00010000
00001000
00010000
,
00100000
00100000
01000000
01000000
,
00001000
00000010
00000001
00000010
00001000
00000100
00000001
00000100
,
00001000
00100000
00010000
00001000
00000010
00001000
00010000
00100000
,
00010000
00001000
00000010
00001000
00010000
00100000
00010000
00001000
,
00010000
00010000
00001000
00001000
,
00010000
00000000
00001000
00000000
00000010
00000000
00001000
00010000
,
00001000
00010000
00001000
00010000
,
00000010
00000000
00001000
00000001
,
00000010
00000010
00001000
00001000
,
00010000
00000000
00010000
00000000
10000000
00010000
01000000
00000000
,
00100000
00000000
00100000
00000000
00100000
10000000
01000000
00010000
,
00001000
00000100
00000001
00000010
00001000
00000010
00000001
00000100
,
00000001
00000001
00001000
00001000
,
00000010
00001000
00000100
00000001
00000100
00001000
00000100
00000000
,
00001000
00000100
00001000
00100000
,
00100000
00000000
00100000
00000000
00100000
00000000
00100000
10000000
,
01000000
10000000
00010000
10000000
,
00010000
00010000
10000000
10000000
,
01000000
00010000
00001000
00000100
00000001
00000010
00000001
00000100
,
00001000
00000100
00000001
00000010
00000001
00000100
00001000
00000100
,
00000001
00000010
00001000
00000010
00000001
00000100
00001000
00010000
,
01000000
00010000
00001000
00000100
00001000
00010000
00001000
00010000
,
00100000
10000000
01000000
00010000
00001000
00000100
00000001
00000010
,
00001000
00010000
00100000
00010000
00001000
00000010
00001000
00010000
,
00100000
00010000
00001000
00000010
00000001
00000100
00001000
00000100
,
00000001
00000010
00001000
00010000
00100000
00010000
00001000
00000100
,
00001000
00010000
01000000
10000000
00100000
00010000
00100000
10000000
,
01000000
00010000
00001000
00010000
00100000
00010000
00001000
00000000
,
00000110
00000000
00000000
00000000
;

//---------------dance-couple - ----------------
#NOTES:
     dance-couple:
     :
     Challenge:
     8:
     :
00000000
00000000
00000000
00000000
,
00000000
00000000
00000000
00000000
,
00000000
00000000
00000000
00000000
,
00000000
00000000
00000000
00000000
,
00000000
00000000
00000000
00000000
,
00000000
00000000
00000000
00000000
,
00000000
00000000
00000000
00000000
,
00000000
00000000
00000000
00000000
,
00000000
00000000
00000000
00000000
,
00100000
10000000
00100000
10000000
,
00000010
00000001
00000010
00000001
,
00100000
10000000
01000000
00000000
00000010
00000001
00000100
00000000
,
10010000
00001001
10010000
00001001
,
00010000
00000000
10000000
00000000
00010000
10000000
01000000
00000000
,
00001000
00000000
00000001
00000000
00001000
00000001
00000100
00000000
,
10001000
01000100
00010001
01000100
,
10010000
00001001
10010000
00001001
,
00100000
00000000
00100001
00000000
10000000
00000000
00010001
01000000
,
10000000
01000001
00010000
10000001
,
00010000
00000000
10000001
01000000
10000000
00000000
00010001
01000000
,
00100000
00000000
00100001
00000000
10000000
00010000
01000001
00000000
,
00000010
00000000
10000010
00000000
00001000
00000000
10000001
00000100
,
00001000
10000100
00000001
10001000
,
00000001
00000000
10001000
00000100
00001000
00000000
10000001
00000100
,
00000010
00000000
10000010
00000000
00001000
00000001
10000100
00000000
,
00001001
10010000
00001001
10010000
,
00000010
00001000
00000010
00001000
00000010
00001000
00000100
00000000
,
10010000
00001001
10010000
00001001
,
00010000
10000000
00010000
10000000
00010000
10000000
01000000
00000000
,
00001001
10010000
00001001
10010000
,
00000100
00000001
00000100
00000001
00000100
00000001
00001000
00000000
,
01100000
10000000
10000000
10000000
,
00000110
00000001
00000001
00000001
,
10010000
00001001
10010000
00001001
,
00100000
01000000
00100000
01000000
00100000
10000000
01000000
00000000
,
00001001
10010000
00001001
10010000
,
00000100
00001000
00000100
00001000
00000100
00000010
00000001
00000000
,
10010000
00001001
10010000
00001001
,
10000000
01000000
10000000
01000000
10000000
00100000
01000000
00000000
,
00000010
00000000
00000010
00000000
00000010
00000001
00000100
00000000
,
00100000
00000000
00100000
00000000
00100000
10000000
01000000
00000000
,
00000001
00000000
10000001
00000000
00000001
00001000
10000100
00000000
,
00000010
00000000
10001000
00000000
00000001
00001000
10000100
00000000
,
00001000
00000010
10000001
00000010
00001000
00000100
10000010
00000001
,
00000100
00000010
10001000
00000100
00000001
00000100
10001000
00000001
,
00011000
00000000
00010001
00000000
00010000
10000000
01000001
00000000
,
00100000
00000000
10000001
00000000
00010000
10000000
01000001
00000000
,
10000000
00100000
00010001
00100000
10000000
01000000
00100001
00010000
,
01000000
00100000
10000001
01000000
00010000
01000000
10000001
00010000
,
10000000
00100010
00100010
00100010
,
00100010
00100010
00100010
00100010
,
10001000
10001000
10001000
10001000
,
00010001
00000000
00010001
00000000
10001000
00000000
00010001
10001000
,
01000100
01000100
01000100
01000100
,
10001000
10001000
10001000
10001000
,
00010001
10001000
00010001
00010001
,
00100010
00000000
00100010
00000000
10001000
00000000
00100010
10001000
,
01000100
00000000
00000000
00000000
;

//---------------dance-solo - ----------------
#NOTES:
     dance-solo:
     :
     Easy:
     4:
     :
000000
000000
000000
000000
,
000000
000000
000000
000000
,
000000
000000
000000
000000
,
000000
000000
000000
000000
,
000000
000000
000000
000000
,
000000
000000
000000
000000
,
000000
000000
000000
000000
,
000000
000000
000000
000000
,
000000
000000
000000
000000
,
000001
000000
100000
000000
,
000001
000000
100000
000000
,
000001
000000
100000
000000
,
000001
000001
100000
100000
,
000010
000000
000010
000000
,
001000
000000
000100
000000
,
100000
100000
000010
001000
,
000100
100000
000001
001000
,
001000
000010
001000
010000
,
001000
000010
001000
000001
,
010000
010000
000001
000001
,
010000
001000
100000
000100
,
000001
000001
001000
000100
,
100000
100000
000001
000001
,
001000
100000
000001
000100
,
100001
000010
000010
000010
,
001000
001000
000100
000100
,
100000
100000
000001
000001
,
001000
001000
000001
000001
,
100000
100000
000010
001000
,
000001
000001
010000
010000
,
000100
001000
000001
100000
,
000100
000100
000100
000100
,
001000
001000
001000
001000
,
000010
100010
010000
010001
,
001000
000100
001000
001000
,
000001
001000
000010
001000
,
100000
001000
010000
001000
,
000001
000001
100000
100000
,
000100
000100
001000
001000
,
000001
000001
000001
000001
,
100000
100000
100000
100000
,
000100
100000
001000
010000
,
000100
000001
001000
000010
,
100000
000100
001000
000001
,
001000
100000
001000
000001
,
010000
010000
000001
001000
,
000010
000010
100000
001000
,
000001
000001
010000
001000
,
000001
000001
100000
001000
,
000100
000100
000100
000100
,
000100
000000
000100
000000
000100
000000
000100
000100
,
000100
100000
100000
100000
,
100000
000000
100000
000000
100000
000000
100000
100000
,
100000
000010
000010
000010
,
000010
000000
000010
000000
000010
000000
000010
000010
,
000010
001000
001000
001000
,
001000
001000
001000
001000
,
100001
000000
000000
000000
;

//---------------dance-solo - ----------------
#NOTES:
     dance-solo:
     :
     Medium:
     7:
     :
000000
000000
000000
000000
,
000000
000000
000000
000000
,
000000
000000
000000
000000
,
000000
000000
000000
000000
,
000000
000000
000000
000000
,
000000
000000
000000
000000
,
000000
000000
000000
000000
,
000000
000000
000000
000000
,
000000
000000
000000
000000
,
000001
000001
100000
100000
,
000010
000010
100000
001000
,
000001
000001
100000
100000
,
001000
010000
001000
000000
001000
000010
001000
000000
,
000100
000100
001000
001000
,
000001
000001
100000
100000
,
010000
010000
000001
001000
,
000100
010000
001000
000000
000100
000010
001000
000000
,
100000
000001
010000
000010
,
001000
000000
001000
000000
000010
000000
000010
001000
,
000001
001000
000010
001000
,
100000
000000
000100
000000
001000
000000
000001
010000
,
000001
000100
010000
000100
,
100000
000000
000001
000000
000100
000000
000010
000001
,
000010
100000
001000
000001
,
100000
000000
001000
000000
001000
000000
001000
001000
,
000010
100000
000100
001000
,
000001
000100
000010
000000
100000
000100
010000
000000
,
001000
000001
100000
000001
,
100000
100000
000001
000001
,
001000
000010
001000
000001
,
100000
000010
100000
000000
000001
010000
000001
000000
,
000100
100000
001000
000000
001000
000001
000100
000000
,
010000
001000
010000
000000
000010
001000
000010
000000
,
100000
100000
000001
000001
,
001000
000000
001000
000000
000001
000000
010000
000100
,
100000
001000
000001
100000
,
001000
000010
100000
000001
,
001000
001000
001010
011000
,
000100
000000
100000
000000
001000
001000
001000
000000
,
000001
000000
000001
000000
000001
100000
000001
000000
,
001000
000000
001000
000000
001000
000010
100000
000000
,
000001
000001
100000
100000
,
000001
000001
010010
000000
,
010000
010000
000010
000010
,
010000
000000
000001
000000
100000
000000
000001
000001
,
000001
100000
000001
100000
,
000001
000001
100000
100000
,
000001
100000
000001
100000
,
000100
000100
001000
001000
,
001000
010000
001000
000010
001000
100000
001000
000001
,
001000
010000
001000
000010
001000
100000
001000
000001
,
000100
010000
000100
000010
000100
100000
000100
000001
,
000100
010000
000100
000010
000100
100000
000100
000001
,
001000
010000
001000
000010
001000
100000
001000
000001
,
001000
010000
001000
000010
001000
100000
001000
000001
,
000100
010000
000100
000010
001000
010000
001000
000010
,
000100
100000
000100
000001
001000
100000
001000
000001
,
100000
000000
000000
000000
;

//---------------dance-solo - ----------------
#NOTES:
     dance-solo:
     :
     Hard:
     8:
     :
000000
000000
000000
000000
,
000000
000000
000000
000000
,
000000
000000
000000
000000
,
000000
000000
000000
000000
,
000000
000000
000000
000000
,
000000
000000
000000
000000
,
000000
000000
000000
000000
,
000000
000000
000000
000000
,
000000
000000
000000
000000
,
000001
000000
100000
000000
000100
001000
000010
000000
,
000100
000010
001000
000000
000100
010000
001000
000000
,
100000
000000
000001
000000
010000
001000
001000
000000
,
100000
000100
001000
000100
010000
000010
010000
000000
,
000001
000000
100000
000000
000100
100000
000001
000000
,
010000
010000
000001
000000
000100
000100
001000
000000
,
010000
000000
000001
000000
010000
000100
001000
000000
,
000100
100000
001000
010000
001000
100000
000100
000000
,
001000
000000
000001
000000
001000
000000
000010
000010
,
001000
000000
001000
000000
000001
000000
100000
000100
,
001000
000001
010000
000010
,
100000
000000
001000
010000
001000
000000
100000
000100
,
001000
000000
001000
000000
000001
100000
001000
000100
,
000010
000000
010000
000000
000100
010000
001000
010000
,
000001
000000
100000
000000
000100
001000
000100
100000
,
000001
100000
000001
001000
001000
000100
000100
100000
,
000001
000001
001000
000100
,
100000
001000
000001
001000
100000
001000
000001
001000
,
010000
000001
010000
000001
,
000100
000010
001000
000010
001000
000010
000100
000001
,
100000
100000
000100
001000
,
000001
000010
000001
000100
000010
000100
001000
100000
,
001000
010000
000100
010000
000001
001000
000001
001000
,
000010
001000
000001
001000
000100
100000
001000
000000
,
000100
000000
000001
000000
100000
001000
000001
000000
,
001000
010000
000010
000000
,
000100
000000
000100
000000
000001
001000
100000
000000
,
001000
000010
010000
000000
,
000100
000000
000100
000000
001000
000010
100000
000000
,
000010
000000
000010
000000
100000
000100
001000
000001
,
010000
000000
010000
000000
010000
000001
010000
000001
,
100000
000100
100000
001000
000001
001000
100000
000100
,
100000
100000
000001
000001
,
100000
000001
100000
000001
,
010000
001000
010000
001000
000100
000001
000100
000001
,
010000
001000
100000
001000
000100
000010
000100
000001
,
100000
100000
000001
000001
,
100000
000001
100000
100000
,
000010
001000
000001
001000
000100
100000
001000
010000
,
001000
100000
000100
100000
000010
100000
000001
000000
,
001000
000100
001000
000001
000100
000001
010000
000001
,
010000
000100
010000
000100
010000
000001
001000
000001
,
001000
000001
001000
100000
001000
000010
100000
001000
,
100000
001000
100000
001000
000010
001000
000010
001000
,
000010
001000
010000
001000
100000
001000
010000
001000
,
000010
001000
000001
001000
000010
001000
100000
000100
,
010000
000100
100000
000100
010000
000100
100000
001000
,
000100
001000
000100
001000
000010
001000
000010
001000
,
101000
000000
000000
000000
;

//---------------dance-double - Edit by silenttype01----------------
#NOTES:
     dance-double:
     Edit by silenttype01:
     Challenge:
     9:
     0.587,0.582,0.024,0.060,0.108:
00000000
00000000
00000000
00000000
,
00000000
00000000
00000000
00000000
,
00000000
00000000
00000000
00000000
,
00000000
00000000
00000000
00000000
,
00000000
00000000
00000000
00000000
,
00000000
00000000
00000000
00000000
,
00000000
00000000
00000000
00000000
,
00000000
00000000
00000000
00000000
,
00000000
00000000
00000000
00000000
,
00000010
00000001
00000100
00001000
00000100
00000001
00000010
00001000
,
00010000
00100000
00010000
00001000
00000010
00001000
00010000
00100000
,
00010000
00001000
00000010
00001000
00010000
00001000
00000010
00000001
,
00000100
00001000
00000100
00000001
00000100
00001000
00000100
00000001
,
00001000
00000001
00000100
00001000
00010000
01000000
10000000
00010000
,
01000000
10000000
01000000
00010000
00100000
00010000
01000000
10000000
,
01000000
00010000
00100000
00010000
01000000
00010000
10000000
01000000
,
00010000
01000000
10000000
01000000
00010000
01000000
10000000
01000000
,
00010000
01000000
10000000
00100000
00010000
00001000
00010000
00100000
,
10000000
01000000
00010000
00001000
00010000
00001000
00000010
00000001
,
00001000
00000010
00000001
00000010
00001000
00000001
00001000
00000100
,
00001000
00000000
00000000
00000001
00000000
00000000
00000010
00000000
00001000
00000000
00000000
00010000
00000000
00000000
00100000
00000000
,
10000000
01000000
00010000
00001000
00000010
00001000
00010000
00001000
,
00000010
00000001
00001000
00000010
00001000
00000010
00010000
00001000
,
00000010
00000001
00001000
00000100
00001000
00000100
00010000
00001000
,
00000200
00000000
00000000
00000000
00000001
00000000
00000000
00000000
00000301
00000000
00000000
00000001
00000100
00000000
00000001
00000000
,
00000010
00000010
00000001
00000001
,
00001000
00000010
00000001
00000010
00001000
00000001
00000010
00001000
,
00010000
00010000
00100000
00100000
,
00010000
00000000
00001000
00000000
00010000
00000000
00100000
00000000
00010000
00000000
00000000
00001000
00010000
00000000
00100000
00000000
,
01000000
01000000
00100000
00100000
,
10000000
00100000
00010000
00100000
10000000
01000000
00010000
01000000
,
10000000
00100000
00010000
00001000
00000010
00001000
00010000
00100000
,
00010000
00001000
00000010
00001000
00010000
00100000
00010000
00001000
,
00010000
MMMMMMMM
00010000
MMMMMMMM
00001000
MMMMMMMM
00001000
MMMMMMMM
,
00010000
00001000
00000010
00001000
00010000
00001000
00000010
00001000
,
00010000
MMMMMMMM
00010000
MMMMMMMM
00001000
MMMMMMMM
00001000
MMMMMMMM
,
00010000
00000000
00100000
00000000
00010000
00000000
00001000
00000000
00010000
00000000
00000000
00100000
00010000
00000000
00001000
00000000
,
00010000
MMMMMMMM
00010000
MMMMMMMM
00001000
MMMMMMMM
00001000
MMMMMMMM
,
00010000
00000000
00001000
00010000
00000000
00001000
00010000
00000000
00001000
00000000
00010000
00000000
00000000
00000000
00000000
00000000
,
00022000
00000000
00000000
00033000
,
00010000
00000000
00000000
01000000
00000000
00000000
10000000
00000000
00100000
00000000
00000000
00010000
00000000
00000000
00100000
00000000
,
10000000
00000000
01000000
00000000
10000000
00000000
00010000
00000000
00200000
00000000
00000000
00010000
00300000
00000000
00000000
00000000
,
00000000
00000000
00100000
00000000
00010000
00000000
01000000
00000000
10000000
00000000
01000000
00010000
00000000
00000000
00000000
00000000
,
00000000
10000000
01000000
10000000
01000000
00010000
00001000
00000010
,
00001000
00000000
00010000
00000000
00000000
00000000
00000000
00000000
00010000
00000000
00000000
00010000
00001000
00000000
00000010
00000000
,
00000100
00000000
00000010
00000000
00000001
00000000
00000100
00000000
00000002
00000000
00000000
00001000
00000003
00000000
00000000
00000000
,
00000000
00000000
00000010
00000000
00001000
00000000
00000100
00000000
00000001
00000000
00000100
00001000
00000000
00000000
00000000
00000000
,
00000000
00000000
00000001
00000000
00000100
00000000
00001000
00000000
00010000
00000000
00000000
00010000
00100000
00000000
00000000
00100000
,
10000000
00000000
00000000
10000000
01000000
00000000
00000000
01000000
00010000
00000000
00010000
00000000
01000000
00000000
01000000
00000000
,
10000000
00100000
00010000
00100000
10000000
01000000
00010000
00001000
,
00000100
00001000
00010000
01000000
00010000
00001000
00010000
00001000
,
00000010
00000001
00000100
00001000
00010000
01000000
10000000
00100000
,
00010000
00001000
00000010
00001000
00010000
00100000
00010000
00001000
,
00000010
00001000
00010000
00100000
10000000
01000000
00010000
01000000
,
10000000
00100000
00010000
00001000
00000010
00001000
00010000
01000000
,
00010000
00001000
00000100
00000001
00000010
00001000
00000010
00000001
,
00000100
00001000
00010000
00001000
00000010
00001000
00010000
00100000
,
01100000
00000000
00000000
00000000
;

//---------------dance-single - Edit by silenttype01----------------
#NOTES:
     dance-single:
     Edit by silenttype01:
     Challenge:
     9:
     0.587,0.582,0.024,0.060,0.108: // measure 1
0000
0000
0000
0000
,  // measure 2
0000
0000
0000
0000
,  // measure 3
0000
0000
0000
0000
,  // measure 4
0000
0000
0000
0000
,  // measure 5
0000
0000
0000
0000
,  // measure 6
0000
0000
0000
0000
,  // measure 7
0000
0000
0000
0000
,  // measure 8
0000
0000
0000
0000
,  // measure 9
0000
0000
0000
0000
,  // measure 10
0010
0001
0100
1000
0100
0001
0010
0100
,  // measure 11
1000
0010
0001
0010
1000
0100
0010
0001
,  // measure 12
1000
0100
0010
1000
0001
1000
0010
0001
,  // measure 13
0100
1000
0100
0001
0100
1000
0100
0001
,  // measure 14
0010
0100
1000
0001
0010
0100
1000
0001
,  // measure 15
0100
1000
0100
0001
0010
0001
0100
1000
,  // measure 16
0100
0001
0010
0001
0100
0001
1000
0100
,  // measure 17
0001
0100
1000
0100
0001
0100
1000
0100
,  // measure 18
0001
0100
1000
0010
0001
0100
0001
0010
,  // measure 19
1000
0100
0010
0001
0100
0010
1000
0100
,  // measure 20
0010
1000
0001
0100
1000
0001
1000
0100
,  // measure 21
1000
0000
0000
0001
0000
0000
0010
0000
0100
0000
0000
1000
0000
0000
0010
0000
,  // measure 22
1000
0100
0010
0100
1000
0100
0010
0100
,  // measure 23
0001
0100
0010
0001
0010
0100
0010
1000
,  // measure 24
0010
0001
1000
0100
1000
0100
0001
0100
,  // measure 25
2000
0000
0000
0000
0001
0000
0000
0000
3001
0000
0000
0001
0100
0000
0001
0000
,  // measure 26
0010
0010
0100
0100
,  // measure 27
1000
0010
0001
0010
1000
0001
0010
1000
,  // measure 28
0010
0010
0100
0100
,  // measure 29
1000
0000
0001
0000
1000
0000
0010
0000
1000
0000
0000
0001
1000
0000
0100
0000
,  // measure 30
0010
0010
0100
0100
,  // measure 31
1000
0010
0001
0010
1000
0100
0001
0100
,  // measure 32
1000
0010
0010
0100
0100
0001
0001
1000
,  // measure 33
1000
0100
0100
0010
0010
0001
0001
1000
,  // measure 34
0010
MMMM
0010
MMMM
0100
MMMM
0100
MMMM
,  // measure 35
0001
1000
0010
1000
0001
1000
0100
1000
,  // measure 36
0010
MMMM
0010
MMMM
0100
MMMM
0100
MMMM
,  // measure 37
0001
0000
0010
0000
0001
0000
1000
0000
0001
0000
0000
0010
0001
0000
0100
0000
,  // measure 38
0010
MMMM
0010
MMMM
0100
MMMM
0100
MMMM
,  // measure 39
0001
0000
1000
0001
0000
1000
0001
0000
1000
0000
0001
0000
0000
0000
0000
0000
,  // measure 40
2002
0000
0000
3003
,  // measure 41
0001
0000
0000
0100
0000
0000
1000
0000
0010
0000
0000
0001
0000
0000
0100
0000
,  // measure 42
0010
0000
1000
0000
0001
0000
0100
0000
0020
0000
0000
1000
0030
0000
0000
0000
,  // measure 43
0000
0000
0010
0000
0100
0000
0001
0000
1000
0000
0010
0100
0000
0000
0000
0000
,  // measure 44
0000
1000
0100
1000
0100
0001
1000
0010
,  // measure 45
1000
0000
0001
0000
0000
0000
0000
0000
0001
0000
0000
0001
1000
0000
0100
0000
,  // measure 46
0010
0000
1000
0000
0001
0000
0100
0000
0020
0000
0000
0001
0030
0000
0000
0000
,  // measure 47
0000
0000
0100
0000
0010
0000
1000
0000
0001
0000
0100
0010
0000
0000
0000
0000
,  // measure 48
0000
0000
0001
0000
0010
0000
1000
0000
0001
0000
0000
0001
0010
0000
0000
0010
,  // measure 49
1000
0000
0000
1000
0010
0000
0000
0010
0001
0000
0001
0000
0100
0000
0100
0000
,  // measure 50
0001
0100
1000
0100
0001
0010
1000
0010
,  // measure 51
0001
0100
0010
1000
0001
0100
0010
1000
,  // measure 52
0100
0001
0100
0001
1000
0010
1000
0010
,  // measure 53
0001
0100
0010
1000
0001
0100
0010
1000
,  // measure 54
0100
0001
0100
1000
0010
0001
0010
1000
,  // measure 55
0100
0001
0100
1000
0010
0001
0010
1000
,  // measure 56
0100
0010
0001
1000
0100
0010
0001
0100
,  // measure 57
1000
0100
1000
0001
0010
0001
0010
0100
,  // measure 58
0110
0000
0000
0000
;
