#TITLE:Bloody Tears;
#SUBTITLE:(IIDX EDITION);
#ARTIST:DJ YOSHITAKA;
#TITLETRANSLIT:;
#SUBTITLETRANSLIT:;
#ARTISTTRANSLIT:;
#CREDIT:;
#BANNER:Bloody Tears (IIDX EDITION).png;
#BACKGROUND:Bloody Tears (IIDX EDITION)-bg.png;
#LYRICSPATH:;
#CDTITLE:./CDTITLES/beatmaniaIIDX.png;
#MUSIC:Bloody Tears (IIDX EDITION).ogg;
#OFFSET:0.000;
#SAMPLESTART:16.800;
#SAMPLELENGTH:14.980;
#SELECTABLE:YES;
#DISPLAYBPM:170.000;
#BPMS:0.000=170.616,4.000=169.979,176.000=169.990;
#STOPS:176.000=1.053
;
#BGCHANGES:0.000=Bloody Tears (IIDX EDITION).avi=1.000=1=1=0,
240.000=Bloody Tears (IIDX EDITION)-bg.png=1.000=0=0=1,
99999=-nosongbg-=1.000=0=0=0 // don't automatically add -songbackground-
;

//---------------dance-single - ----------------
#NOTES:
     dance-single:
     :
     Beginner:
     1:
     0.162,0.235,0.000,0.000,0.000:
0000
0000
0000
0000
,
0000
0000
0000
0000
,
0000
0000
0000
0000
,
0000
0000
0000
0000
,
0000
0000
0000
0000
,
0000
0000
0000
0000
,
0001
0000
0000
0000
,
1000
0000
0000
0000
,
0001
0000
0001
0000
,
1000
0000
1000
0000
,
0010
0000
0000
0000
,
0100
0000
0000
0000
,
0001
0000
1000
0000
,
0100
0000
0000
0000
,
1000
0000
0100
0000
,
0001
0000
0000
0000
,
0010
0000
0100
0000
,
0001
0000
0000
0000
,
0001
0000
0010
0000
,
0100
0000
0000
0000
,
0001
0000
1000
0000
,
0001
0000
0100
0000
,
1000
0000
0001
0000
,
1000
0000
0010
0000
,
0100
0000
0010
0000
,
0100
0000
0001
0000
,
1000
0000
0001
0000
,
1000
0000
0010
0000
,
1000
0000
1000
0000
,
0100
0100
0100
0000
,
0001
0000
0001
0000
,
0010
0010
0010
0000
,
0001
0000
0001
0000
,
1000
1000
1000
0000
,
0010
0000
0010
0000
,
0100
0100
0100
0100
,
0100
0000
0000
0000
,
0001
0000
0000
0000
,
1000
0000
0000
0000
,
0001
0000
0000
0000
,
0010
0000
0000
0000
,
0001
0000
1000
0000
,
0001
0000
0000
0000
,
0100
0000
0000
0000
,
0000
0001
0000
1000
,
0000
0010
0000
0010
,
0000
1000
0000
0010
,
0000
0001
0000
0001
,
0000
0100
0000
0010
,
0000
1000
0000
1000
,
0000
0001
0000
0100
,
0000
0010
0000
0010
,
0000
0001
0000
1000
,
0000
0010
0000
1000
,
1000
1000
0000
0100
,
0000
0010
0000
0001
,
0001
0001
0000
0010
,
0000
0100
0000
0010
,
0010
0010
0000
0001
,
0000
0100
0000
1000
;

//---------------dance-single - ----------------
#NOTES:
     dance-single:
     :
     Easy:
     2:
     0.246,0.304,0.157,0.000,0.000:
0000
0000
0000
0000
,
0000
0000
0000
0000
,
0000
0000
0000
0000
,
0000
0000
0000
0000
,
0000
0000
0000
0000
,
0000
0000
0000
0000
,
0001
0000
0000
0000
,
1000
0000
0000
0000
,
0001
0000
0010
0000
,
0100
0000
1000
0000
,
0001
0001
1000
1000
,
0001
1000
1001
0000
,
0010
0000
1000
0000
,
0100
0010
0001
0000
,
1000
0000
0100
0000
,
0001
0001
1000
1000
,
0010
0000
0001
0000
,
0100
1000
0010
0000
,
0001
0000
0010
0000
,
0100
0100
0010
0010
,
0001
0000
0010
0000
,
0100
0000
1000
0010
,
1000
0000
0010
0000
,
0100
0000
0001
0010
,
0100
0000
0010
0000
,
0100
0000
0100
0010
,
1000
0000
0001
0000
,
0010
0000
1001
0000
,
1000
0000
0001
0000
,
1000
1000
0001
0001
,
1000
0000
0100
0000
,
0010
0010
0100
0100
,
0010
0000
0001
0000
,
1000
1000
0010
0010
,
1000
0000
0001
0000
,
0100
0100
1000
1000
,
0100
0000
0000
0000
,
0001
0000
0010
0000
,
1000
0100
0000
0000
,
0001
0000
1000
0000
,
0010
0000
0100
0000
,
0001
0000
1000
0000
,
0001
0100
0000
0000
,
0001
1000
0010
0100
,
0000
0001
0010
1000
,
0000
0010
0100
0001
,
0000
1000
0000
0010
,
0000
0001
0001
1000
,
1000
0100
0001
0010
,
0000
0010
1000
0100
,
0000
0001
0000
0100
,
0000
0010
0010
0100
,
0100
1001
0000
0110
,
0000
1001
0000
1000
,
0001
1001
0000
0110
,
0000
1001
0000
0010
,
0100
0110
0000
1001
,
0000
0110
0000
1000
,
0001
1001
0000
0110
,
0000
1001
0000
1000
,
0001
0000
0000
0000
;

//---------------dance-single - ----------------
#NOTES:
     dance-single:
     :
     Medium:
     4:
     0.321,0.336,0.079,0.045,0.135:
0000
0000
0000
0000
,
0000
0000
0000
0000
,
0000
0000
0000
0000
,
0000
0000
0000
0000
,
0000
0000
0000
0000
,
0000
0000
0000
0000
,
0001
0000
0000
0000
,
1000
0000
0000
0000
,
0001
0000
0010
0000
,
0100
0010
0001
1000
,
0001
0001
1000
1000
,
0100
0010
1001
0000
,
0001
0100
1000
0010
,
0100
0010
0001
0100
,
1000
0010
0100
1000
,
0002
0000
2000
3003
,
0010
0001
0100
0010
,
0100
1000
0010
1000
,
0001
1000
0010
0001
,
0100
0100
0010
1001
,
0001
0000
0000
0001
0000
0000
0000
0000
0010
0000
0000
0010
0000
0000
0000
0000
,
0100
0000
0000
0100
0000
0000
0000
0000
1000
0000
0000
0000
0010
0000
0000
0000
,
1000
0000
0000
1000
0000
0000
0000
0000
0010
0000
0000
0010
0000
0000
0000
0000
,
0100
0000
0000
0100
0000
0000
0000
0000
0001
0000
0000
0000
1001
0000
0000
0000
,
0100
0000
0000
1000
0000
0000
0000
0000
0100
0000
0000
0010
0000
0000
0000
0000
,
0100
0000
0000
0001
0000
0000
0000
0000
0100
0000
0000
0000
0010
0000
0000
0000
,
1000
0000
0000
0010
0000
0000
0000
0000
0001
0000
0000
1000
0000
0000
0000
0000
,
0010
0000
0000
1000
0000
0000
0000
0000
0110
0000
0000
0000
0000
0000
0000
0000
,
1000
1000
0001
0001
,
1000
0001
1000
0001
,
1000
1000
0100
0100
,
0010
0100
0010
0100
,
0010
0010
0001
0001
,
1000
0010
1000
0010
,
1000
1000
0001
0001
,
0100
1000
0100
1000
,
0100
0000
0000
0000
,
0001
0000
0010
0000
,
1000
0100
0000
0000
,
0001
0000
1000
0000
,
0010
0010
0100
0100
,
0001
0000
1000
0000
,
0001
0100
0000
0100
,
0001
1000
0010
0100
,
0000
0001
0010
1000
,
0100
0010
0100
0001
,
0010
1000
0100
0010
,
1000
0002
0000
2000
,
3003
0100
0001
0010
,
0100
0010
1000
0100
,
1000
0001
1000
0100
,
0001
0010
0100
0010
,
1001
0000
0000
0000
0001
0000
0000
0001
0000
0000
0000
0000
0100
0000
0000
0100
,
0000
0000
0000
0000
0010
0000
0000
0010
0000
0000
0000
0000
1000
0000
0000
0000
,
0100
0000
0000
0000
1000
0000
0000
0010
0000
0000
0000
0000
0100
0000
0000
0001
,
0000
0000
0000
0000
0010
0000
0000
0100
0000
0000
0000
0000
0001
0000
0000
0000
,
1001
0000
0000
0000
0010
0000
0000
0010
0000
0000
0000
0000
0100
0000
0000
0100
,
0000
0000
0000
0000
0001
0000
0000
0001
0000
0000
0000
0000
0010
0000
0000
0000
,
0100
0000
0000
0000
1000
0000
0000
0100
0000
0000
0000
0000
0001
0000
0000
1000
,
0000
0000
0000
0000
0100
0000
0000
1000
0000
0000
0000
0000
1001
0000
0000
0000
;

//---------------dance-single - ----------------
#NOTES:
     dance-single:
     :
     Hard:
     8:
     0.485,0.607,0.416,0.000,0.135:
0000
0000
0000
0000
,
0000
0000
0000
0000
,
0000
0000
0000
0000
,
0000
0000
0000
0000
,
0000
0000
0000
0000
,
0000
0000
0000
0000
,
1000
0000
0000
0000
,
0001
0000
0000
0000
0000
0000
0000
0010
,
1000
0000
0000
0001
0100
0000
0000
0001
,
0010
0000
0100
0000
1000
0100
0001
0100
,
1000
0010
0100
0001
,
0010
0001
0100
0001
0010
0001
0000
0000
,
1001
0000
0110
0000
0001
1000
0100
0000
,
0010
0000
0100
0000
1000
0000
0010
1000
,
0001
0000
0100
0000
0010
0100
0001
0000
,
0010
1100
0010
0101
,
0110
0000
1001
0000
0010
1000
0100
0000
,
0010
0000
0001
0000
0100
0000
0001
1000
,
0100
0000
0001
0000
0100
1000
0010
0000
,
1000
0000
0001
0000
0100
0001
0100
0001
,
1000
0000
0000
0100
0000
0000
1000
0000
0001
0000
0000
0100
0000
0000
0001
0000
,
0010
0000
0000
0100
0000
0000
0010
0000
0001
0000
1000
0000
0100
0000
0010
0000
,
0001
0000
0000
0100
0000
0000
0001
0000
1000
0000
0000
0100
0000
0000
1000
0000
,
0010
0000
0000
0100
0000
0000
0010
0000
1000
0000
0001
0000
0100
0000
0000
0000
,
1010
0000
0000
0101
0000
0000
0000
0000
0011
0000
0000
1100
0000
0000
0000
0000
,
0110
0000
0000
1001
0000
0000
0000
0000
0010
0000
1000
0000
0100
0000
1000
0000
,
0101
0000
0000
1100
0000
0000
0000
0000
1010
0000
0000
0011
0000
0000
0000
0000
,
1100
0000
0000
0101
0000
0000
0000
0000
1001
0000
0000
0000
0000
0000
0000
0000
,
0001
0001
1000
1000
,
0001
0100
1000
0100
0001
0100
1000
0100
,
0001
0001
0010
0010
,
0100
1000
0010
1000
0100
1000
0010
1000
,
0100
0100
0010
0010
,
0001
1000
0010
1000
0001
1000
0010
1000
,
0001
0001
0100
0100
,
0010
0100
0001
0100
0010
0100
0001
0100
,
0010
0000
0000
0000
,
1000
0000
0100
0000
,
0001
0010
0000
0000
,
1000
0000
0001
0000
,
0100
0100
0010
0010
,
1000
0000
0000
0000
0001
0000
1000
0100
,
1000
0000
0000
0000
0000
0000
0001
0100
,
1000
0100
0001
0010
0100
1000
0010
0100
,
0000
0000
1001
0000
0110
0000
1000
0001
,
0100
0010
0100
0001
,
0010
0001
1000
0000
0100
0000
0010
0100
,
1000
0010
0101
0010
,
1100
0000
0110
0000
1001
0000
0010
0001
,
0100
0010
1000
0100
,
1000
0001
0100
0000
1000
0000
0100
0001
,
0010
0000
0001
0000
1000
0000
0100
1000
,
0010
0000
1000
0000
0001
0000
0000
0100
0000
0000
0001
0000
1000
0000
0000
0100
,
0000
0000
1000
0000
0010
0000
0000
0100
0000
0000
0010
0000
1000
0000
0001
0000
,
0100
0000
0010
0000
1000
0000
0000
0100
0000
0000
1000
0000
0001
0000
0000
0100
,
0000
0000
0001
0000
0010
0000
0000
0100
0000
0000
0010
0000
0001
0000
1000
0000
,
0100
0000
0000
0000
0011
0000
0000
1100
0000
0000
0000
0000
1010
0000
0000
0101
,
0000
0000
0000
0000
0110
0000
0000
1001
0000
0000
0001
0000
0010
0000
0001
0000
,
0100
0000
0001
0000
1100
0000
0000
0101
0000
0000
0000
0000
0011
0000
0000
1010
,
0000
0000
0000
0000
0101
0000
0000
1100
0000
0000
0001
0000
0010
0000
0100
0000
,
1000
0000
0000
0000
;

//---------------dance-double - ----------------
#NOTES:
     dance-double:
     :
     Easy:
     2:
     0.246,0.302,0.045,0.000,0.000:
00000000
00000000
00000000
00000000
,
00000000
00000000
00000000
00000000
,
00000000
00000000
00000000
00000000
,
00000000
00000000
00000000
00000000
,
00000000
00000000
00000000
00000000
,
00000000
00000000
00000000
00000000
,
10000000
00000000
00000000
00000000
,
00010000
00000000
00000000
00000000
,
00001000
00000000
00000001
00000000
,
00000100
00000100
00000010
00000010
,
00001000
00000000
00000001
00000000
,
00000100
00001000
00011000
00000000
,
00010000
00000000
01000000
00000000
,
00100000
00010000
01000000
00000000
,
10000000
00000000
01000000
00000000
,
00010000
00010000
00001000
00001000
,
00000010
00000000
00000001
00000000
,
00000100
00001000
00000010
00000000
,
00001000
00000000
00010000
00000000
,
01000000
01000000
00100000
00100000
,
00010000
00000000
00001000
00000000
,
00000010
00000000
00000001
00000100
,
00000001
00000000
00001000
00000000
,
00010000
00000000
00100000
01000000
,
10000000
00000000
00100000
00000000
,
00010000
00000000
00001000
00000100
,
00000001
00000000
00001000
00000000
,
00010000
00000000
10010000
00000000
,
01000000
00000000
00100000
00000000
,
10000000
10000000
01000000
01000000
,
00010000
00000000
00001000
00000000
,
00000010
00000010
00000001
00000001
,
00000100
00000000
00001000
00000000
,
00010000
00010000
00100000
00100000
,
10000000
00000000
00010000
00000000
,
00001000
00001000
00000001
00000001
,
00000100
00000000
00000000
00000000
,
00001000
00000000
00010000
00000000
,
00100000
10000000
00000000
00000000
,
00010000
00000000
10000000
00000000
,
00100000
00000000
01000000
00000000
,
00010000
00000000
00001000
00000000
,
00000001
00000100
00000000
00000000
,
00000010
00001000
00010000
01000000
,
00000000
00010000
00100000
10000000
,
00000000
00100000
01000000
00010000
,
00000000
00001000
00000100
00000010
,
00000000
00000001
00000001
00001000
,
00001000
00010000
01000000
00100000
,
00000000
00010000
10000000
01000000
,
00000000
00010000
00001000
00000100
,
00000000
00000010
00000000
00000100
,
00000000
00000001
00000001
00000010
,
00000010
00000100
00000100
00001000
,
00010000
01000000
01000000
00100000
,
00100000
01000000
01000000
10010000
,
00000000
01000000
01000000
00010000
,
00010000
00001000
00001000
00000010
,
00000001
00001000
00001000
00000010
,
00000010
00000100
00000100
00001001
;

//---------------dance-double - ----------------
#NOTES:
     dance-double:
     :
     Medium:
     4:
     0.408,0.573,0.326,0.540,0.000:
00000000
00000000
00000000
00000000
,
00000000
00000000
00000000
00000000
,
00000000
00000000
00000000
00000000
,
00000000
00000000
00000000
00000000
,
00000000
00000000
00000000
00000000
,
00000000
00000000
00000000
00000000
,
00000001
00000000
00000000
00000000
,
00001000
00000000
00000000
00000000
,
00000001
00000000
00000010
00000000
,
00001000
00010000
00100000
10000000
,
00010000
00010000
10000000
10000000
,
01000000
00010000
00011000
00000000
,
00000010
00000001
00000100
00001000
,
00010000
00010000
00100000
00100000
,
10000000
01000000
00010000
00001000
,
00000100
00000100
00000001
00000001
,
00000010
00000100
00001000
00010000
,
01000000
01000000
00100000
00100000
,
10000000
00010000
00100000
01000000
,
00010000
00001000
00010000
00011000
,
00002020
00003030
00000202
00000303
,
00000022
00000000
00000033
00000000
00001000
00010000
00100000
00000000
,
20200000
30300000
00220000
00330000
,
22000000
00000000
33000000
00000000
00010000
00001000
00000010
00000000
,
00002002
00003003
00000220
00000330
,
00000202
00000000
00000303
00000000
00001000
00010000
00100000
00000000
,
22000000
33000000
02020000
03030000
,
02200000
03300000
10010000
00000000
,
10000000
10000000
01000000
01000000
,
00010000
00001000
00000010
00000001
,
00000100
00000100
00000010
00000010
,
00000100
00000001
00000010
00001000
,
00010000
00010000
00001000
00001000
,
00010000
01000000
10000000
00100000
,
01000000
01000000
00100000
00100000
,
00010000
00001000
00000010
00000001
,
00001001
00000000
00000000
00000000
,
00001000
00000000
00000010
00000000
,
00000001
00000100
00000000
00000000
,
00001000
00000000
00010000
00000000
,
00100000
00100000
01000000
01000000
,
00010000
00000000
00001000
00000000
,
00000010
00000100
00000000
00001000
,
00000001
00000100
00001000
00010000
,
00000000
01000000
10000000
00100000
,
00010000
00001000
00001000
00000100
,
00000100
00000001
00000010
00001000
,
00010000
00100000
00100000
10000000
,
10000000
01000000
00100000
00010000
,
00001000
00000010
00000010
00000100
,
00000100
00000001
00001000
00000100
,
00000010
00001000
00010000
00001000
,
00011000
02020000
03030000
20200000
,
30300000
00000000
22000000
00000000
33000000
00000000
00010000
00001000
,
00000100
00000202
00000303
00002200
,
00003300
00000000
00000022
00000000
00000033
00000000
00001000
00010000
,
00100000
20020000
30030000
02200000
,
03300000
00000000
20200000
00000000
30300000
00000000
01000000
00010000
,
00001000
00000022
00000033
00002020
,
00003030
00000000
00000220
00000000
00000330
00000000
00001000
00010000
,
00001000
00000000
00000000
00000000
;

//---------------dance-double - ----------------
#NOTES:
     dance-double:
     :
     Hard:
     8:
     0.435,0.472,0.000,0.000,0.135:
00000000
00000000
00000000
00000000
,
00000000
00000000
00000000
00000000
,
00000000
00000000
00000000
00000000
,
00000000
00000000
00000000
00000000
,
00000000
00000000
00000000
00000000
,
00000000
00000000
00000000
00000000
,
00001000
00000000
00000000
00000000
,
00010000
00000000
00000000
00000000
00000000
00000000
00000000
00100000
,
10000000
00000000
00000000
01000000
00010000
00000000
00000000
00001000
,
00000010
00000000
00000100
00000000
00010000
00000010
00001000
00000100
,
00010000
00100000
10000000
01000000
,
00100000
01000000
00100000
00000000
01000000
00010000
00000000
00000000
,
00001000
00000000
00000100
00000000
00000010
00000100
00001000
00000000
,
00000010
00000000
00000100
00000000
00000001
00000000
00000010
00001000
,
00010000
00000000
00100000
00000000
01000000
00100000
00010000
00000000
,
10000000
01000000
00010000
01000000
,
00100000
00000000
00010000
00000000
00001000
00000100
00000010
00000000
,
00001000
00000000
00000100
00000000
00000010
00000000
00000001
00000100
,
00001000
00000000
00010000
00000000
00100000
10000000
01000000
00000000
,
10000000
00000000
00010000
00000000
01000000
00100000
01000000
00000000
,
10000000
00000000
00000000
01000000
00000000
00000000
10000000
00000000
00010000
00000000
00000000
01000000
00000000
00000000
00010000
00000000
,
00100000
00000000
00000000
01000000
00000000
00000000
00100000
00000000
00010000
00000000
00001000
00000000
00000100
00000000
00000010
00000000
,
00000001
00000000
00000000
00000100
00000000
00000000
00000001
00000000
00001000
00000000
00000000
00000100
00000000
00000000
00001000
00000000
,
00000010
00000000
00000000
00000100
00000000
00000000
00000010
00000000
00001000
00000000
00010000
00000000
01000000
00000000
00000000
00000000
,
00100000
00000000
00000000
00100000
00000000
00000000
10000000
00000000
00010000
00000000
00000000
00010000
00000000
00000000
00100000
00000000
,
01000000
00000000
00000000
01000000
00000000
00000000
10000000
00000000
00100000
00000000
00010000
00000000
00001000
00000000
00000010
00000000
,
00000001
00000000
00000000
00000001
00000000
00000000
00000100
00000000
00000010
00000000
00000000
00000010
00000000
00000000
00000100
00000000
,
00000001
00000000
00000000
00000001
00000000
00000000
00000010
00000000
00000100
00000000
00001000
00000000
00010000
00000000
00000000
00000000
,
00100000
00100000
10000000
10000000
,
01000000
10000000
01000000
10000000
01000000
00010000
01000000
00010000
,
00001000
00001000
00000010
00000010
,
00000001
00000010
00000001
00000010
00000001
00000100
00000001
00000100
,
00001000
00001000
00010000
00010000
,
00100000
10000000
00100000
10000000
01000000
10000000
01000000
10000000
,
01000000
01000000
00010000
00010000
,
00001000
00000100
00001000
00000100
00000001
00000010
00000001
00000010
,
00000100
00000000
00000000
00000000
,
00001000
00000000
00000001
00000000
,
00000100
00000100
00000000
00000000
,
00001000
00000000
00010000
00000000
,
00100000
10000000
01000000
00100000
,
01000000
00000000
10000000
00100000
,
00010000
00010000
00000000
00001000
,
00000100
00000000
00000001
00000000
00000010
00000001
00000100
00001000
,
00000000
00000000
00010000
00000000
01000000
00000000
00100000
01000000
,
00010000
00100000
01000000
10000000
,
00100000
00010000
00001000
00000000
00000010
00000000
00000100
00000010
,
00001000
00000001
00000100
00001000
,
00000100
00000000
00000010
00000000
00001000
00000000
00010000
01000000
,
00100000
00010000
01000000
00100000
,
10000000
01000000
00010000
00000000
00001000
00000000
00000010
00000001
,
00000100
00000000
00000001
00000000
00001000
00000000
00000100
00000010
,
00000100
00000000
00000000
00000000
00000001
00000000
00000000
00000100
00000000
00000000
00000001
00000000
00001000
00000000
00000000
00000100
,
00000000
00000000
00001000
00000000
00000010
00000000
00000000
00000100
00000000
00000000
00000010
00000000
00001000
00000000
00010000
00000000
,
01000000
00000000
00100000
00000000
10000000
00000000
00000000
01000000
00000000
00000000
10000000
00000000
00010000
00000000
00000000
01000000
,
00000000
00000000
00010000
00000000
00100000
00000000
00000000
01000000
00000000
00000000
00100000
00000000
00010000
00000000
00001000
00000000
,
00000100
00000000
00000000
00000000
00000010
00000000
00000000
00000010
00000000
00000000
00000001
00000000
00001000
00000000
00000000
00001000
,
00000000
00000000
00000010
00000000
00000100
00000000
00000000
00000100
00000000
00000000
00000001
00000000
00000010
00000000
00001000
00000000
,
00010000
00000000
00100000
00000000
10000000
00000000
00000000
10000000
00000000
00000000
01000000
00000000
00100000
00000000
00000000
00100000
,
00000000
00000000
01000000
00000000
10000000
00000000
00000000
10000000
00000000
00000000
00100000
00000000
00010000
00000000
00001000
00000000
,
00000100
00000000
00000000
00000000
;

//---------------dance-double - ----------------
#NOTES:
     dance-double:
     :
     Challenge:
     9:
     0.694,0.709,0.214,0.169,0.349:
00000000
00000000
00000000
00000000
,
00000000
00000000
00000000
00000000
,
00000001
00000100
00000010
00001000
00000001
00000100
00000010
00001000
,
00010000
01000000
00100000
10000000
00010000
01000000
00100000
10000000
,
00100000
01000000
00010000
10000000
00100000
01000000
00010000
00001000
,
00000010
00000100
00000001
00001000
00000010
00000100
00000001
00001000
,
00000001
00000010
00000100
00001000
00000001
00000010
00000100
00001000
,
00010000
00100000
01000000
10000000
00010000
00100000
01000000
10000000
,
01000000
00100000
00010000
10000000
01000000
00100000
00010000
00001000
,
00000100
00000010
00000001
00001000
00000100
00000010
00000001
00001000
,
00000020
00000001
00001000
00010000
,
00001000
00000000
00001000
00000000
00000100
00000000
00000100
00000000
00000031
00000000
00000001
00000000
00000000
00000000
00000010
00001000
,
00000010
00000000
00000000
00000100
00000000
00000000
00000001
00000000
00001000
00000000
00000100
00000000
00010000
00000000
00000100
00000000
,
00001000
00000000
00000000
00000100
00000000
00000000
00000010
00000000
00000001
00000000
00000100
00000000
00000001
00000000
00000010
00000000
,
00001000
00000000
00000000
00010000
00000000
00000000
00100000
00000000
00010000
00000000
00001000
00000000
00010000
00000000
01000000
00000000
,
00010000
00000000
00000000
00001000
00000000
00000000
01000000
00000000
00100000
00000000
00000000
10000000
00000000
00000000
01000000
00010000
,
01000000
00000000
00000000
00100000
00000000
00000000
00001000
00000000
00010000
00000000
00100000
00000000
01000000
00000000
00100000
00000000
,
00010000
00000000
00000000
00001000
00000000
00000000
00000010
00000000
00000001
00000000
00000100
00000000
00000001
00000000
00001000
00000000
,
00000100
00000000
00000000
00000010
00000000
00000000
00001000
00000000
00010000
00000000
00001000
00000000
00100000
00000000
00010000
00000000
,
01000000
00000000
00000000
00001000
00000000
00000000
00100000
00000000
01000000
00000000
00001000
00000000
01000000
00000000
00010000
00000000
,
00001000
00000000
00000000
00011000
00000000
00000000
00000000
00000000
00000100
00000000
00000000
00000110
00000000
00000000
00000000
00000000
,
00000001
00000000
00000000
00001001
00000000
00000000
00000000
00000000
00000001
00000000
00000010
00000000
00000100
00000000
00001000
00000000
,
00010000
00000000
00000000
00011000
00000000
00000000
00000000
00000000
00100000
00000000
00000000
01100000
00000000
00000000
00000000
00000000
,
10000000
00000000
00000000
10010000
00000000
00000000
00000000
00000000
10000000
00000000
00100000
00000000
01000000
00000000
00010000
00000000
,
00001000
00000000
00000000
00011000
00000000
00000000
00000000
00000000
00000010
00000000
00000000
00000110
00000000
00000000
00000000
00000000
,
00001000
00000000
00000000
00001001
00000000
00000000
00000000
00000000
00000001
00000000
00000100
00000000
00000010
00000000
00001000
00000000
,
00010000
00000000
00000000
00011000
00000000
00000000
00000000
00000000
01000000
00000000
00000000
01100000
00000000
00000000
00000000
00000000
,
00010000
00000000
00000000
10010000
00000000
00000000
00000000
00000000
10000000
00000000
01000000
00000000
00100000
00010000
00000000
00000000
,
00001000
00001000
00001000
00001000
,
00000100
00000010
00000100
00000010
00000001
00001000
00000001
00001000
,
00000001
00000001
00000001
00000001
,
00000100
00001000
00000100
00001000
01000000
00100000
01000000
00100000
,
01000000
01000000
01000000
01000000
,
00100000
00010000
00100000
00010000
01000000
00010000
01000000
00010000
,
01000000
01000000
01000000
01000000
,
10000000
00010000
10000000
00010000
01000000
00100000
01000000
00100000
,
20000000
30200000
00320000
00032000
,
00003020
00000000
00000032
00000000
00000203
00000000
00001300
00010000
,
00200000
00000000
00000000
00300000
,
01100000
00000000
00000000
00000000
,
10000000
01000000
00010000
00001000
00000100
00000001
00000100
00001000
,
00010000
01000000
10000000
01000000
00010000
00001000
00000100
00000001
,
00000100
00001000
00010000
01000000
10000000
01000000
00010000
00001000
,
00000100
00000001
00000010
00001000
00010000
01000000
10000000
00100000
,
00000000
00000000
01000000
00010000
01000000
00000000
00100000
10000000
00000000
00000000
10000000
00000000
01000000
00000000
00001000
00000000
,
01000000
00000000
00100000
00000000
00010000
00000000
00000000
01000000
00000000
00000000
00100000
10000000
00100000
10000000
00100000
00000000
,
10000000
00000000
00100000
00000000
00010000
00000000
00001000
00010000
00000000
00000000
00000100
00001000
00000100
00000000
00000010
00000001
,
00000010
00000000
00000100
00010000
00000100
00000000
00001000
00000010
00000000
00000000
00000100
00000001
00000100
00000000
00000000
00000001
,
00000000
00000000
00000010
00000001
00000010
00000000
00000001
00001000
00000000
00000000
00000001
00000000
00000100
00000000
00010000
00000000
,
00000100
00000000
00000010
00000000
00001000
00000000
00000000
00000100
00000000
00000000
00000010
00000001
00000010
00000001
00000010
00000000
,
00000001
00000000
00000010
00000000
00001000
00000000
00010000
00001000
00000000
00000000
00100000
00010000
00100000
00000000
00001000
00100000
,
00001000
00000000
01000000
00010000
01000000
00000000
00001000
00010000
00000000
00000000
00001000
00100000
00010000
00000000
01000000
00000000
,
00100000
00000000
10000000
00000000
00010000
00000000
00000000
10010000
00000000
00000000
10000000
00000000
01000000
00000000
00000000
01010000
,
00000000
00000000
00010000
00000000
00001000
00000000
00000000
00011000
00000000
00000000
00001000
00000000
00000100
00000000
00000010
00000000
,
00001000
00000000
00000001
00000000
00000010
00000000
00000100
00002000
00000000
00000000
00003001
00000000
00000100
00000000
00000010
00002000
,
00000000
00000000
00003010
00000000
00000100
00000000
00001000
00020000
00000000
00000000
00031000
00010000
00000000
00000000
00000100
00000000
,
00000010
00000000
00001000
00000000
00010000
00000000
00000000
00011000
00000000
00000000
00001000
00000000
01000000
00000000
00000000
01100000
,
00000000
00000000
00100000
00000000
10000000
00000000
00000000
10010000
00000000
00000000
00010000
00000000
10000000
00000000
00100000
00000000
,
00010000
00000000
00001000
00000000
00000100
00000000
00000010
00002000
00000000
00000000
00003100
00000000
00000010
00000000
00001000
00020000
,
00000000
00000000
01030000
00000000
00100000
00000000
00010000
20000000
00000000
00000000
30100000
10000000
00100000
00000000
01000000
00000000
,
00001000
00010000
00000000
00000000
00000000
00000000
00000000
00000000
00000000
00000000
00000000
00000000
00000000
00000000
00000000
00000000
;

//---------------dance-single - ----------------
#NOTES:
     dance-single:
     :
     Challenge:
     9:
     0.692,0.709,0.146,0.169,0.354: // measure 1
0000
0000
0000
0000
,  // measure 2
0000
0000
0000
0000
,  // measure 3
0001
0010
0100
1000
0001
0010
0100
1000
,  // measure 4
0001
0010
0100
1000
0001
0010
0100
1000
,  // measure 5
0100
0001
1000
0010
0100
0001
1000
0010
,  // measure 6
0100
0001
1000
0010
0100
0001
1000
0010
,  // measure 7
1000
0100
0010
0001
1000
0100
0010
0001
,  // measure 8
1000
0100
0010
0001
1000
0100
0010
0001
,  // measure 9
0010
1000
0001
0100
0010
1000
0001
0100
,  // measure 10
0010
1000
0001
0100
0010
1000
0001
0100
,  // measure 11
0020
1000
0100
0001
,  // measure 12
0100
0000
0100
0000
1000
0000
1000
0000
0100
0000
0130
0000
0000
0000
0001
0100
,  // measure 13
0001
0000
0000
1000
0000
0000
0100
0000
0010
0000
0001
0000
0100
0000
0001
0000
,  // measure 14
1000
0000
0000
0001
0000
0000
0100
0000
1000
0000
0100
0000
0010
0000
1000
0000
,  // measure 15
0001
0000
0000
0100
0000
0000
0010
0000
1000
0000
0001
0000
0100
0000
0010
0000
,  // measure 16
1000
0000
0000
1000
0000
0000
0100
0000
0010
0000
0000
0010
0000
0000
0001
1000
,  // measure 17
0001
0000
0000
1000
0000
0000
0100
0000
0001
0000
0100
0000
0010
0000
0001
0000
,  // measure 18
0100
0000
0000
0010
0000
0000
1000
0000
0100
0000
1000
0000
0001
0000
0010
0000
,  // measure 19
0100
0000
0000
0001
0000
0000
0100
0000
0010
0000
0100
0000
1000
0000
0010
0000
,  // measure 20
0100
0000
0000
0001
0000
0000
0010
0000
0001
0000
1000
0000
0100
0000
0010
0000
,  // measure 21
0001
0000
0000
1001
0000
0000
0000
0000
1000
0000
0000
1001
0000
0000
0000
0000
,  // measure 22
0001
0000
0000
1001
0000
0000
0000
0000
1000
0000
0010
0000
0100
0000
0001
0000
,  // measure 23
1000
0000
0001
0010
0000
0000
0000
0000
1000
0000
0001
0010
0000
0000
0000
0000
,  // measure 24
1000
0000
0001
0010
0000
0000
0000
0000
0001
0000
0010
0000
0100
1000
0000
0000
,  // measure 25
0100
0000
0000
0110
0000
0000
0000
0000
0010
0000
0000
0110
0000
0000
0000
0000
,  // measure 26
0100
0000
0000
0110
0000
0000
0000
0000
0001
0000
0010
0000
0100
0000
1000
0000
,  // measure 27
0001
0000
1000
0010
0000
0000
0000
0000
0001
0000
1000
0010
0000
0000
0000
0000
,  // measure 28
0001
0000
1000
0010
0000
0000
0100
0010
0100
0000
0000
0000
0000
0000
0000
0000
,  // measure 29
0010
0010
0010
0010
,  // measure 30
1000
0100
1000
0100
0001
0100
0001
0100
,  // measure 31
0001
0001
0001
0001
,  // measure 32
0001
0010
0001
0010
1000
0010
1000
0010
,  // measure 33
1000
1000
1000
1000
,  // measure 34
1000
0100
1000
0100
0001
0100
0001
0100
,  // measure 35
0001
0001
0001
0001
,  // measure 36
0001
0010
0001
0010
1000
0010
1000
0010
,  // measure 37
2000
3002
0203
0320
,  // measure 38
2030
0000
3002
0000
0203
0000
0310
1000
,  // measure 39
0002
0000
0000
0003
,  // measure 40
1001
0000
0000
0000
,  // measure 41
1000
0100
0001
0100
1000
0100
0001
0100
,  // measure 42
1000
0010
0001
0010
1000
0010
0001
0010
,  // measure 43
1000
0001
0100
1000
0100
0001
0100
1000
,  // measure 44
0100
0001
0010
1000
0010
0001
0010
1000
,  // measure 45
0000
0000
0010
0001
0010
0000
0001
1000
0000
0000
0001
0000
0100
0000
1000
0000
,  // measure 46
0100
0000
0010
0000
1000
0000
0000
0001
0000
0000
1000
0010
1000
0010
1000
0000
,  // measure 47
0001
0000
0001
0000
0100
0000
0010
1000
0000
0000
0100
1000
0100
0000
0010
0100
,  // measure 48
0010
0000
0001
0010
0001
0000
1000
0010
0000
0000
0100
0001
0100
0000
0000
0010
,  // measure 49
0000
0000
1000
0001
1000
0000
0001
0010
0000
0000
0001
0000
0100
0000
1000
0000
,  // measure 50
0001
0000
0010
0000
1000
0000
0000
0100
0000
0000
0010
0001
0010
0001
0010
0000
,  // measure 51
0100
0000
0100
0000
1000
0000
0100
0010
0000
0000
0001
0010
0001
0000
0010
0100
,  // measure 52
0010
0000
0100
1000
0100
0000
1000
0010
0000
0000
0100
0001
1000
0000
0100
0000
,  // measure 53
0010
0000
0001
0000
1000
0000
0000
1100
0000
0000
0100
0000
0001
0000
0000
0101
,  // measure 54
0000
0000
0100
0000
0010
0000
0000
0011
0000
0000
0001
0000
0100
0000
0010
0000
,  // measure 55
1000
0000
0100
0000
0010
0000
0100
2000
0000
0000
3100
0000
0010
0000
0001
0200
,  // measure 56
0000
0000
0310
0000
1000
0000
0001
0020
0000
0000
0031
0010
0000
0000
0100
0000
,  // measure 57
1000
0000
0001
0000
0100
0000
0000
0110
0000
0000
0010
0000
1000
0000
0000
1100
,  // measure 58
0000
0000
0100
0000
0001
0000
0000
0101
0000
0000
0100
0000
1000
0000
0010
0000
,  // measure 59
0001
0000
0010
0000
0100
0000
0001
2000
0000
0000
3100
0000
0001
0000
1000
0200
,  // measure 60
0000
0000
0301
0000
1000
0000
0100
0002
0000
0000
1003
0100
1000
0000
0100
0000
,  // measure 61
0010
1000
0000
0000
0000
0000
0000
0000
0000
0000
0000
0000
0000
0000
0000
0000
;
