#TITLE:Balalaika, Carried With the Wind;
#SUBTITLE:Jondi&Spesh Mix;
#ARTIST:Julie Ann Frost;
#TITLETRANSLIT:;
#SUBTITLETRANSLIT:;
#ARTISTTRANSLIT:;
#CREDIT:;
#BANNER:Balalaika, Carried With the Wind Jondi&Spesh mix.png;
#BACKGROUND:Balalaika, Carried With the Wind Jondi&Spesh mix-bg.png;
#LYRICSPATH:;
#CDTITLE:./CDTITLES/DANCE DANCE REVOLUTION ULTRAMIX 3.PNG;
#MUSIC:Balalaika, Carried With the Wind Jondi&Spesh mix.ogg;
#OFFSET:0.000;
#SAMPLESTART:52.120;
#SAMPLELENGTH:15.000;
#SELECTABLE:YES;
#DISPLAYBPM:169.000;
#BPMS:0.000=169.980;
#STOPS:;
#BGCHANGES:;

//---------------dance-single - ----------------
#NOTES:
     dance-single:
     :
     Beginner:
     1:
     0.131,0.173,0.010,0.000,0.000:
0000
0000
0000
0000
,
0000
0000
0000
0000
,
0000
0000
0000
0000
,
0000
0000
0000
0000
,
0000
0000
0000
0000
,
1000
0000
0000
0000
,
0001
0000
0000
0000
,
1000
0000
0000
0000
,
0010
0000
0100
0000
,
0001
0000
0000
0000
,
1000
0000
0000
0000
,
0001
0000
0000
0000
,
0010
0000
0100
0000
,
1000
0000
0000
0000
,
0010
0000
0000
0000
,
0100
0000
0000
0000
,
0001
0000
0001
0000
,
0001
0000
0000
0000
,
0010
0000
0000
0000
,
0100
0000
0000
0000
,
1000
0000
1000
0000
,
1000
0000
0000
0000
,
0001
0000
0000
0000
,
1000
0000
0000
0000
,
0010
0000
0010
0000
,
0100
0000
0000
0000
,
0001
0000
0000
0000
,
1000
0000
0000
0000
,
0100
0000
0100
0000
,
0010
0000
0010
0000
,
0001
0000
0001
0000
,
0100
0000
0100
0000
,
0010
0000
0010
0000
,
1000
0000
0000
0000
,
0001
0000
0000
0000
,
1000
0000
0001
0000
,
1000
0000
0001
0000
,
0100
0000
0000
0000
,
0010
0000
0000
0000
,
1000
0000
0000
0000
,
0100
0000
0100
0000
,
0010
0000
0000
0000
,
0001
0000
0000
0000
,
0100
0000
0000
0000
,
0010
0000
0010
0000
,
1000
0000
0000
0000
,
0001
0000
0000
0000
,
0010
0000
0000
0000
,
0100
0000
0100
0000
,
1000
0000
0000
0000
,
0001
0000
0000
0000
,
0100
0000
0000
0000
,
0010
0000
0010
0000
,
1000
0000
1000
0000
,
1000
0000
1000
0000
,
0001
0000
0001
0000
,
0001
0000
0001
0000
,
0010
0000
0010
0000
,
0100
0000
0100
0000
,
1000
0000
0001
0000
,
1000
0000
0001
0000
,
1000
0000
0000
0000
,
0010
0000
0000
0000
,
0100
0000
0000
0000
,
0001
0000
0001
0000
,
0010
0000
0000
0000
,
0100
0000
0000
0000
,
1000
0000
0000
0000
,
0001
0000
0000
1001
;

//---------------dance-single - ----------------
#NOTES:
     dance-single:
     :
     Easy:
     3:
     0.235,0.312,0.050,0.161,0.000:
0000
0000
0000
0000
,
0000
0000
0000
0000
,
0000
0000
0000
0000
,
0000
0000
0000
0000
,
0000
0000
0000
0000
,
1000
0000
1000
0000
,
0001
0000
0001
0000
,
0010
0000
0010
0000
,
0002
0003
2000
3000
,
0001
0000
0001
0000
,
0100
0000
0100
0000
,
0010
0000
0010
0000
,
2000
3000
0002
0003
,
0010
0010
0010
0000
,
0100
0000
0100
0000
,
1000
1000
0001
0001
,
0200
0300
0020
0030
,
0100
0100
0100
0000
,
0010
0000
0010
0000
,
1000
1000
0001
0001
,
0020
0030
0200
0300
,
1000
0000
1000
0000
,
0001
0000
0001
0000
,
0010
0000
0100
0000
,
1000
0001
1000
0000
,
0001
0000
0001
0000
,
1000
0000
1000
0000
,
0010
0000
0100
0000
,
0001
1000
0001
0000
,
2000
0000
3000
0000
,
0002
0000
0003
0000
,
0200
0000
0300
0000
,
0020
0000
0030
0000
,
1000
0000
0100
0000
,
0010
0000
0001
0000
,
1000
0001
1000
0000
,
0001
0000
1000
0000
,
0001
0000
0001
0000
,
0010
0000
0010
0000
,
0100
0000
0100
0000
,
1000
1000
0001
0001
,
0100
0000
0100
0000
,
0010
0000
0010
0000
,
1000
0000
1000
0000
,
0100
0100
0010
0010
,
0001
0000
0001
0000
,
1000
0000
1000
0000
,
0010
0000
0010
0000
,
0100
0100
0010
0010
,
0110
0000
0000
0000
,
1001
0000
0000
0000
,
2000
3000
0002
0003
,
2002
3003
0000
1001
,
1000
0000
0010
0000
,
1000
0000
0010
0000
,
0100
0000
0001
0000
,
0100
0000
0001
0000
,
0010
0000
0010
0000
,
0100
0000
0100
0000
,
1000
0000
0001
1000
,
0001
0000
1000
0000
,
0001
0000
0001
0000
,
0010
0000
0010
0000
,
0100
0000
0100
0000
,
1000
1000
0001
0001
,
0100
0000
0100
0000
,
0010
0000
0010
0000
,
1000
0000
1000
0000
,
0001
1000
0001
1001
;

//---------------dance-single - ----------------
#NOTES:
     dance-single:
     :
     Medium:
     5:
     0.432,0.450,0.252,0.484,0.010:
0000
0000
0000
0000
,
0000
0000
0000
0000
,
0000
0000
0000
0000
,
0000
0000
0000
0000
,
0000
0000
0000
0000
,
0001
0000
0000
1000
0000
0100
1000
0001
,
0020
0000
0000
0100
0000
0001
0030
0000
,
1000
0000
0000
0001
0000
0100
0001
1000
,
0020
0000
0230
0000
,
0301
0000
0000
1000
0000
0010
1000
0001
,
0200
0000
0000
0010
0000
0001
0300
0000
,
1000
0000
0000
0001
0000
0010
0001
1000
,
0200
0000
0320
0000
,
0031
0000
0010
0001
0100
0000
0000
0000
,
0001
0001
1000
1000
,
1100
0001
0101
1000
,
1010
0110
0101
0000
,
1000
0000
0010
1000
0100
0000
0000
0000
,
1000
1000
0001
0001
,
0101
1000
1100
0001
,
0011
0110
1100
0000
,
2000
0000
3000
0010
0100
0000
0001
0000
,
2000
0000
3000
0100
0010
0000
0001
0000
,
1000
0001
0000
0010
0100
0000
1000
0000
,
0010
0100
0010
0000
,
0002
0000
0003
0010
0100
0000
1000
0000
,
0002
0000
0003
0100
0010
0000
1000
0000
,
0001
1000
0000
0010
0100
0000
0001
0000
,
0011
1001
1100
0000
,
0002
0000
2003
0000
,
3200
0000
0320
0000
,
2030
0000
3002
0000
,
0003
0020
0000
0000
0000
0000
0000
0000
0230
0000
0000
0000
0000
0000
0000
0000
,
0302
0000
0023
0000
,
2030
0000
3200
0000
,
0302
0000
2003
0000
,
3002
0000
2003
0000
,
3010
0100
0001
1000
,
1100
0001
0101
1000
,
0200
0310
0002
1003
,
0010
0100
0001
0000
1001
0000
0000
0000
,
0100
0010
1000
0001
,
0011
1000
1010
0001
,
0020
0130
2000
3001
,
0100
0010
1000
0000
1001
0000
0000
0000
,
0010
0100
0010
1000
,
1100
0010
0011
0001
,
0200
0301
2000
3010
,
0100
0001
1000
0000
1001
0000
0000
0000
,
1000
0010
1000
0010
,
0100
0001
0100
0001
,
0010
0100
1000
0001
,
1000
0001
1000
1001
,
2000
0000
3002
0000
,
0023
0000
0230
0000
,
0302
0000
2003
0000
,
3000
0200
0000
0000
0000
0000
0000
0000
0320
0000
0000
0000
0000
0000
0000
0000
,
2030
0000
3200
0000
,
0302
0000
0023
0000
,
2030
0001
3001
0100
,
0100
0010
0010
1001
,
1000
0000
0001
0010
0100
0000
0010
0000
,
0100
0000
0010
0100
2000
0000
0000
0000
,
3001
1000
0001
1000
,
0010
0000
0100
0001
0020
0000
0030
0000
,
0001
0000
1000
0100
0010
0000
0100
0000
,
0010
0000
0100
0010
0002
0000
0000
0000
,
1003
0001
1000
0001
,
0100
0000
0010
1000
0100
0000
1001
0000
;

//---------------dance-single - ----------------
#NOTES:
     dance-single:
     :
     Hard:
     6:
     0.471,0.485,0.171,0.353,0.035:
0000
0000
0000
0000
,
0000
0000
0000
0000
,
0000
0000
0000
0000
,
0000
0000
0000
0000
,
0000
0000
0000
0000
,
1000
0000
0000
0100
0000
0000
1000
0000
0000
0000
0001
0000
0100
0000
0002
0000
,
0000
0000
0000
0003
,
1000
0000
0000
0010
0000
0000
1000
0000
0000
0000
0001
0000
0010
0000
0001
0000
,
2000
0000
3002
0000
,
0013
0000
0000
0100
0000
0000
0010
0000
0000
0000
0001
0000
1000
0000
0002
0000
,
0000
0000
0000
0003
,
0100
0000
0000
0010
0000
0000
0100
0000
0000
0000
0001
0000
1000
0000
0001
0000
,
0020
0000
0230
0000
,
0310
0100
1000
0010
1000
0000
0001
0000
,
1000
0010
0100
0001
,
1000
0101
0001
1100
,
0001
0100
1000
0010
1000
0000
0000
0000
,
0010
0100
0001
0010
0001
0000
1000
0000
,
0001
0010
0100
1000
,
0001
1100
1000
0101
,
1000
0100
0001
0010
0001
0000
0000
0000
,
1000
0000
0000
0010
0100
0001
0100
1000
,
0100
0000
0000
0001
1000
0000
0100
0010
,
0001
1000
0000
0001
0100
0010
1000
0010
,
0100
0001
1000
0001
,
1000
0001
0000
0100
0010
1000
0010
0001
,
0010
0000
0000
1000
0001
0000
0010
0100
,
1000
0001
0000
1000
0010
0100
0001
0100
,
1010
1001
1100
0000
,
0010
0000
0000
0001
2000
0000
3002
0000
,
0203
0000
0320
0000
,
0130
0000
0000
0001
2000
0000
3200
0000
,
0320
0000
0230
0000
,
1300
0000
1100
0000
,
0001
0000
0101
0000
,
1000
0001
1000
0000
,
0101
0000
1100
0000
,
1000
1000
0001
1000
0001
0001
0100
0010
,
0100
0000
0001
0000
1000
0010
1000
0001
,
1000
0100
0100
1000
,
1000
0001
0010
0000
0001
0000
0000
0000
,
0001
0001
1000
0001
1000
1000
0100
0010
,
0100
0000
1000
0000
0001
0010
0001
1000
,
0001
0100
0100
0001
,
0001
1000
0010
0000
1000
0000
0000
0000
,
1000
1000
0010
0100
0001
0001
1000
0100
,
0010
0000
0001
0000
0100
0010
1000
0001
,
0100
0001
0001
1000
,
1000
0100
0001
0000
0100
0000
0000
0000
,
2000
3200
0320
0032
,
2003
3020
0230
0302
,
1003
0001
1000
0001
,
2000
0002
3003
1001
,
0010
0000
0000
1000
0200
0000
0302
0000
,
0023
0000
1030
0000
,
0010
0000
0000
0001
0200
0000
2300
0000
,
3020
0000
0031
0000
,
1100
0000
0011
0000
,
0101
0000
1010
0000
,
1000
0001
1000
2000
,
0001
3002
1000
1003
,
0001
0000
1000
0100
0001
0000
0000
0000
,
0100
1000
0010
0100
0020
0000
0000
0000
,
1030
0100
0010
0001
,
1000
0000
0001
0100
0020
0000
0030
0000
,
1000
0000
0000
0001
1000
0000
0100
0000
0010
0000
0000
0000
0000
0000
0000
0000
,
0001
1000
0001
1000
0001
0000
0100
0000
0020
0000
0000
0000
0000
0000
0000
0000
,
1030
0100
0010
0001
,
1000
0100
0010
0001
1000
0000
1001
0000
;

//---------------dance-double - ----------------
#NOTES:
     dance-double:
     :
     Beginner:
     1:
     0.122,0.173,0.010,0.000,0.000:
00000000
00000000
00000000
00000000
,
00000000
00000000
00000000
00000000
,
00000000
00000000
00000000
00000000
,
00000000
00000000
00000000
00000000
,
00000000
00000000
00000000
00000000
,
00010000
00000000
00000000
00000000
,
00001000
00000000
00000000
00000000
,
00000100
00000000
00000000
00000000
,
00000001
00000000
00000001
00000000
,
00000001
00000000
00000000
00000000
,
00000010
00000000
00000000
00000000
,
00001000
00000000
00000000
00000000
,
00010000
00000000
00010000
00000000
,
00010000
00000000
00000000
00000000
,
00100000
00000000
00000000
00000000
,
10000000
00000000
00000000
00000000
,
00010000
00000000
00010000
00000000
,
00010000
00000000
00000000
00000000
,
00100000
00000000
00000000
00000000
,
01000000
00000000
00000000
00000000
,
10000000
00000000
10000000
00000000
,
10000000
00000000
00000000
00000000
,
01000000
00000000
00000000
00000000
,
00010000
00000000
00000000
00000000
,
00001000
00000000
00001000
00000000
,
00010000
00000000
00000000
00000000
,
00001000
00000000
00000000
00000000
,
00000100
00000000
00000000
00000000
,
00000001
00000000
00000001
00000000
,
00000010
00000000
00000000
00000000
,
00000010
00000000
00000010
00000000
,
00001000
00000000
00000000
00000000
,
00001000
00000000
00001000
00000000
,
00010000
00000000
00000000
00000000
,
00001000
00000000
00000000
00000000
,
00010000
00000000
00001000
00000000
,
00010000
00000000
00001000
00000000
,
00010000
00000000
00000000
00000000
,
00100000
00000000
00000000
00000000
,
10000000
00000000
00000000
00000000
,
01000000
00000000
01000000
00000000
,
00010000
00000000
00000000
00000000
,
00001000
00000000
00000000
00000000
,
00010000
00000000
00000000
00000000
,
00001000
00000000
00001000
00000000
,
00000100
00000000
00000000
00000000
,
00000001
00000000
00000000
00000000
,
00000010
00000000
00000000
00000000
,
00000100
00000000
00000100
00000000
,
00001000
00000000
00000000
00000000
,
00000100
00000000
00000000
00000000
,
00010000
00000000
00000000
00000000
,
00001000
00000000
00000000
00000000
,
00010000
00000000
00010000
00000000
,
00010000
00000000
00000000
00000000
,
00001000
00000000
00001000
00000000
,
00001000
00000000
00000000
00000000
,
00010000
00000000
00010000
00000000
,
01000000
00000000
01000000
00000000
,
10000000
00000000
00010000
00000000
,
10000000
00000000
00000000
00000000
,
10000000
00000000
00000000
00000000
,
00100000
00000000
00000000
00000000
,
00010000
00000000
00000000
00000000
,
00001000
00000000
00001000
00000000
,
00010000
00000000
00000000
00000000
,
00001000
00000000
00000000
00000000
,
00000100
00000000
00000000
00000000
,
00000001
00000000
00000000
00001001
;

//---------------dance-double - ----------------
#NOTES:
     dance-double:
     :
     Easy:
     3:
     0.235,0.312,0.050,0.161,0.000:
00000000
00000000
00000000
00000000
,
00000000
00000000
00000000
00000000
,
00000000
00000000
00000000
00000000
,
00000000
00000000
00000000
00000000
,
00000000
00000000
00000000
00000000
,
10000000
00000000
10000000
00000000
,
00010000
00000000
00010000
00000000
,
00100000
00000000
00100000
00000000
,
00002000
00003000
00020000
00030000
,
00001000
00000000
00001000
00000000
,
00000100
00000000
00000100
00000000
,
00000001
00000000
00000001
00000000
,
00002000
00003000
00000002
00000003
,
00001000
00001000
00001000
00000000
,
00000100
00000000
00000100
00000000
,
00010000
00010000
00001000
00001000
,
00020000
00030000
00002000
00003000
,
00010000
00010000
00010000
00000000
,
01000000
00000000
01000000
00000000
,
10000000
10000000
00100000
00100000
,
00020000
00030000
00002000
00003000
,
00010000
00000000
00010000
00000000
,
00000100
00000000
00000100
00000000
,
00001000
00000000
00000001
00000000
,
00000100
00000010
00000100
00000000
,
00001000
00000000
00001000
00000000
,
00010000
00000000
00010000
00000000
,
01000000
00000000
10000000
00000000
,
00100000
01000000
00100000
00000000
,
00020000
00000000
00030000
00000000
,
00002000
00000000
00003000
00000000
,
00000200
00000000
00000300
00000000
,
00000002
00000000
00000003
00000000
,
00001000
00000000
00000100
00000000
,
00010000
00000000
00010000
00000000
,
00001000
00010000
00001000
00000000
,
00100000
00000000
00010000
00000000
,
10000000
00000000
10000000
00000000
,
00100000
00000000
00100000
00000000
,
00010000
00000000
00010000
00000000
,
00001000
00001000
00000100
00000100
,
00000001
00000000
00000010
00000000
,
00001000
00000000
00010000
00000000
,
01000000
00000000
10000000
00000000
,
01000000
01000000
00010000
00010000
,
00001000
00000000
00001000
00000000
,
00010000
00000000
00010000
00000000
,
00000100
00000000
00000100
00000000
,
00001000
00001000
00000001
00000001
,
00001001
00000000
00000000
00000000
,
00000110
00000000
00000000
00000000
,
00002000
00003000
00020000
00030000
,
00022000
00033000
00000000
00011000
,
00001000
00000000
00100000
00000000
,
00001000
00000000
00100000
00000000
,
00010000
00000000
01000000
00000000
,
00010000
00000000
01000000
00000000
,
00100000
00000000
00100000
00000000
,
10000000
00000000
10000000
00000000
,
01000000
00000000
00010000
00001000
,
00010000
00000000
00001000
00000000
,
00010000
00000000
00010000
00000000
,
00000100
00000000
00000100
00000000
,
00001000
00000000
00001000
00000000
,
00000010
00000010
00000100
00000100
,
00000001
00000000
00000100
00000000
,
00001000
00000000
00010000
00000000
,
01000000
00000000
10000000
00000000
,
00010000
10000000
00010000
10010000
;

//---------------dance-double - ----------------
#NOTES:
     dance-double:
     :
     Medium:
     5:
     0.427,0.450,0.222,0.484,0.000:
00000000
00000000
00000000
00000000
,
00000000
00000000
00000000
00000000
,
00000000
00000000
00000000
00000000
,
00000000
00000000
00000000
00000000
,
00000000
00000000
00000000
00000000
,
00010000
00000000
00000000
00001000
00000000
00100000
00010000
10000000
,
00020000
00000000
00000000
01000000
00000000
10000000
00030000
00000000
,
01000000
00000000
00000000
00010000
00000000
00100000
00010000
10000000
,
02000000
00000000
03020000
00000000
,
00031000
00000000
00000000
00010000
00000000
00000010
00001000
00000001
,
00002000
00000000
00000000
00000100
00000000
00000001
00003000
00000000
,
00000100
00000000
00000000
00001000
00000000
00000010
00001000
00000001
,
00000200
00000000
00002300
00000000
,
00013000
00000000
00001000
00010000
00001000
00000000
00000000
00000000
,
00010000
00010000
00001000
00001000
,
00101000
00100000
00110000
00010000
,
01010000
01100000
10100000
00000000
,
00100000
00000000
10000000
00010000
10000000
00000000
00000000
00000000
,
01000000
01000000
00010000
00010000
,
00011000
00001000
00001100
00000100
,
00000101
00001001
00000011
00000000
,
00000002
00000000
00000003
00000010
00000100
00000000
00001000
00000000
,
00000200
00000000
00000300
00010000
00001000
00000000
00010000
00000000
,
00001000
00100000
00000000
00010000
01000000
00000000
00100000
00000000
,
10000000
00010000
10000000
00000000
,
20000000
00000000
30000000
01000000
00100000
00000000
00010000
00000000
,
00200000
00000000
00300000
00001000
00010000
00000000
00001000
00000000
,
00010000
00000100
00000000
00001000
00000010
00000000
00000100
00000000
,
00000001
00001000
00000001
00000000
,
00000020
00000000
00002030
00000000
,
00023000
00000000
02030000
00000000
,
23000000
00000000
32000000
00000000
,
03020000
00000000
00032000
00000000
,
00003020
00000000
00000032
00000000
,
00000203
00000000
00002300
00000000
,
00023000
00000000
00230000
00000000
,
20300000
00000000
30200000
00000000
,
00310000
00001000
00000100
00001000
,
00011000
00010000
00011000
00001000
,
00000020
00000130
00002000
00003001
,
00000100
00000010
00000001
00000000
00001100
00000000
00000000
00000000
,
00001000
00010000
00100000
00010000
,
00011000
00001000
00011000
00010000
,
02000000
03100000
00020000
10030000
,
00100000
01000000
10000000
00000000
01010000
00000000
00000000
00000000
,
00010000
00100000
10000000
00100000
,
01100000
01000000
01100000
00100000
,
00002000
00013000
00000200
00001300
,
00000001
00001000
00000010
00000000
00000110
00000000
00000000
00000000
,
00000100
00000010
00000100
00000010
,
00001000
00000001
00001000
00000001
,
00001000
00000100
00010000
00001000
,
00010000
00001000
00010000
00011000
,
00002000
00000000
02003000
00000000
,
03200000
00000000
02300000
00000000
,
03002000
00000000
00023000
00000000
,
00030020
00000000
00000230
00000000
,
00000320
00000000
00020030
00000000
,
00032000
00000000
00023000
00000000
,
00032000
00010000
00013000
00001000
,
00001000
00010000
00001000
00011000
,
00010000
00000000
00100000
01000000
00010000
00000000
01000000
00000000
,
00010000
00000000
01000000
00010000
00200000
00000000
00300000
00000000
,
01000000
10000000
00100000
01000000
,
00100000
00000000
00010000
00001000
00020000
00000000
00030000
00000000
,
00001000
00000000
00000010
00000100
00001000
00000000
00000100
00000000
,
00001000
00000000
00000100
00001000
00000020
00000000
00000030
00000000
,
00000100
00000001
00000010
00000100
,
00000010
00000000
00001000
00010000
00001000
00000000
00011000
00000000
;

//---------------dance-double - ----------------
#NOTES:
     dance-double:
     :
     Hard:
     7:
     0.471,0.485,0.171,0.353,0.035:
00000000
00000000
00000000
00000000
,
00000000
00000000
00000000
00000000
,
00000000
00000000
00000000
00000000
,
00000000
00000000
00000000
00000000
,
00000000
00000000
00000000
00000000
,
00001000
00000000
00000000
00010000
00000000
00000000
00001000
00000000
00000000
00000000
00010000
00000000
01000000
00000000
20000000
00000000
,
00000000
00000000
00000000
30000000
,
10000000
00000000
00000000
01000000
00000000
00000000
10000000
00000000
00000000
00000000
00010000
00000000
01000000
00000000
00001000
00000000
,
00020000
00000000
00032000
00000000
,
00013000
00000000
00000000
00001000
00000000
00000000
00010000
00000000
00000000
00000000
00001000
00000000
00000100
00000000
00000002
00000000
,
00000000
00000000
00000000
00000003
,
00000001
00000000
00000000
00000100
00000000
00000000
00000001
00000000
00000000
00000000
00001000
00000000
00000100
00000000
00010000
00000000
,
00002000
00000000
00023000
00000000
,
00031000
00100000
00010000
10000000
00100000
00000000
01000000
00000000
,
00010000
00100000
01000000
00010000
,
01000000
11000000
00010000
10100000
,
01000000
00010000
00100000
00001000
00010000
00000000
00001000
00000000
,
00010000
00000100
00001000
00000001
00000100
00000000
00000010
00000000
,
00001000
00000100
00000010
00001000
,
00000010
00000011
00001000
00000101
,
00000010
00001000
00000100
00010000
00001000
00000000
00000000
00000000
,
00010000
00000000
00000000
01000000
10000000
00010000
00100000
01000000
,
00010000
00000000
00000000
01000000
10000000
00000000
00100000
00010000
,
00001000
00010000
00000000
00001000
00000100
00000010
00001000
00000100
,
00000010
00000001
00000100
00001000
,
00010000
00000000
00000000
00100000
10000000
00010000
01000000
00100000
,
00010000
00000000
00000000
00100000
10000000
00000000
01000000
00010000
,
00001000
00010000
00000000
00001000
00000010
00000100
00001000
00000010
,
00000101
00000110
00001100
00000000
,
00010000
00000000
00000000
00100000
20000000
00000000
32000000
00000000
,
03020000
00000000
00032000
00000000
,
00003010
00000000
00000000
00000001
00000200
00000000
00002300
00000000
,
00023000
00000000
02030000
00000000
,
13000000
00000000
11000000
00000000
,
00010000
00000000
01010000
00000000
,
10000000
01000000
00100000
00000000
,
00101000
00000000
00010100
00000000
,
00010000
00010000
00001000
00010000
00000100
00000100
00001000
00000001
,
00001000
00000000
00000001
00000000
00000100
00000010
00000100
00001000
,
00000100
00001000
00001000
00010000
,
00010000
00001000
00010000
00000000
00001000
00000000
00000000
00000000
,
00001000
00001000
00010000
00001000
00100000
00100000
00010000
10000000
,
00010000
00000000
10000000
00000000
00100000
01000000
00100000
00010000
,
00100000
00010000
00010000
00001000
,
00001000
00010000
00001000
00000000
00010000
00000000
00000000
00000000
,
00001000
00001000
00000100
00000010
00001000
00001000
00000001
00000010
,
00000100
00000000
00001000
00000000
00000100
00010000
00001000
00100000
,
00010000
01000000
00010000
10000000
,
00100000
00010000
00001000
00000000
00010000
00000000
00000000
00000000
,
00002000
00023000
00030200
00020300
,
00032000
00203000
00302000
00023000
,
00031000
00000100
00000001
00000010
,
00002000
00020000
00033000
00011000
,
00100000
00000000
00000000
10000000
02000000
00000000
03020000
00000000
,
00230000
00000000
00301000
00000000
,
00000010
00000000
00000000
00001000
00000200
00000000
00000302
00000000
,
00000023
00000000
00010030
00000000
,
00010100
00000000
00101000
00000000
,
00110000
00000000
00001100
00000000
,
00010000
00001000
00010000
02000000
,
10000000
23000000
00010000
30010000
,
10000000
00000000
10000000
01000000
00010000
00000000
00000000
00000000
,
00010000
00001000
00000100
00000001
00000020
00000000
00000000
00000000
,
00000031
00000100
00001000
00010000
,
01000000
00000000
10000000
01000000
00200000
00000000
00300000
00000000
,
01000000
00000000
00000000
00100000
00010000
00000000
00100000
00000000
00001000
00000000
00000000
00000000
00000000
00000000
00000000
00000000
,
00010000
00001000
00010000
00001000
00010000
00000000
00000100
00000000
00002000
00000000
00000000
00000000
00000000
00000000
00000000
00000000
,
00003001
00000100
00001000
00010000
,
01000000
10000000
00010000
01000000
00100000
00000000
01100000
00000000
;

//---------------dance-double - ----------------
#NOTES:
     dance-double:
     :
     Challenge:
     9:
     0.587,0.762,0.262,0.060,0.181:
00000000
00000000
00000000
00000000
,
00000000
00000000
00000000
00000000
,
00000000
00000000
00000000
00000000
,
00000000
00000000
00000000
00000000
,
00000000
00000000
00000000
00000000
00000000
00000000
00000000
00000001
,
00001000
00000000
00000000
00000010
00000000
00000010
00000000
00000000
,
00000100
00000000
00000000
00001000
00000000
00001000
00000000
00000000
,
00010000
00000000
00000000
00100000
00000000
00100000
00000000
00000000
,
01000000
00000000
00000000
10000000
00000000
00000000
00000000
01000000
,
00010000
00000000
00000000
10000000
00000000
10000000
00000000
00000000
,
01000000
00000000
00000000
00100000
00000000
00100000
00000000
00000000
,
00010000
00000000
00000000
00001000
00000000
00001000
00000000
00000000
,
00000100
00000000
00000000
00000010
00000000
00000000
00000000
00000001
,
00000100
00000000
00001010
00001000
00000100
00000000
00000011
00000001
,
00000100
00000000
00001010
00001000
00000100
00000000
00110000
00010000
,
01000000
00000000
10100000
10000000
01000000
00000000
11000000
01000000
,
00010000
00000000
11000000
01000000
00010000
00000000
11000000
01000000
,
00100000
00000000
00110000
00010000
01000000
00000000
10100000
10000000
,
01000000
00000000
00110000
00010000
01000000
00000000
00001010
00001000
,
00000100
00000000
00000011
00000001
00000100
00000000
00000101
00000100
,
00001000
00000000
00000101
00000100
00001000
00000000
00000101
00000100
,
00000010
00001000
00000001
00001000
00000010
00001000
00000001
00000100
,
00001000
00100000
00001000
00010000
00001000
00000100
00001000
00010000
,
01000000
00100000
00001000
00100000
01000000
00100000
10000000
00010000
,
01000000
10000000
01000000
00010000
01000000
10000000
01000000
00010000
,
00001000
00000010
00001000
00000010
00000001
00000100
00000010
00001000
,
00000100
00010000
00000100
00010000
00001000
00000100
00000001
00000100
,
00001000
00100000
00001000
00100000
01000000
00010000
01000000
10000000
,
10010000
00011000
00001001
00000000
,
00000100
00000000
01000000
00000000
,
10000000
00000000
00100000
00000000
,
00000010
00000000
00000001
00000000
,
00000100
00000100
00000100
00000100
,
00001000
00001000
00001000
00001000
,
00010000
00010000
00010000
00010000
,
00100000
00100000
00100000
00100000
,
10000000
00000000
10000000
01000000
00100000
00000000
00010000
01000000
,
00100000
00100000
10000000
01000000
00010000
01000000
00100000
00001000
,
00010000
00010000
01000000
10000000
00100000
00010000
10000000
01000000
,
00100000
00100000
00010000
00001000
00010000
00100000
10000000
01000000
,
00010000
00010000
00001000
00000010
00000100
00000000
00001001
00000000
,
00001000
00001000
00000100
00000001
00001000
00000010
00000001
00000100
,
00000010
00000010
00000100
00001000
00010000
00100000
10000000
01000000
,
00010000
00010000
01000000
10000000
00100000
00010000
00001000
00010000
,
00100000
00000000
01000000
00010000
01000000
00000000
00100000
10000000
00100000
00000000
00000000
00000000
10010000
00000000
00000000
00000000
,
00010000
01000000
00100000
10000000
01000000
00010000
00000100
00001000
,
00000001
00000010
00000100
00000001
00000100
00001000
00000001
00000100
,
00001000
00000000
01000000
00010000
01000000
00000000
00001000
00010000
00001000
00000000
00100000
00000000
00010000
00000000
01000000
00000000
,
00100000
00000000
00010000
00001000
00010000
00000000
00001000
00000100
00001000
00000000
00000000
00000000
00001100
00000000
00001000
00000000
,
00000200
00000302
00000023
00002030
,
00023000
00032000
00000000
00000000
,
00013000
00000000
00000000
00000000
00001000
00000000
00010000
00000000
00001000
00000000
00010000
00000100
00001000
00000000
00000010
00000000
,
00010000
00000000
00001000
01000000
00010000
00000000
00100000
00000000
00010000
00000000
00000000
00000000
MMMMMMMM
00000000
00000000
00000000
,
00001000
00000000
00000100
00000000
,
00000001
00000000
00000010
00000000
,
00001000
00000000
00010000
00000000
,
01000000
01000000
01000000
01000000
,
10000000
00000000
00100000
00010000
00100000
00000000
00010000
00001000
00010000
00000000
00001000
00000100
00001000
00000100
00001000
00000100
,
00001000
00000000
00000100
00000001
00000100
00000000
00000001
00000010
00000001
00000000
00000010
00001000
00000010
00001000
00000010
00001000
,
00000010
00000000
00000011
00000001
00000100
00000000
00001010
00001000
,
00000100
00000000
00110000
00010000
01000000
00000000
10100000
10000000
,
01000000
00000000
00000000
00010000
00001000
00000000
00000010
00000000
00000001
00000000
00000000
00000000
00000000
00000000
00000000
00000000
,
00000001
00000010
00000100
00001000
00000100
00000000
00000010
00000000
00000001
00000000
00000000
00000000
00000000
00000000
00000000
00000000
,
00000100
00000000
00000000
00000100
00001000
00000000
00000000
00001000
00010000
00000000
00000000
00010000
00100000
00000000
00000000
00100000
,
10000000
00000000
00000000
10000000
01000000
00000000
00100000
00001000
00010000
00000000
00000000
00000000
00000000
00000000
00000000
00000000
,
01000000
00000000
00000000
10000000
00100000
00000000
00010000
00000000
00001000
00000000
00000000
00000000
00000000
00000000
00000000
00000000
,
00001000
00010000
00100000
01000000
00100000
00000000
00010000
00000000
00001000
00000000
00000000
00000000
00000000
00000000
00000000
00000000
,
00001000
00000000
00000000
00000010
00000001
00000000
00000000
00000100
00001000
00000000
00000000
00010000
00100000
00000000
00000000
01000000
,
00010000
00000000
00000000
10000000
01000000
00000000
00000000
00010000
00001000
00000000
00000000
00000000
MMMMMMMM
00000000
00000000
00000000
;

//---------------dance-single - ----------------
#NOTES:
     dance-single:
     :
     Challenge:
     9:
     0.596,0.762,0.363,0.121,0.181:
0000
0000
0000
0000
,
0000
0000
0000
0000
,
0000
0000
0000
0000
,
0000
0000
0000
0000
,
0000
0000
0000
0000
0000
0000
0000
0001
,
1000
0000
0000
0010
0000
0010
0000
0000
,
0100
0000
0000
1000
0000
1000
0000
0000
,
0001
0000
0000
0010
0000
0010
0000
0000
,
0100
0000
0000
1000
0000
0000
0000
0100
,
0001
0000
0000
1000
0000
1000
0000
0000
,
0100
0000
0000
0010
0000
0010
0000
0000
,
0001
0000
0000
1000
0000
1000
0000
0000
,
0100
0000
0000
0010
0000
0000
0000
0001
,
0100
0000
1010
1000
0100
0000
0011
0001
,
0100
0000
1010
1000
0100
0000
0011
0001
,
0100
0000
1010
1000
0100
0000
1100
0100
,
0001
0000
0101
0001
0010
0000
0011
0010
,
1000
0000
1010
1000
0100
0000
0011
0001
,
0100
0000
1010
1000
0100
0000
0011
0001
,
0100
0000
0101
0100
1000
0000
1100
1000
,
0010
0000
1010
0010
0001
0000
0011
0010
,
0001
0100
0010
1000
0100
0010
0100
1000
,
0001
0100
0010
1000
0001
1000
0010
0100
,
0001
1000
0010
0100
1000
0100
0001
1000
,
1100
0101
1001
0110
,
0100
1000
0001
0100
0010
1000
0001
0100
,
0010
0100
0001
0010
0100
1000
0100
0010
,
1000
0010
0001
1000
0001
0100
1000
0100
,
1100
0011
0110
1001
,
1000
0000
0100
0001
,
0101
0000
0100
0000
,
0010
0000
0001
0100
,
1000
0000
1001
0000
,
0110
0000
1000
0010
,
0001
0000
1000
0000
,
1001
0000
1000
0010
,
0001
0000
1001
0000
,
0010
0010
1000
0100
0001
0100
0010
1000
,
0001
0001
0100
1000
0010
0001
1000
0100
,
0010
0010
0001
1000
0001
0010
1000
0100
,
0001
0001
1000
0010
0100
0000
1001
0000
,
1000
1000
0100
0001
0100
1000
0100
0010
,
0001
0001
0100
1000
0100
0001
0100
0010
,
1000
1000
0100
0001
0100
1000
0010
0100
,
1000
0000
0100
0001
0100
0000
0010
1000
0010
0000
0000
0000
1001
0000
0000
0000
,
0001
0100
0010
1000
0100
0010
0001
0010
,
1000
0001
0100
1000
0010
0100
1000
0001
,
0010
0000
1000
0001
1000
0000
0100
0010
0100
0000
0010
0000
0001
0000
0100
0000
,
0010
0000
1000
0001
1000
0000
0010
0100
0010
0000
0000
0000
1100
0000
1000
0000
,
0200
2300
3200
2300
,
3200
0320
0000
0000
,
0031
0000
0000
0000
1000
0000
0001
0000
1000
0000
0001
0100
0010
0000
1000
0000
,
0001
0000
1000
0100
0010
0000
0001
0000
1000
0000
0000
0000
MMMM
0000
0000
0000
,
0020
0000
2030
0000
,
3200
0000
2300
0000
,
3002
0000
2003
0000
,
3001
0001
0001
0001
,
0001
0000
0010
0001
0010
0000
0001
1000
0001
0000
1000
0100
1000
0100
1000
0100
,
1000
0000
0001
1000
0001
0000
0100
0001
0100
0000
0010
0100
0010
0100
0010
0100
,
0010
0000
1010
1000
0100
0000
0011
0001
,
0100
0000
1010
1000
0100
0000
0011
0001
,
0100
0000
0000
0001
1000
0000
0100
0000
0010
0000
0000
0000
0000
0000
0000
0000
,
0001
0010
0100
1000
0100
0000
0010
0000
0001
0000
0000
0000
0000
0000
0000
0000
,
1000
0000
0000
1000
0100
0000
0000
0100
0001
0000
0000
0001
0100
0000
0000
0100
,
0010
0000
0000
0010
0001
0000
1000
0010
0100
0000
0000
0000
0000
0000
0000
0000
,
0100
0000
0000
0010
1000
0000
0100
0000
0010
0000
0000
0000
0000
0000
0000
0000
,
0010
0100
1000
0010
0100
0000
0010
0000
1000
0000
0000
0000
0000
0000
0000
0000
,
0001
0000
0000
0001
0100
0000
0000
0100
1000
0000
0000
1000
0100
0000
0000
0100
,
0010
0000
0000
0010
1000
0000
0001
1000
0001
0000
0000
0000
MMMM
0000
0000
0000
;
