#TITLE:BABY BABY GIMME YOUR LOVE;
#SUBTITLE:;
#ARTIST:DIVAS;
#TITLETRANSLIT:;
#SUBTITLETRANSLIT:;
#ARTISTTRANSLIT:;
#CREDIT:;
#BANNER:BABY BABY GIMME YOUR LOVE.png;
#BACKGROUND:BABY BABY GIMME YOUR LOVE-bg.png;
#LYRICSPATH:;
#CDTITLE:Dance Dance Revolution 4th Mix.png;
#MUSIC:BABY BABY GIMME YOUR LOVE.mp3;
#OFFSET:-0.048;
#SAMPLESTART:49.390;
#SAMPLELENGTH:15.000;
#SELECTABLE:YES;
#DISPLAYBPM:96.000;
#BPMS:0.000=96.010;
#STOPS:;
#BGCHANGES:;

//---------------dance-single - ----------------
#NOTES:
     dance-single:
     :
     Easy:
     1:
     0.093,0.097,0.000,0.000,0.000:
0000
0000
0000
0000
,
0000
0000
0000
0000
,
0000
0000
0000
0000
,
1000
0000
1000
0000
,
0100
0000
0100
0000
,
0001
0000
0001
0000
,
1000
0000
1000
0000
,
0100
0000
0010
0000
,
0010
0000
0100
0000
,
0100
0000
1000
0000
,
1000
0000
0100
0000
,
0010
0000
0010
0000
,
1000
0000
0001
0000
,
1000
0000
0001
0000
,
0001
0000
1000
0000
,
1000
0000
0100
0000
,
0010
0000
0100
0000
,
0010
0000
0100
0000
,
0001
0000
0100
0000
,
1000
0000
0100
0000
,
0010
0000
0010
0000
,
0100
0000
0000
0000
,
1000
0000
1000
0000
,
0100
0000
0000
0000
,
0001
0000
0010
0000
,
0001
0000
0000
0000
,
1000
0000
0010
0000
,
1000
0000
0010
0000
,
0010
0000
0000
0000
,
0000
0000
0000
0000
,
0100
0000
0001
0000
,
0001
0000
0000
0000
,
0001
0000
1000
0000
,
1000
0000
0001
0000
,
0010
0000
0100
0000
,
0010
0000
0001
0000
,
0001
0000
0001
0000
,
0100
0000
0000
0000
;

//---------------dance-single - ----------------
#NOTES:
     dance-single:
     :
     Medium:
     3:
     0.165,0.175,0.000,0.000,0.000:
0000
0000
0000
0000
,
0000
0000
0000
0000
,
0000
0000
0000
0000
,
0000
0100
0100
0100
,
1000
0100
1000
0100
,
0100
0001
0001
0001
,
0100
0010
0100
0010
,
0010
1000
1000
1000
,
0100
1000
0001
0100
,
0100
0001
0001
0001
,
0010
0100
0100
0010
,
1000
0001
0001
1000
,
1000
0000
0100
0000
,
0001
0000
0100
0000
,
0100
0001
0100
1000
,
0100
0001
0100
0100
,
1000
1000
0001
0001
,
1000
0001
1000
1000
,
0100
0001
0100
1000
,
0100
0100
0100
0000
,
0010
0000
0000
0000
0010
0000
0000
0010
,
0010
0000
0000
0000
,
1000
0000
0000
0000
1000
0000
0000
1000
,
0001
0000
0000
0000
,
0010
0000
0000
0000
0100
0000
0000
0001
,
0100
0000
0000
0000
,
1000
0000
0000
0000
0010
0000
0000
1000
,
0100
0001
0001
0001
,
1000
0000
0100
0000
,
0100
0000
1000
0000
,
1000
0000
0000
0000
0010
0000
0000
0100
,
0100
0000
0000
0000
,
0001
0001
0001
0100
,
1000
1000
1000
0010
,
0100
0100
0010
0010
,
1000
0100
0001
0100
,
0010
0010
0100
0100
,
0010
0000
0000
0000
;

//---------------dance-single - ----------------
#NOTES:
     dance-single:
     :
     Hard:
     6:
     0.249,0.272,0.032,0.000,0.011:
0000
0000
0000
0000
,
0000
0000
0000
0000
,
0000
0000
0000
0000
,
0000
0000
0001
0000
0100
0010
0100
1000
,
0001
0000
0001
0000
1000
0100
1000
0000
,
1100
0000
0000
0000
0001
1000
0100
0000
,
0010
0001
0010
0000
1000
0100
1000
0000
,
0001
0000
0001
0000
1000
0001
0100
0000
,
0101
0000
1000
0000
1000
0100
0010
0000
,
0011
0000
0000
0000
0001
0000
0001
0010
,
1000
0000
1000
0000
0001
0010
0100
0000
,
1000
0000
1000
0000
0001
1000
0100
0000
,
0001
0001
0000
0000
1000
1000
0000
0000
,
1000
1000
0000
0000
0001
0001
0000
0000
,
0010
0100
0010
0000
0001
0100
0001
0000
,
1000
0100
1000
0000
0001
1000
0001
0000
,
1000
0000
0100
0000
0010
0001
0010
0000
,
0001
0000
0100
0000
0010
1000
0010
0000
,
0001
1000
0100
0000
1000
0001
0100
0000
,
1000
0100
0001
0001
0100
1000
1000
0000
,
0010
0100
0001
0000
0001
1000
0100
0000
,
1000
1000
0100
0000
0000
0000
0000
0000
,
0010
1000
0001
0000
0001
1000
0010
0000
,
0100
0100
0001
0000
1000
0000
1000
0000
,
0001
0001
0000
0000
1000
1000
0000
0000
,
1000
0100
0000
0000
0001
0000
0001
0000
,
1000
0010
0100
0000
0001
0100
0001
0000
,
1000
0100
1000
0000
0001
0100
0100
0000
,
1000
0000
0100
0000
,
0001
0000
0100
0000
,
1000
0000
0000
0000
1000
0000
0000
0100
,
1000
0000
0000
0000
,
0001
0010
0001
0000
0100
0100
0100
0000
,
1000
0100
1000
0000
0001
0001
0001
0000
,
0000
1000
0100
0000
0000
0001
0010
0000
,
0000
0001
0001
0001
0000
1000
1000
0001
,
0000
0000
0001
0000
0000
0000
0001
0000
0000
0001
0000
0000
0010
0010
0000
0000
,
0010
0000
0000
0000
;

//---------------dance-double - ----------------
#NOTES:
     dance-double:
     :
     Easy:
     2:
     0.120,0.155,0.000,0.000,0.000:
00000000
00000000
00000000
00000000
,
00000000
00000000
00000000
00000000
,
00000000
00000000
00000000
00000000
,
00000000
10000000
00000000
10000000
,
00000000
01000000
00000000
00010000
,
00010000
00000000
00001000
00000000
,
00001000
00000000
00000010
00000000
,
00000010
00000000
00000001
00000010
,
00000010
00000000
00000010
00000000
,
00000010
00000000
00000100
00000000
,
00000100
00000000
00000001
00000000
,
00000100
00000000
00000100
00001000
,
00010000
00000000
00010000
00000000
,
00100000
00000000
00100000
00000000
,
10000000
00100000
00100000
00000000
,
10000000
01000000
01000000
00010000
,
00001000
00000010
00000000
00000000
,
00000010
00000000
00000010
00000000
,
00000001
00000010
00000010
00000000
,
00000001
00000100
00000100
00000000
,
00001000
00000000
00100000
00000000
,
00100000
00000000
01000000
00000000
,
10000000
00000000
10000000
00000000
,
01000000
00000000
00100000
00000000
,
00100000
00000000
00010000
00000000
,
00001000
00000000
00000001
00000000
,
00000010
00000000
00000010
00000000
,
00000001
00000000
00000100
00000000
,
00000100
00000000
00000010
00000000
,
00000100
00000000
00000010
00000000
,
00000100
00000000
00000010
00000000
,
00000001
00000000
00000001
00000000
,
00000100
00000100
00000001
00000000
,
00000010
00000010
00001000
00000000
,
00010000
00010000
00100000
00000000
,
10000000
10000000
01000000
00000000
,
00010000
00000000
00010000
00000000
,
00001000
00000000
00000000
00000000
;

//---------------dance-double - ----------------
#NOTES:
     dance-double:
     :
     Medium:
     4:
     0.171,0.194,0.074,0.000,0.000:
00000000
00000000
00000000
00000000
,
00000000
00000000
00000000
00000000
,
00000000
00000000
00000000
00000000
,
00000000
10000000
01000000
01000000
,
00010000
00010000
00001000
00001000
,
00010000
00000000
00000010
00000010
,
00000001
00000000
00000100
00000100
,
00000010
00000000
00000100
00001000
,
00011000
00010000
00100000
00100000
,
00100000
00000000
10000000
01000000
,
01000000
00000000
01000000
10000000
,
10000000
00000000
10000000
00100000
,
01100000
00010000
01000000
01000000
,
10000000
01000000
00100000
01000000
,
00010000
00010000
00001000
00001000
,
00000010
00000010
00000001
00001000
,
00000010
00000010
00000100
00000001
,
00001000
00001000
00000010
00001000
,
00010000
00010000
00100000
00100000
,
00010000
00010000
00100000
00000000
,
00110000
00000000
00000000
00000000
00010000
00000000
00000000
01000000
,
01000000
00000000
00000000
00000000
,
01010000
00000000
00000000
00000000
01000000
00000000
00000000
10000000
,
10000000
00000000
00000000
00000000
,
10100000
00000000
00000000
00000000
00100000
00000000
00000000
00010000
,
00010000
00000000
00000000
00000000
,
00001000
00000000
00000000
00000000
00000010
00000000
00000000
00000001
,
00000001
00000100
00000100
00000100
,
00000000
00000000
00000100
00000000
,
00000100
00000000
00000001
00000000
,
00000110
00000000
00000000
00000000
00000001
00000000
00000000
00001000
,
00001100
00000000
00000000
00000000
,
00000001
00000001
00000001
00000100
,
00000010
00000010
00000010
00001000
,
00010000
00010000
00100000
00100000
,
01000000
10000000
00010000
01000000
,
00010000
00010000
00010000
01000000
,
01000000
00000000
00000000
00000000
;

//---------------dance-double - ----------------
#NOTES:
     dance-double:
     :
     Hard:
     6:
     0.275,0.330,0.074,0.000,0.000:
00000000
00000000
00000000
00000000
,
00000000
00000000
00000000
00000000
,
00000000
00000000
00000000
00000000
,
10000000
00000000
00010000
00000000
,
00001000
00000100
00000010
00000001
00001000
00000100
00000010
00000001
,
00001000
00000100
00000010
00000001
00010000
00000100
00001000
00000100
,
00010000
00000100
00001000
00000100
00010000
00000100
00001000
00000100
,
00001000
00000100
00000010
00000001
00001000
00001000
00000000
00000000
,
00010000
01000000
00010000
01000000
00100000
10000000
00010000
01000000
,
00001000
01000000
00010000
01000000
00100000
10000000
00010000
01000000
,
00010000
01000000
00100000
10000000
00010000
01000000
00100000
10000000
,
01000000
01000000
01000000
00000000
01000000
00000000
00000000
00000000
,
00100000
00000000
00001000
00000000
,
00000010
00000000
00000001
00000000
,
00000001
00000100
00000001
00001000
00000010
00001000
00000010
00010000
,
00001000
00010000
00001000
00010000
00100000
00100000
01000000
01000000
,
00010000
00000000
00010000
00000000
,
00001000
00000000
00000001
00000000
,
00010000
00001000
00010000
00001000
00100000
00001000
00100000
00010000
,
10000000
00010000
10000000
00010000
01000000
01000000
01000000
00000000
,
00001000
00000000
01000000
00000000
,
00001000
00000000
00000000
00000000
,
10000000
01000000
10000000
01000000
00100000
00000000
00100000
00000000
,
01000000
00100000
01000000
00100000
00010000
00000000
00010000
00000000
,
00100000
00001000
00010000
00001000
00001000
00010000
00001000
00000000
,
00000001
00001000
00000001
00000001
00001000
00000000
00100000
00000000
,
10000000
00010000
10000000
00000000
00001000
00000000
00001000
00000000
,
00011000
00011000
00011000
00000010
,
00100000
00000000
00000000
00000000
,
00000100
00000000
00000000
00000000
,
10000000
10000000
10000000
01000000
00010000
00010000
00010000
00000000
,
00001000
00001000
00001000
00000000
00000001
00000000
00000001
00000000
,
00000100
00001000
00000001
00000000
00001100
00000000
00001100
00000000
,
01000000
00010000
10000000
00000000
00011000
00000000
00011000
00000000
,
00010000
00001000
00010000
00000000
10000000
00010000
10000000
00000000
,
00001000
00010000
00001000
00000000
00010000
00000000
00001000
00000000
,
00000001
00001000
00010000
10000000
,
00010000
00000000
00000000
00000000
;

//---------------dance-single - ----------------
#NOTES:
     dance-single:
     :
     Beginner:
     1:
     0.084,0.117,0.042,0.000,0.000:
0000
0000
0000
0000
,
0000
0000
0000
0000
,
0000
0000
0000
0000
,
1000
0000
0000
0000
,
1000
0000
0100
0000
,
1000
0000
0100
0000
,
0100
0000
0000
0000
,
0100
0000
0000
0000
,
0001
0000
0100
0000
,
0001
0000
0100
0000
,
0100
0000
0000
0000
,
0100
0000
0000
0000
,
1001
0000
0000
0000
,
0100
0000
0100
0000
,
1001
0000
0000
0000
,
1000
0000
1000
0000
,
1001
0000
0000
0000
,
1000
0000
0001
0000
,
1001
0000
0000
0000
,
0001
0000
0001
0000
,
0001
0000
0000
0000
,
0001
0001
0000
0000
,
1000
0000
0000
0000
,
1000
1000
0000
0000
,
0001
0000
0000
0000
,
0010
0010
0000
0000
,
1000
0000
0000
0000
,
0010
0010
0000
0000
,
0100
0000
0000
0000
,
0100
0000
0000
0000
,
1000
0000
0000
0000
,
0001
0000
0000
0000
,
1000
0000
0100
0000
,
0001
0000
0100
0000
,
1000
0000
0001
0000
,
1000
0000
0001
0000
,
1000
0000
0001
0000
,
0100
0000
0000
0000
;

//---------------dance-couple - ----------------
#NOTES:
     dance-couple:
     :
     Medium:
     4:
     0.438,0.680,1.000,0.000,0.000:
00000000
00000000
00000000
00000000
,
00000000
00000000
00000000
00000000
,
00000000
00000000
00000000
00000000
,
00000000
01000100
00010001
01000100
,
01000000
00000000
01000001
00000000
10001000
00000000
01000100
00100000
,
01000100
00000000
00000000
00000000
00010000
00000000
10000000
00010000
,
01000010
00000000
00010010
00000000
10000000
00010000
10000000
00000000
,
00010000
00010000
00100010
00010001
,
00100010
00000000
00010100
00000000
10001000
00000000
01000100
00000010
,
01000100
00000000
00001000
00000000
00000001
00000000
00001000
00000001
,
00100100
00000000
00100001
00000000
00001000
00000001
00001000
00000000
,
00000001
00000001
01000100
01000100
,
10000010
00010000
00010000
00000000
10000001
00001000
00001000
00000000
,
01000001
10000000
10000000
00000000
00100100
00000001
00000001
00000000
,
01000010
00100000
01000000
00000000
01000100
00000010
00000100
00000000
,
10001000
01000100
00010001
01000100
,
00100000
01000000
00000010
00000100
,
00010000
01000000
00000001
00000100
,
00000010
00100000
00001000
00010000
,
01000010
10001000
10001000
00000000
,
11000101
10000001
01000100
00000000
01011100
00011000
01000100
00000000
,
10011001
10011001
10011001
00000000
01000100
00000000
01000100
00000000
,
00100011
00000010
00000010
00000000
10101000
00100000
00100000
00000000
,
10011001
00100010
01000100
00000000
10000001
00000000
10000001
00000000
,
01100110
00011000
00011000
00000000
01100110
01000100
01000100
00000000
,
10000001
00011000
01000100
00000000
00011000
00000000
01000100
00000000
,
01100110
00000001
00000001
00000000
10011001
01000000
01000000
00000000
,
10011001
00100010
10001000
01000100
,
10000001
01000100
00011000
01000100
,
10000001
10000001
00100010
01000100
,
10000001
10000001
10000001
10000001
,
01000100
00100000
00000010
01000100
,
00100010
10000001
00100010
00000000
00011000
10000001
01000100
00000000
,
00101000
10000100
00101000
00000000
10001000
00010001
01000100
00000000
,
00000000
10000000
01000000
00000000
00000000
00000001
00000100
00000000
,
00000000
01000010
00100100
00100100
00000000
10000001
00100010
00011000
,
00000000
00011000
00000000
00011000
00000000
00011000
00000000
00000000
,
01100110
00000000
00000000
00000000
;

//---------------dance-solo - ----------------
#NOTES:
     dance-solo:
     :
     Easy:
     1:
     0.090,0.095,0.000,0.000,0.000:
000000
000000
000000
000000
,
000000
000000
000000
000000
,
000000
000000
000000
000000
,
100000
000000
100000
000000
,
001000
000000
001000
000000
,
000001
000000
000001
000000
,
100000
000000
100000
000000
,
010000
000000
010000
000000
,
000010
000000
001000
000000
,
001000
000000
100000
000000
,
100000
000000
000010
000000
,
000010
000000
100000
000000
,
100000
000000
000001
000000
,
000001
000000
100000
000000
,
100000
000000
001000
000000
,
000100
000000
001000
000000
,
000100
000000
001000
000000
,
000001
000000
001000
000000
,
100000
000000
001000
000000
,
000010
000000
000010
000000
,
000100
000000
000000
000000
,
010000
000000
010000
000000
,
000001
000000
000000
000000
,
000010
000000
010000
000000
,
100000
000000
000000
000000
,
010000
000000
000010
000000
,
000100
000000
000100
000000
,
000100
000000
000000
000000
,
000000
000000
000000
000000
,
100000
000000
001000
000000
,
001000
000000
000000
000000
,
000001
000000
100000
000000
,
100000
000000
000001
000000
,
000100
000000
001000
000000
,
000100
000000
000001
000000
,
000001
000000
000001
000000
,
001000
000000
000000
000000
;

//---------------dance-solo - ----------------
#NOTES:
     dance-solo:
     :
     Medium:
     3:
     0.146,0.175,0.000,0.000,0.000:
000000
000000
000000
000000
,
000000
000000
000000
000000
,
000000
000000
000000
000000
,
000000
000001
001000
000001
,
100000
100000
100000
000010
,
000010
000000
100000
001000
,
001000
000000
000001
001000
,
001000
000000
000010
010000
,
010000
000000
000001
000001
,
010000
000000
100000
001000
,
100000
000000
000001
000100
,
000001
000000
010000
010000
,
100000
000000
100000
000000
,
000001
000000
000001
000000
,
010000
000000
010000
000000
,
000010
000000
000100
000100
,
100000
100000
000001
000001
,
100000
000001
100000
100000
,
001000
000001
001000
100000
,
001000
001000
001000
000000
,
000100
000000
000000
000000
000100
000000
000000
000010
,
000010
000000
000000
000000
,
100000
000000
000000
000000
100000
000000
000000
000010
,
000010
000000
000000
000000
,
000100
000000
000000
000000
001000
000000
000000
000010
,
010000
000000
000000
000000
,
100000
000000
000000
000000
000100
000000
000000
010000
,
000010
000001
000001
000001
,
100000
000000
000000
000000
,
000000
000000
000000
000000
,
100000
000000
000000
000000
000100
000000
000000
100000
,
001000
000000
000000
000000
,
000001
000001
000001
001000
,
100000
100000
100000
000100
,
001000
001000
000100
000100
,
100000
001000
000001
001000
,
000100
001000
000100
010000
,
010000
000000
000000
000000
;

//---------------dance-solo - ----------------
#NOTES:
     dance-solo:
     :
     Hard:
     5:
     0.248,0.272,0.032,0.000,0.011:
000000
000000
000000
000000
,
000000
000000
000000
000000
,
000000
000000
000000
000000
,
000000
000000
000001
000000
001000
000100
001000
000000
,
000001
000000
000001
000000
100000
001000
100000
000000
,
101000
000000
000000
000000
001000
100000
001000
000000
,
000100
000001
000100
000000
000010
100000
000010
000000
,
010000
000001
010000
000000
000100
000000
000100
000000
,
010100
000000
100000
000000
100000
001000
000100
000000
,
000110
000000
000000
000000
000001
000000
000001
000100
,
001000
000000
100000
000000
000001
000100
001000
000000
,
010000
000000
010000
000000
000001
100000
001000
000000
,
000010
000010
000000
000000
010000
010000
000000
000000
,
000010
001000
000000
000000
010000
001000
000000
000000
,
000100
001000
000100
000000
000001
001000
000001
000000
,
010000
001000
010000
000000
000010
001000
000010
000000
,
100000
000000
001000
000000
000100
000010
000100
000000
,
000001
000000
001000
000000
000100
010000
000100
000000
,
000001
010000
001000
000000
100000
000010
001000
000000
,
100000
001000
000001
000001
001000
100000
100000
000000
,
000100
001000
000001
000000
000001
100000
001000
000000
,
100000
100000
001000
000000
000000
000000
000000
000000
,
000010
100000
000001
000000
010000
000001
001000
000000
,
001000
001000
000001
000000
100000
000000
100000
000000
,
000010
000010
000000
000000
010000
010000
000000
000000
,
100000
001000
000000
000000
000010
000000
000010
000000
,
100000
000100
001000
000000
000001
001000
000001
000000
,
100000
001000
100000
000000
000001
001000
001000
000000
,
100000
000000
001000
000000
,
000001
000000
001000
000000
,
100000
000000
000000
000000
100000
000000
000000
001000
,
100000
000000
000000
000000
,
000010
000100
000010
000000
001000
001000
001000
000000
,
010000
001000
010000
000000
000001
000001
000001
000000
,
000000
010000
001000
000000
000000
000010
000100
000000
,
000000
000001
000001
000001
000000
100000
100000
000001
,
000000
000000
000001
000000
000000
000000
000001
000000
000000
000001
000000
000000
000100
000100
000000
000000
,
000100
000000
000000
000000
;

//---------------dance-single - ----------------
#NOTES:
     dance-single:
     :
     Challenge:
     9:
     0.513,0.571,0.273,0.147,0.557:
0000
0000
0000
0000
,
0000
0000
0000
0000
,
0100
0000
1001
0000
1001
0000
0000
0000
0100
0000
0001
1000
0010
0000
0000
0000
,
0110
0000
0110
0000
0000
0000
0000
0000
0001
0000
0000
0001
0000
0000
0001
0000
,
0100
0000
0010
0010
0000
1000
0000
0100
0000
0010
0000
0000
0000
0000
0000
0000
,
0001
0000
2000
0000
0000
0000
0000
3000
0010
0000
0010
0100
0000
0001
0000
1000
,
0000
0000
0100
0100
0000
0000
0010
0000
0001
0000
0100
0001
0000
1000
0000
1001
,
0000
0000
0001
0000
0010
0000
0100
0000
0001
0000
0100
0000
0010
1000
0010
0001
,
1000
0000
1002
0000
0000
0100
0000
0100
0000
0103
0000
0000
0000
0000
0000
0000
,
1000
0000
0220
0000
0330
0000
0000
0000
0010
0000
0010
1000
0000
0001
0000
0100
,
0000
0000
1001
0000
0100
0000
0001
0000
0010
0000
0010
0100
0000
2000
0000
0002
,
0000
3003
0100
0000
0001
0000
1000
0000
0200
0000
0000
0000
0320
0000
0000
0000
,
0031
0000
0100
0000
0001
0000
1000
0100
0000
0000
1000
0000
0010
0000
1000
0000
,
0100
0000
0010
0000
0001
0000
0100
0002
0000
0000
0000
0013
0000
0010
0100
0000
,
1000
0000
0001
0100
0000
0000
0001
0000
1000
0000
0100
1000
0000
0000
0010
0000
,
0100
0000
0001
1000
0000
0000
0100
0000
1000
0000
0001
0000
0100
0000
1000
0000
,
0100
0010
1000
1000
0001
0010
0010
0100
,
2000
0000
0000
0001
0000
0000
0020
0000
0000
0000
3030
0000
0000
0100
0001
1000
,
0100
0010
1100
0001
0100
0001
0110
1000
,
0100
0000
1000
0000
0010
0000
0100
0000
0001
1000
0100
0010
0001
0100
0010
1000
,
0100
0010
0001
0100
0000
0000
0010
0000
0010
0000
1000
0001
0000
0000
0010
0000
,
0010
0000
0100
1000
0000
0000
0001
0000
0000
0010
0010
0010
0000
0000
0100
1000
,
0010
0100
0001
1000
0000
0000
0001
0000
1000
0000
1000
0010
0000
0010
0100
0000
,
0001
0000
1000
0100
0000
0000
2000
0000
0000
0010
0000
0000
3010
0000
0100
0001
,
1000
0100
0010
0001
0000
0000
0010
0000
0100
0000
1000
0001
0000
0000
0010
0000
,
0001
0000
0100
0010
0000
0000
1000
0000
0000
1100
0000
0000
0101
0000
0000
0000
,
0001
0100
1000
0001
0000
0000
0100
0000
0010
0000
1000
0100
0000
0010
0001
0000
,
1001
0000
1001
0000
0000
0000
0000
0000
0100
0000
0000
0100
0000
0000
0100
0000
,
0110
0000
0010
1000
0100
0001
0100
1000
0000
0010
0100
0001
0010
1000
0010
0001
,
0000
1000
0010
0001
0010
0000
0010
1000
0100
0000
0100
0010
0001
1000
0100
1001
,
0000
0001
0010
0000
0100
0000
1000
0000
0010
0100
0001
1000
0100
1000
0100
0000
,
0110
0000
0010
0001
0100
0000
0100
0001
0010
0000
0010
0001
1000
0100
1000
0010
,
0110
0000
0001
1000
0100
0000
1000
0010
0100
0001
1000
0100
0010
0001
0100
0000
,
1001
0000
0010
1000
0100
1000
0001
0100
0010
0000
1000
0001
0000
0001
0000
0001
,
0110
0000
0100
1000
0001
0100
0000
0000
0110
0000
0100
1000
0001
0100
0000
0000
,
0110
0000
0100
1000
0001
0000
1000
0010
0000
0100
0000
0010
0000
0100
0000
0010
,
0000
0100
1000
0000
1001
0000
1010
0000
1100
0000
0100
0000
0202
0000
0000
0000
,
0000
0000
0303
0000
;

//---------------dance-double - ----------------
#NOTES:
     dance-double:
     :
     Challenge:
     9:
     0.581,0.567,0.284,0.095,0.783: // measure 1
00000000
00000000
00000000
00000000
,  // measure 2
00000000
00000000
00000000
00000000
,  // measure 3
00000000
00000000
11000000
00000000
11000000
00000000
00000000
00000000
00000000
00100000
00010000
01000000
00010000
10000000
00000000
00000000
,  // measure 4
00110000
00000000
00110000
00000000
00000000
00000000
00000000
00000000
00001000
00000000
00000000
00001000
00000000
00000000
00001000
00000000
,  // measure 5
00010000
00001000
00100000
00010000
00000000
00010000
10000000
01000000
00000000
01000000
10000000
00100000
00000000
01000000
00010000
00100000
,  // measure 6
00001000
00010000
00000100
00001000
00000000
00001000
00000100
00000010
00000000
00000010
00000001
00000100
00000000
00000001
00000100
00000010
,  // measure 7
00001000
00000100
00010000
00001000
00000000
00001000
00010000
00000010
00000000
00000010
00000100
00000001
00000000
00000100
00001000
00010000
,  // measure 8
00100000
10000000
00010000
01000000
00000000
01000000
00100000
01000000
00010000
00100000
01000000
00000000
00000000
00000000
00000000
00000000
,  // measure 9
01000000
10000000
00100000
00010000
00000000
00010000
00001000
00000100
00000000
00000100
00001000
00010000
00000000
00001000
00010000
00000010
,  // measure 10
00001000
00000100
00000010
00000001
00000000
00000001
00000100
00001000
00000000
00001000
00010000
01000000
00000000
00100000
01000000
10000000
,  // measure 11
00010000
01000000
00100000
00010000
00000000
00010000
00001000
00000100
00000000
00000100
00000010
00001000
00000000
00000001
00000100
00001000
,  // measure 12
00010000
01000000
10000000
00010000
00000000
00010000
10000000
00100000
00000000
01000000
00100000
10000000
00010000
00100000
00001000
00010000
,  // measure 13
00001000
00000000
00000100
00000000
00000010
00000000
00001000
00000001
00000000
00000001
00000000
00000100
00000001
00000000
00000010
00000000
,  // measure 14
00001000
00000000
00010000
00000000
00001000
00000000
01000000
00010000
00000000
00010000
00000000
00010000
10000000
01000000
00100000
00010000
,  // measure 15
01000000
00000000
00100000
01000000
00000000
00000000
00010000
00000000
10000000
00000000
00100000
01000000
00000000
00000000
00010000
00000000
,  // measure 16
00100000
00000000
01000000
10000000
00000000
00000000
00100000
00000000
01000000
00000000
00001000
00000000
00010000
00000000
00100000
00000000
,  // measure 17
10010000
00100000
01000000
00010000
00001000
00000010
00000001
00001000
,  // measure 18
00000002
00000000
00000000
00000000
00000000
00000000
00000103
00000001
00000000
00000000
00000000
00000000
00000000
00001000
00000010
00000100
,  // measure 19
00000001
00000100
00001100
00001000
00010000
01000000
01010000
00010000
,  // measure 20
01000000
00000000
10000000
00000000
00100000
00000000
00010000
00000000
00100000
10000000
00100000
10000000
01000000
00010000
01000000
00010000
,  // measure 21
00001000
00000010
00000001
00000100
00000000
00000000
00001001
00000000
00000001
00000000
00000010
00001000
00000000
00000000
00010000
00000000
,  // measure 22
01000000
00000000
00100000
01000000
00000000
00000000
11000000
00000000
00000000
00010000
00010000
00010000
00000000
00000000
10000000
00100000
,  // measure 23
01000000
00001000
00100000
00010000
00000000
00000000
10010000
00000000
10000000
00000000
01000000
00010000
00000000
00001000
00000010
00000000
,  // measure 24
00000001
00000000
00000100
00000010
00000000
00000000
00000100
00000000
00000000
00001000
00000000
00000000
00011000
00000000
00001000
01000000
,  // measure 25
00010000
00100000
01000000
10000000
00000000
00000000
01100000
00000000
01000000
00000000
00010000
00100000
00000000
00001000
00100000
00000000
,  // measure 26
01000000
00000000
00100000
00001000
00000000
00010000
00000200
00000000
00000000
00000320
00000000
00000000
00000032
00000000
00000000
00000003
,  // measure 27
00001000
00000010
00000100
00000001
00000000
00000000
00001001
00000000
00001000
00000000
00000100
00010000
00000000
00001000
01000000
00000000
,  // measure 28
00200000
00320000
00032000
00003100
,  // measure 29
00000101
00000000
00001001
00000000
00000001
00000100
00001000
00100000
00000000
00010000
10000000
00100000
00010000
00001000
00000100
00000001
,  // measure 30
00000000
00001000
00000010
00010000
00000010
00000000
00010000
00000010
00010000
00000000
00001000
00010000
01000000
10000000
00010000
10010000
,  // measure 31
00000000
00000000
01100000
00000000
01100000
00000000
00100000
00000000
00010000
00001000
00000100
00000001
00000010
00000001
00000100
00000000
,  // measure 32
00001001
00000000
00000100
00010000
00000010
00000000
00000010
00010000
00001000
00000000
00001000
01000000
00100000
01000000
00010000
00100000
,  // measure 33
01010000
00000000
00001000
01000000
00100000
00000000
01000000
00001000
00011000
00000000
00010000
00000010
00000100
00000001
00001001
00000000
,  // measure 34
00000110
00000000
00000010
00001000
00010000
01000000
10000000
00100000
01000000
00000000
00010000
00100000
00000000
00100000
00000000
00000000
,  // measure 35
00011000
00000000
00000010
00010000
00001000
00010000
00000000
00000000
00011000
00000000
00100000
00001000
00010000
00001000
00000000
00000000
,  // measure 36
00011000
00000000
00001000
00000100
00000001
00000000
00000010
00001000
00000000
00000001
00000000
00000100
00000000
00010000
00000000
00000100
,  // measure 37
00000000
00010000
00001000
00000000
01000000
00000000
00100000
00000000
10000000
01000000
00100000
00000000
20020000
00000000
00000000
00000000
,  // measure 38
00000000
30030000
00000000
00000000
;
