#TITLE:바꿔;
#SUBTITLE:;
#ARTIST:이정현;
#TITLETRANSLIT:BA KKWO;
#SUBTITLETRANSLIT:;
#ARTISTTRANSLIT:LEE JUNG HYUN;
#CREDIT:;
#BANNER:BA KKWO.png;
#BACKGROUND:BA KKWO-bg.png;
#LYRICSPATH:;
#CDTITLE:./CDTITLES/KOREAN DANCE MUSIC.png;
#MUSIC:BA KKWO.mp3;
#OFFSET:0.719;
#SAMPLESTART:62.458;
#SAMPLELENGTH:15.000;
#SELECTABLE:YES;
#DISPLAYBPM:140.000;
#BPMS:0.000=140.000,54.000=138.000,56.000=140.000,72.000=141.000,74.000=140.000,100.000=141.000,102.000=140.000,146.000=141.000,148.000=140.000;
#STOPS:;
#BGCHANGES:;

//---------------dance-single - ----------------
#NOTES:
     dance-single:
     :
     Beginner:
     1:
     0.165,0.195,0.000,0.000,0.000:
0000
0000
0000
0000
,
0000
0000
0000
0000
,
0000
0000
0000
0000
,
0000
0000
0000
0000
,
0000
0000
0000
0000
,
0001
0001
0001
0000
,
1000
1000
1000
0000
,
0010
0000
0010
0000
,
0010
0000
0010
0000
,
1000
1000
1000
0000
,
0001
0001
0001
0000
,
1000
0000
0001
0000
,
1000
0000
0001
0000
,
1000
0000
0010
0000
,
1000
0000
0010
0000
,
0001
0000
0010
0000
,
0001
0000
0010
0000
,
1000
0000
0001
0000
,
1000
0000
0001
0000
,
1000
0000
0100
0000
,
0001
0000
0100
0000
,
1000
1000
1000
0000
,
0001
0001
0001
0000
,
1000
0000
0001
0000
,
0010
0010
0010
0000
,
0001
0000
1000
0000
,
0001
0000
1000
0000
,
0001
0000
0100
0000
,
1000
0000
0100
0000
,
0001
0001
0001
0000
,
1000
1000
1000
0000
,
0010
0000
0001
0000
,
1000
0000
0100
0000
,
0001
0000
1000
0000
,
0100
0000
0100
0000
,
0001
0000
0100
0000
,
1000
1000
1000
1000
,
0001
0000
0001
0000
,
0001
0000
0100
0000
,
0010
0000
0010
0000
,
0010
0000
1000
0000
,
0100
0000
0100
0000
,
0100
0000
0001
0000
,
0010
0000
0010
0000
,
0010
0000
0100
0000
,
1000
0000
1000
0000
,
1000
0000
0001
0000
,
0010
0000
1000
0000
,
0001
0000
0100
0000
,
0001
0000
1000
0000
,
0100
0000
0010
0000
,
0001
0000
1000
0000
,
0100
0100
0010
0001
,
0100
0000
0000
0000
;

//---------------dance-single - ----------------
#NOTES:
     dance-single:
     :
     Easy:
     4:
     0.356,0.418,0.610,0.000,0.000:
0000
0000
0000
0000
,
0000
0000
0000
0000
,
0000
0000
0000
0000
,
0000
0000
0000
0000
,
0000
0000
0000
0000
,
0001
0001
1001
0100
,
1000
1000
1001
0100
,
0010
0010
0010
0010
,
0010
0010
1001
1001
,
1000
1000
0101
0100
,
0001
0001
1100
0100
,
1000
1000
0001
0001
,
1000
0001
1001
1001
,
1000
0010
0010
0010
,
0001
0010
0010
0010
,
1000
0010
0010
0010
,
0001
0010
0010
0010
,
1000
0100
0001
0100
,
1000
0010
0001
0010
,
1000
1000
0100
0100
,
0001
0001
0100
0100
,
1001
0100
1000
0100
,
0001
0001
0001
0100
,
1001
0100
0001
0100
,
1000
1000
1000
0100
,
0001
0100
1000
0100
,
0001
0001
1000
0100
,
0001
0001
0100
0100
,
1000
1000
0100
0100
,
1001
0001
0001
0100
,
1001
1000
1000
0100
,
0010
0010
0001
0001
,
1000
1000
0100
0100
,
0101
0101
1000
0100
,
1100
1100
0001
0100
,
1000
1000
0001
0100
,
1001
1001
1001
1001
,
0101
0000
1100
0000
,
0101
0000
1100
1100
,
1001
0000
1100
0000
,
1001
0000
1100
1100
,
1001
0000
1010
0000
,
1001
0000
1001
0110
,
1010
0000
1100
0000
,
1010
0000
0011
0101
,
1001
0100
0110
0001
,
1001
0010
0110
1001
,
0110
1000
0110
0001
,
0110
1000
0110
1001
,
0001
1100
0001
1100
,
0001
1100
1001
0101
,
0000
0101
0000
0101
,
0100
0100
0010
0001
,
1001
0000
0000
0000
;

//---------------dance-single - ----------------
#NOTES:
     dance-single:
     :
     Medium:
     6:
     0.441,0.613,0.862,0.000,0.000:
0000
0000
0000
0000
,
0000
0000
0000
0000
,
0000
0000
0000
0000
,
0000
0000
0000
0000
,
0000
0000
0000
0000
,
0010
0010
1001
1100
,
0010
0010
1001
0101
,
0010
0001
0010
1000
,
0010
0010
1001
1001
,
1000
0001
1000
0001
0100
0000
1001
0000
,
0001
1000
0001
1000
0100
0000
1001
0000
,
1001
0100
1001
0010
,
1000
0001
1001
0101
,
1000
0000
0010
0000
0010
1000
0100
0000
,
1001
0010
0101
0101
,
0001
0000
0010
0000
0010
0001
0100
0000
,
1001
0010
1100
1100
,
1000
0100
0001
0100
,
1000
0000
0010
0000
0001
1000
0100
0000
,
1001
0000
0100
0000
0010
1000
0100
0000
,
1001
0000
0100
0000
0001
0100
0001
0000
,
1001
0000
0100
0000
1000
1000
1000
0000
,
1001
0000
0100
0000
0001
0001
0001
0000
,
1001
0000
0100
0000
1000
0100
0100
0000
,
1001
0000
0100
0000
0001
0100
0100
0000
,
0001
0100
1000
0100
,
0001
0001
1000
0100
,
1001
0100
1010
1100
,
1001
0100
0011
0101
,
0110
0000
0001
0000
1000
0100
0100
0000
,
0110
0000
1000
0000
0001
0100
0100
0000
,
0010
0000
0010
0000
1000
0100
1000
0000
,
0010
0000
0010
0000
0001
0100
0001
0000
,
0101
0101
1000
0100
,
1100
1100
0001
0100
,
1001
0100
0100
0100
,
1001
1001
1001
1001
1001
1001
1001
0000
,
0101
1000
1100
0001
,
0101
1000
1100
1100
,
1001
0100
1100
0001
,
1001
0100
1100
1100
,
1001
0010
1010
0100
,
1001
0100
1001
0110
,
1010
0001
0101
0010
,
1010
0001
0011
0011
,
1001
0000
0000
0100
0110
0000
0000
0001
,
1001
0000
0110
1001
,
0110
0000
0000
1000
1100
0000
0000
0001
,
0011
0000
0110
1001
,
0001
1100
0010
1100
,
0001
1100
1001
0101
,
1000
0101
0010
0101
,
0100
0000
0100
0000
0010
1000
0100
0000
,
1001
0000
0000
0000
;

//---------------dance-single - ----------------
#NOTES:
     dance-single:
     :
     Hard:
     7:
     0.386,0.418,0.021,0.000,0.032:
0000
0000
0000
0000
,
0000
0000
0000
0000
,
0000
0000
0000
0000
,
0000
0000
0000
0000
,
0000
0000
0000
0000
,
0001
0000
0001
0000
0001
1000
0100
0000
,
1000
0000
1000
0000
1000
0001
0100
0000
,
0010
0010
0010
0010
,
0010
0000
0010
0000
1000
0100
1000
0100
,
1000
0000
1000
0000
1000
0001
0100
0000
,
0001
0000
0001
0000
0001
1000
0100
0000
,
1000
1000
0001
0001
,
1000
0001
1000
0001
1000
0001
0001
0000
,
1000
0000
0010
0000
0100
0001
0010
0100
,
1000
0000
0000
0010
0000
0000
0100
0000
0000
0000
0001
0000
0001
0000
0000
0000
,
0001
0000
0010
0000
0100
1000
0010
0100
,
0001
0000
0000
0010
0000
0000
0100
0000
0000
0000
1000
0000
1000
0000
0000
0000
,
1000
0100
0001
0100
,
1000
0100
0001
0100
,
1000
0001
0000
1000
0010
0100
0001
0000
,
1000
0000
0001
0000
0000
0000
1000
0100
1000
0000
0001
0000
0100
0000
0000
0000
,
1000
0000
0010
0000
0100
0001
0010
0100
,
1000
0000
0000
0010
0000
0000
0100
0000
0000
0000
0001
0000
0001
0000
0000
0000
,
0001
0000
0010
0000
0100
1000
0010
0100
,
0001
0000
0000
0010
0000
0000
0100
0000
0000
0000
1000
0000
1000
0000
0000
0000
,
1000
0100
0001
0100
,
1000
0100
0001
0100
,
0001
1000
0000
0001
0010
0100
1000
0000
,
0001
0000
1000
0000
0000
0000
0001
0100
0001
0000
1000
0000
0100
0000
0000
0000
,
0001
0000
0001
0000
0001
1000
0100
0010
,
0100
1000
0001
0100
0010
0100
0001
0000
,
0010
0000
0010
1000
0001
1000
0100
0010
,
0100
1000
0001
0100
0010
0100
0001
0000
,
1000
0100
0001
0100
,
1000
0100
0001
0100
,
1001
0000
0000
0000
0000
0000
0000
0001
,
1000
0001
1000
0001
1000
0001
1000
0001
,
0100
0000
0000
0100
1000
0000
0000
0100
,
0010
0000
0000
0001
1000
0010
0100
0001
,
0100
0000
0000
0100
0010
0000
0000
0100
,
1000
0000
0000
0100
0001
1000
0100
0010
,
0001
0000
0000
0100
0010
0000
0000
0100
,
0001
0000
0000
0100
1000
0001
0100
0010
,
1000
0000
0000
0001
0010
0000
0000
0100
,
0010
0000
0000
1000
0100
0010
0001
0001
,
0100
0000
0000
1000
0100
0000
0000
0001
,
0100
0000
0000
0010
1000
0100
0100
0001
,
0100
0000
0000
1000
0100
0000
0000
0001
,
0100
0000
0000
1000
0001
1000
0100
0001
,
0100
0000
0000
1000
0100
0000
0000
0001
,
0100
0000
0000
0010
0100
0001
1000
0100
,
0010
0000
0000
0100
0010
0000
0000
1000
,
0001
0100
0001
0010
0100
1000
0100
0010
,
1001
0000
0000
0000
;

//---------------dance-single - [VER.KOREA / Single----------------
#NOTES:
     dance-single:
     [VER.KOREA / Single:
     Edit:
     4:
     0.281,0.306,0.032,0.000,0.000:
0000
0000
0000
0000
,
0000
0000
0000
0000
,
0000
0000
0000
0000
,
0000
0000
0000
0000
,
0000
0000
0000
0000
,
0001
0001
0001
0100
,
1000
1000
1000
0100
,
0010
0010
0010
0010
,
0010
0010
1001
1001
,
1000
1000
1000
0100
,
0001
0001
0001
0100
,
1000
1000
0001
0001
,
1000
0001
1000
0001
,
1000
0010
0010
0010
,
0001
0010
0010
0010
,
1000
0010
0010
0010
,
0001
0010
0010
0010
,
1000
0100
0001
0100
,
1000
0010
0001
0010
,
1000
1000
0100
0100
,
0001
0001
0100
0100
,
1000
1000
1000
0100
,
0001
0001
0001
0100
,
1000
1000
0001
0001
,
1000
0001
0010
0100
,
0001
0100
1000
0100
,
0001
0001
1000
0100
,
0001
0001
0100
0100
,
1000
1000
0100
0100
,
0001
0001
0001
0100
,
1000
1000
1000
0100
,
0010
0010
0001
0001
,
1000
1000
0100
0100
,
0001
0100
1000
0100
,
0001
0001
1000
0100
,
1000
1000
0001
0100
,
1000
1000
1000
1000
,
0001
0100
0001
0100
,
0001
0100
0001
0001
,
1000
0100
1000
0100
,
1000
0100
1000
1000
,
0001
0010
1000
0010
,
0001
0010
1000
0010
,
0010
0000
0010
0000
,
0010
0000
0100
0100
,
1000
0100
0001
0100
,
1000
0100
0001
0001
,
0010
0000
1000
0000
,
0100
0010
0001
0100
,
0001
0000
1000
0000
,
0100
1000
0001
0100
,
0001
0000
1000
0000
,
0100
0100
0010
0001
,
1001
0000
0000
0000
;

//---------------dance-double - ----------------
#NOTES:
     dance-double:
     :
     Beginner:
     3:
     0.224,0.278,0.221,0.000,0.000:
00000000
00000000
00000000
00000000
,
00000000
00000000
00000000
00000000
,
00000000
00000000
00000000
00000000
,
00000000
00000000
00000000
00000000
,
00000000
00000000
00000000
00000000
,
00001000
00001000
00001000
00000000
,
00010000
00010000
00010000
00000000
,
00000100
00000000
00001000
00000000
,
01000000
00000000
00010000
00000000
,
00001000
00001000
00001000
00011000
,
01000000
01000000
01000000
10010000
,
00100000
00000000
10000000
00000000
,
01000000
00000000
00010000
00000000
,
00001000
00000000
00000010
00000000
,
00000001
00000000
00000100
00000000
,
00001000
00000000
00010000
00000000
,
00100000
00000000
10000000
00000000
,
01000000
00000000
00010000
00000000
,
00001000
00000000
00000100
00000000
,
00000001
00000001
00000001
00001001
,
00001000
00001000
00001000
00011000
,
00100000
00100000
01000000
01000000
,
00010000
00010000
00001000
00001000
,
00000100
00000100
00000001
00000001
,
00001000
00001000
00000100
00000100
,
00000001
00000000
00000100
00000000
,
00001000
00000000
00010000
00000000
,
01000000
01000000
01000000
10010000
,
00010000
00010000
00010000
00011000
,
00000001
00000000
00000100
00000000
,
00001000
00000000
00010000
00000000
,
01000000
00000000
10000000
00000000
,
00100000
00000000
00010000
00000000
,
00001000
00000000
00000100
00000000
,
00000001
00000000
00000100
00000000
,
00000000
00000000
00000000
00000000
,
00001000
00001000
00001000
00001000
,
00001001
00000000
00000100
00000000
,
00010000
00000000
01000000
01000000
,
10010000
00000000
01000000
00000000
,
00001000
00000000
00000100
00000100
,
00001001
00000000
00010000
00000000
,
10000000
00000000
00100000
01000000
,
10010000
00000000
00001000
00000000
,
00000001
00000000
00000010
00000100
,
00001001
00000000
00001001
00000000
,
00001001
00000000
00001000
00010000
,
10010000
00000000
10010000
00000000
,
10010000
00000000
00010000
00001000
,
00001001
00000000
00001001
00000000
,
00001001
00000000
00001000
00010000
,
10010000
00000000
01000000
00000000
,
00010000
00001000
00000010
00000001
,
00001001
00000000
00000000
00000000
;

//---------------dance-double - ----------------
#NOTES:
     dance-double:
     :
     Easy:
     4:
     0.338,0.390,0.652,0.000,0.000:
00000000
00000000
00000000
00000000
,
00000000
00000000
00000000
00000000
,
00000000
00000000
00000000
00000000
,
00000000
00000000
00000000
00000000
,
00000000
00000000
00000000
00000000
,
00000001
00000001
00000001
00000100
,
00010000
00010000
00010000
01000000
,
10000000
10000000
10000000
01000000
,
00001000
00001000
00001001
00001001
,
00001001
00000000
00011000
00000000
,
10010000
00000000
00011000
00000000
,
00001001
00000000
00011000
00000000
,
10010000
00000000
00011000
00011000
,
00000001
00000100
00000010
00001000
,
00010000
01000000
00100000
10000000
,
10000000
01000000
00100000
00010000
,
00001000
00000100
00000010
00000001
,
00000001
00000100
00001000
00010000
,
00001000
00010000
01000000
10000000
,
10000000
00010000
01000000
10010000
,
01000000
00001000
00000010
00001001
,
00000001
00000100
00000010
00001000
,
00010000
01000000
00100000
10000000
,
10000000
01000000
00100000
00010000
,
00001000
00000100
00000010
00000001
,
00000001
00000100
00001000
00010000
,
00001000
00010000
01000000
10000000
,
10000000
00010000
01000000
01100000
,
00010000
00001000
00000010
00000110
,
00000001
00000001
00000100
00001000
,
00010000
01000000
10000000
10000000
,
00100000
10000000
01000000
01000000
,
00010000
00001000
00000100
00000100
,
00000001
00000001
00000100
00001000
,
00010000
00010000
01000000
01000000
,
10010000
01000000
00010000
00001000
,
00011000
00011000
00011000
00011000
,
00001001
00000000
00011000
00000000
,
10010000
00000000
01100000
01100000
,
10010000
00000000
00011000
00000000
,
00001001
00000000
00000110
00000110
,
00001001
00000000
00011000
00000000
,
10010000
00000000
11000000
11000000
,
10010000
00000000
00011000
00000000
,
00001001
00000000
00000101
00000101
,
00000110
00000000
00011000
00000000
,
01100000
00000000
01100000
10010000
,
01100000
00000000
00011000
00000000
,
00000110
00000000
00000110
00001001
,
00000110
00000000
00011000
00000000
,
01100000
00000000
01100000
10010000
,
01100000
00000000
00011000
00000000
,
00000110
00001001
00011000
01100000
,
10010000
00000000
00000000
00000000
;

//---------------dance-double - ----------------
#NOTES:
     dance-double:
     :
     Medium:
     5:
     0.419,0.473,0.809,0.000,0.000:
00000000
00000000
00000000
00000000
,
00000000
00000000
00000000
00000000
,
00000000
00000000
00000000
00000000
,
00000000
00000000
00000000
00000000
,
00000000
00000000
00000000
00000000
,
00000010
00000001
00001001
00000100
,
00001000
00010000
00011000
01000000
,
10010000
00100000
10000000
01000000
,
00001000
00000010
00001001
00000101
,
00000101
00000100
00001000
00010000
,
10010000
01000000
00010000
00001000
,
00001001
00000100
00011000
00010000
,
10010000
01000000
00011000
00011000
,
00000001
00000000
00000100
00000000
00000010
00001000
00000100
00000000
,
00001000
00000000
00100000
00000000
00100000
10000000
01000000
00000000
,
10000000
00000000
01000000
00000000
00100000
00010000
01000000
00000000
,
00010000
00000000
00000010
00000000
00000010
00000001
00000100
00000000
,
00001001
00000100
00011000
01000000
,
00011000
00000000
01000000
00000000
00100000
10000000
01000000
00000000
,
10010000
00000000
01000000
00000000
00100000
00010000
01000000
00000000
,
00011000
00000000
00000010
00000000
00000010
00000001
00000100
00000000
,
00001001
00000000
00000100
00000000
00000010
00000001
00000100
00000000
,
00000110
00001000
00100000
11000000
,
10010000
00000000
01000000
00000000
00100000
10000000
01000000
00000000
,
01100000
00010000
00000010
00000101
,
00001100
00001100
00010000
00011000
,
00100000
10100000
11000000
11000000
,
10010000
01010000
10010000
00011000
,
00001001
00001100
00001001
00000101
,
00000001
00000000
00000001
00000000
00001000
00001000
00001000
00000000
,
00010000
00001000
10000000
01000000
,
10000000
00000000
10000000
00000000
00010000
00010000
00010000
00000000
,
00001000
00010000
00000001
00000100
,
00000001
00000001
00000100
00001010
,
00010000
00010000
01000000
11000000
,
10010000
01000000
00010000
00001000
,
00011000
00011000
00001001
00000110
,
00001001
00000100
00011000
01000000
,
10010000
01000000
01000000
01000000
,
10010000
01000000
00011000
00000100
,
00001001
00000100
00000100
00000100
,
00001001
00000100
00011000
01000000
,
10010000
01000000
01000000
01000000
,
10010000
01000000
00011000
00000100
,
00001001
00000100
00000100
00000100
,
00000110
00001000
00011000
01000000
,
01100000
00000000
01100000
10010000
,
01100000
00010000
00011000
00000100
,
00000110
00000000
00000110
00001001
,
00000110
00001000
00011000
01000000
,
01100000
00000000
01100000
10010000
,
01100000
00010000
00011000
00000100
,
00000110
00000000
00001001
00000000
00000110
00000000
00001000
00010000
,
01100000
00000000
00000000
00000000
;

//---------------dance-double - ----------------
#NOTES:
     dance-double:
     :
     Hard:
     8:
     0.521,0.613,0.347,0.000,0.000: // measure 1
00000000
00000000
00000000
00000000
,  // measure 2
00000000
00000000
00000000
00000000
,  // measure 3
00000000
00000000
00000000
00000000
,  // measure 4
00000000
00000000
00000000
00000000
,  // measure 5
00000000
00000000
00000000
00000000
,  // measure 6
00000001
00000000
00000001
00000000
00000001
00000100
00001000
00000000
,  // measure 7
00001000
00000000
00001000
00000000
00001000
00010000
01000000
00000000
,  // measure 8
01000000
00000000
01000000
00000000
01000000
00010000
00001000
00000000
,  // measure 9
00001000
00000000
00001000
00000000
00001000
00000100
00000001
00000100
,  // measure 10
00001001
00000000
00001001
00000000
00000001
00000100
00001000
00000000
,  // measure 11
00011000
00000000
00011000
00000000
00010000
01000000
10000000
00000000
,  // measure 12
11000000
00000000
11000000
00000000
01000000
00010000
00001000
00000000
,  // measure 13
00011000
00000000
00011000
00000000
00001000
00000100
00000001
00000000
,  // measure 14
00000001
00000000
00000001
00000000
00000001
00000010
00000001
00000100
,  // measure 15
00001000
00010000
01000000
10000000
00100000
10000000
01000000
00000000
,  // measure 16
01000000
00000000
01000000
00000000
10000000
00100000
10000000
01000000
,  // measure 17
00010000
00001000
00000100
00000001
00000010
00000001
00000100
00000000
,  // measure 18
00000100
00000000
00000100
00000000
00000010
00001000
00000100
00000000
,  // measure 19
00000010
00001000
00000100
00001000
00010000
01000000
10000000
00010000
,  // measure 20
01000000
00000000
01000000
00000000
01000000
00010000
00100000
00000000
,  // measure 21
00100000
00000000
00100000
00000000
00100000
00001000
00000100
00000000
,  // measure 22
00000100
00000000
00000100
00000000
00000100
00000001
00001000
00000100
,  // measure 23
00010000
00100000
01000000
00010000
10010000
00000000
10010000
00000000
,  // measure 24
10010000
00000000
01000000
00000000
01000000
00010000
00001000
00000100
,  // measure 25
00000001
00001000
00000100
00000010
00000110
00000000
00000110
00000000
,  // measure 26
00000110
00000000
00000001
00000000
00001000
00000100
00010000
00000000
,  // measure 27
00001000
00010000
01000000
10000000
00100000
01000000
00010000
01000000
,  // measure 28
00010000
00000000
00010000
00000000
00010000
10000000
01000000
00000000
,  // measure 29
11000000
10010000
00011000
00001001
,  // measure 30
00001001
00000000
00001001
00000000
00000100
00000001
00001000
00000100
,  // measure 31
00010000
00100000
01000000
00010000
10010000
00000000
10010000
00000000
,  // measure 32
10010000
00000000
01000000
00000000
01000000
00010000
00001000
00000100
,  // measure 33
00000001
00001000
00000100
00000010
00000110
00000000
00000110
00000000
,  // measure 34
00000110
00000000
00000001
00000000
00001000
00000100
00010000
00000000
,  // measure 35
00001000
00010000
01000000
10000000
00100000
01000000
00010000
01000000
,  // measure 36
00010000
00000000
00010000
00000000
00010000
10000000
01000000
00000000
,  // measure 37
10010000
10010000
10010000
00010000
00011000
00011000
00011000
00000000
,  // measure 38
00000010
00000001
00000100
00000001
00000010
00000001
00000100
00000001
,  // measure 39
00000010
00000001
00000100
00001000
00010000
01000000
10000000
10000000
,  // measure 40
00100000
10000000
01000000
10000000
00100000
10000000
01000000
10000000
,  // measure 41
00100000
10000000
01000000
00010000
00001000
00000100
00000001
00000001
,  // measure 42
00000010
00000001
00001000
00000001
00000010
00000001
00001000
00000001
,  // measure 43
00000010
00000001
00001000
00000010
00010000
01000000
10000000
10000000
,  // measure 44
00100000
10000000
00010000
10000000
00100000
10000000
00010000
10000000
,  // measure 45
00100000
10000000
00010000
00100000
00001000
00000100
00000001
00000001
,  // measure 46
00001000
00000100
00000010
00000100
00001000
00000100
00000010
00000100
,  // measure 47
00001000
00000100
00000010
00000100
00001000
00010000
01000000
01000000
,  // measure 48
00010000
01000000
00100000
01000000
00010000
01000000
00100000
01000000
,  // measure 49
00010000
01000000
00100000
01000000
00010000
00001000
00000100
00000100
,  // measure 50
00000001
00001000
00000100
00001000
00000001
00001000
00000100
00001000
,  // measure 51
00000001
00001000
00000100
00010000
00001000
01000000
00100000
00100000
,  // measure 52
10000000
00010000
01000000
00010000
10000000
00010000
01000000
00010000
,  // measure 53
10000000
01000000
00010000
00001000
00000010
00000001
00000100
00001000
,  // measure 54
00011000
00000000
00000000
00000000
;

//---------------dance-double - [VER.KOREA / Double----------------
#NOTES:
     dance-double:
     [VER.KOREA / Double:
     Edit:
     5:
     0.366,0.446,0.567,0.000,0.000:
00000000
00000000
00000000
00000000
,
00000000
00000000
00000000
00000000
,
00000000
00000000
00000000
00000000
,
00000000
00000000
00000000
00000000
,
00000000
00000000
00000000
00000000
,
00000001
00000001
00000001
00000100
,
00010000
00010000
00010000
01000000
,
10000000
10000000
10000000
01000000
,
00001000
00001000
00001001
00001001
,
00001001
00000100
00011000
00010000
,
10010000
01000000
00011000
00001000
,
00001001
00000100
00011000
00010000
,
10010000
01000000
00011000
00011000
,
00000001
00000100
00000010
00001000
,
00010000
01000000
00100000
10000000
,
10000000
01000000
00100000
00010000
,
00001000
00000100
00000010
00000001
,
00000001
00000100
00001000
00010000
,
00001000
00010000
01000000
10000000
,
10000000
00010000
01000000
10010000
,
01000000
00001000
00000010
00001001
,
00000001
00000100
00000010
00001000
,
00010000
01000000
00100000
10000000
,
10000000
01000000
00100000
00010000
,
00001000
00000100
00000010
00000001
,
00000001
00000100
00001000
00010000
,
00001000
00010000
01000000
10000000
,
10000000
00010000
01000000
01100000
,
00010000
00001000
00000010
00000110
,
00000001
00000001
00000100
00001000
,
00010000
01000000
10000000
10000000
,
00100000
10000000
01000000
01000000
,
00010000
00001000
00000100
00000100
,
00000001
00000001
00000100
00001000
,
00010000
00010000
01000000
01000000
,
10010000
01000000
00010000
00001000
,
00011000
00011000
00011000
00011000
,
00001001
00000100
00011000
01000000
,
10010000
01000000
01000000
01000000
,
10010000
01000000
00011000
00000100
,
00001001
00000100
00000100
00000100
,
00001001
00000100
00011000
01000000
,
10010000
01000000
01000000
01000000
,
10010000
01000000
00011000
00000100
,
00001001
00000100
00000100
00000100
,
00000110
00001000
00011000
01000000
,
01100000
00000000
01100000
10010000
,
01100000
00010000
00011000
00000100
,
00000110
00000000
00000110
00001001
,
00000110
00001000
00011000
01000000
,
01100000
00000000
01100000
10010000
,
01100000
00010000
00011000
00000100
,
00000110
00001001
00011000
01100000
,
10010000
00000000
00000000
00000000
;

//---------------dance-couple - ----------------
#NOTES:
     dance-couple:
     :
     Beginner:
     1:
     0.275,0.390,0.767,0.000,0.000:
00000000
00000000
00000000
00000000
,
00000000
00000000
00000000
00000000
,
00000000
00000000
00000000
00000000
,
00000000
00000000
00000000
00000000
,
00000000
00000000
00000000
00000000
,
00010001
00010001
00010001
00000000
,
10001000
10001000
10001000
00000000
,
00100010
00000000
00100010
00000000
,
00100010
00000000
00100010
00000000
,
10000000
10000000
10000000
00000000
,
00000001
00000001
00000001
00000000
,
10000000
00000000
00010000
00000000
,
00001000
00000000
00000001
00000000
,
10001000
00000000
00100010
00000000
,
10001000
00000000
00100010
00000000
,
00010001
00000000
00100010
00000000
,
00010001
00000000
00100010
00000000
,
10000000
00000000
00010000
00000000
,
10000000
00000000
00010000
00000000
,
00001000
00000000
00000100
00000000
,
00000001
00000000
00000100
00000000
,
10001000
10001000
10001000
00000000
,
00010001
00010001
00010001
00000000
,
10001000
00000000
00010001
00000000
,
00100010
00100010
00100010
00000000
,
00010010
00000000
10000100
00000000
,
01000001
00000000
00101000
00000000
,
00010010
00000000
01000001
00000000
,
00101000
00000000
10000100
00000000
,
00010001
00010001
00010001
00000000
,
10001000
10001000
10001000
00000000
,
00100010
00000000
00010001
00000000
,
10001000
00000000
01000100
00000000
,
00010001
00000000
00010001
00000000
,
01000000
00000000
00100010
00000000
,
00010001
00000000
00100010
00000000
,
10001000
01000010
00010001
00100100
,
00010001
00000000
00010001
00000000
,
00010001
00000000
01000100
00000000
,
00100010
00000000
00100010
00000000
,
00100010
00000000
10001000
00000000
,
01000000
00000000
01000000
00000000
,
00000100
00000000
00000001
00000000
,
00100000
00000000
00100000
00000000
,
00000010
00000000
00000100
00000000
,
10001000
00000000
10001000
00000000
,
10001000
00000000
00010001
00000000
,
00100010
00000000
10001000
00000000
,
00010001
00000000
01000100
00000000
,
00010000
00000000
10000000
00000000
,
01000000
00000000
00100000
00000000
,
00000001
00000000
00001000
00000000
,
00000100
01000000
00000010
00010000
,
10000100
00000000
00000000
00000000
;

//---------------dance-couple - ----------------
#NOTES:
     dance-couple:
     :
     Easy:
     4:
     0.590,0.835,1.000,0.000,0.000:
00000000
00000000
00000000
00000000
,
00000000
00000000
00000000
00000000
,
00000000
00000000
00000000
00000000
,
00000000
00000000
00000000
00000000
,
00000000
00000000
00000000
00000000
,
00010001
00010001
10011001
01000100
,
10001000
10001000
10011001
01000100
,
00100010
00100010
00100010
00100010
,
00100010
00100010
10011001
10011001
,
10000000
10000000
01010000
01000000
,
00000001
00000001
00001100
00000100
,
10000000
10000000
00010000
00010000
,
00001000
00000001
00001010
00001001
,
10001000
00100010
00100010
00100010
,
00010001
00100010
00100010
00100010
,
10001000
00100010
00100010
00100010
,
00010001
00100010
00100010
00100010
,
10000000
00000100
00010000
00000100
,
10000000
00000010
00010000
00000010
,
00001000
10000000
00000100
01000000
,
00000001
00010000
00000100
01000000
,
10011001
01000100
10001000
01000100
,
00010001
00010001
00010001
01000100
,
10011001
01000100
00010001
01000100
,
10001000
10001000
10001000
01000100
,
00010010
01000001
10000100
01000001
,
01000001
01000001
00101000
10000100
,
00010010
00010010
01000001
01000001
,
00101000
00101000
10000100
10000100
,
10011001
00010001
00010001
01000100
,
10011001
10001000
10001000
01000100
,
00100010
00100010
00010001
00010001
,
10001000
10001000
01000100
01000100
,
01010101
00111100
00010001
10000001
,
11001100
01011010
10001000
10000001
,
10001000
01000010
10001000
10000001
,
10011001
00000110
10011001
00000110
,
01010101
00000000
11001100
00000000
,
01010101
00000000
11001100
11001100
,
10011001
00000000
11001100
00000000
,
10011001
00000000
11001100
11001100
,
10010000
00000000
10100000
00000000
,
00001001
00000000
00001001
00000110
,
10100000
00000000
11000000
00000000
,
00001010
00000000
00000011
00000101
,
10011001
01000100
01100110
00010001
,
10011001
00100010
01100110
10011001
,
01100110
10001000
01100110
00010001
,
01100110
10001000
01100110
10011001
,
00010000
00001100
00010000
00001100
,
00010000
00001100
10010000
00000101
,
00000000
01010000
00000000
01010000
,
00000100
01000000
00000010
00010000
,
01101001
00000000
00000000
00000000
;

//---------------dance-couple - ----------------
#NOTES:
     dance-couple:
     :
     Medium:
     6:
     0.731,1.000,1.000,0.000,0.000:
00000000
00000000
00000000
00000000
,
00000000
00000000
00000000
00000000
,
00000000
00000000
00000000
00000000
,
00000000
00000000
00000000
00000000
,
00000000
00000000
00000000
00000000
,
00100010
00100010
10011001
11001100
,
00100010
00100010
10011001
01010101
,
00100010
00010001
00100010
10001000
,
00100010
00100010
10011001
10011001
,
10000000
00010000
10000000
00010000
01000000
00000000
10010000
00000000
,
00000001
00001000
00000001
00001000
00000100
00000000
00001001
00000000
,
10010000
01000000
10010000
00100000
,
00001000
00000001
00001001
00000101
,
10001000
00000000
00100010
00000000
00100010
10001000
01000100
00000000
,
10011001
00100010
01010101
01010101
,
00010001
00000000
00100010
00000000
00100010
00010001
01000100
00000000
,
10011001
00100010
11001100
11001100
,
10000000
00000100
00010000
00000100
,
10000000
00000000
00000010
00000000
00010000
10000000
00000100
00000000
,
00001001
00000000
01000000
00000000
00000010
00001000
01000000
00000000
,
00001001
00000000
01000000
00000000
00000001
00000100
00010000
00000000
,
10011001
00000000
01000100
00000000
10001000
10001000
10001000
00000000
,
10011001
00000000
01000100
00000000
00010001
00010001
00010001
00000000
,
10011001
00000000
01000100
00000000
10001000
01000100
01000100
00000000
,
10011001
00000000
01000100
00000000
00010001
01000100
01000100
00000000
,
00010010
01000001
10000100
01000001
,
01000001
01000001
00101000
10000100
,
10010110
01000001
10100100
11000001
,
01101001
10000100
01010010
11000001
,
01100110
00000000
00010001
00000000
10001000
01000100
01000100
00000000
,
01100110
00000000
10001000
00000000
00010001
01000100
01000100
00000000
,
00100010
00000000
00100010
00000000
10001000
01000100
10001000
00000000
,
00100010
00000000
00100010
00000000
00010001
01000100
00010001
00000000
,
01010101
00111100
00010001
10000001
,
11001100
01011010
10001000
10000001
,
10011001
10000001
00100010
00011000
,
10011001
10011001
01100110
01100110
10011001
10011001
01100110
00000000
,
01010101
10001000
11001100
00010001
,
01010101
10001000
11001100
11001100
,
10011001
01000100
11001100
00010001
,
10011001
01000100
11001100
11001100
,
10010000
00100000
10100000
01000000
,
00001001
00000100
00001001
00000110
,
10100000
00010000
01010000
00100000
,
00001010
00000001
00000011
00000011
,
10011001
00000000
00000000
01000100
01100110
00000000
00000000
00010001
,
10011001
00000000
01100110
10011001
,
01100110
00000000
00000000
10001000
11001100
00000000
00000000
00010001
,
00110011
00000000
01100110
10011001
,
00010000
00001100
00100000
00001100
,
00010000
00001100
10010000
00000101
,
00001000
01010000
00000010
01010000
,
00000100
00000000
01000000
00000000
00000010
00001000
01000000
00000000
,
01101001
00000000
00000000
00000000
;

//---------------dance-couple - ----------------
#NOTES:
     dance-couple:
     :
     Hard:
     7:
     0.644,0.835,1.000,0.000,0.032:
00000000
00000000
00000000
00000000
,
00000000
00000000
00000000
00000000
,
00000000
00000000
00000000
00000000
,
00000000
00000000
00000000
00000000
,
00000000
00000000
00000000
00000000
,
00010001
00000000
00010001
00000000
00010001
10001000
01000100
00000000
,
10001000
00000000
10001000
00000000
10001000
00010001
01000100
00000000
,
00100010
00100010
00100010
00100010
,
00100010
00000000
00100010
00000000
10001000
01000100
10001000
01000100
,
10000000
00000000
10000000
00000000
10000000
00010000
01000000
00000000
,
00000001
00000000
00000001
00000000
00000001
00001000
00000100
00000000
,
10000000
10000000
00010000
00010000
,
00001000
00000001
00001000
00000001
00001000
00000001
00000001
00000000
,
10001000
00000000
00100010
00000000
01000100
00010001
00100010
01000100
,
10001000
00000000
00000000
00100010
00000000
00000000
01000100
00000000
00000000
00000000
00010001
00000000
00010001
00000000
00000000
00000000
,
00010001
00000000
00100010
00000000
01000100
10001000
00100010
01000100
,
00010001
00000000
00000000
00100010
00000000
00000000
01000100
00000000
00000000
00000000
10001000
00000000
10001000
00000000
00000000
00000000
,
10000000
00000100
00010000
00000100
,
10000000
00000100
00010000
00000100
,
00001000
00000001
00000000
10000000
00000010
00000100
00010000
00000000
,
00001000
00000000
00000001
00000000
00000000
00000000
10000000
01000000
00001000
00000000
00000001
00000000
01000000
00000000
00000000
00000000
,
10001000
00000000
00100010
00000000
01000100
00010001
00100010
01000100
,
10001000
00000000
00000000
00100010
00000000
00000000
01000100
00000000
00000000
00000000
00010001
00000000
00010001
00000000
00000000
00000000
,
00010001
00000000
00100010
00000000
01000100
10001000
00100010
01000100
,
00010001
00000000
00000000
00100010
00000000
00000000
01000100
00000000
00000000
00000000
10001000
00000000
10001000
00000000
00000000
00000000
,
10000100
01000001
00010010
01000001
,
00101000
10000100
01000001
10000100
,
00010010
10000100
00000000
00010010
00101000
01000001
10000100
00000000
,
01000001
00000000
00101000
00000000
00000000
00000000
01000001
10000100
01000001
00000000
00100000
00000000
10000100
00000000
00000000
00000000
,
00010001
00000000
00010001
00000000
00010001
10001000
01000100
00100010
,
01000100
10001000
00010001
01000100
00100010
01000100
00010001
00000000
,
00100010
00000000
00100010
10001000
00010001
10001000
01000100
00100010
,
01000100
10001000
00010001
01000100
00100010
01000100
00010001
00000000
,
10001000
00011000
10001000
10000001
,
10001000
00011000
10001000
10000001
,
10011001
00000000
00000000
00000000
00000000
00000000
00000000
01000010
,
10001000
00010001
01000010
00100100
00010001
10001000
00100100
01000010
,
01000100
00000000
00000000
01000100
10001000
00000000
00000000
01000100
,
00100010
00000000
00000000
00010001
10001000
00100010
01000100
00010001
,
01000100
00000000
00000000
01000100
00100010
00000000
00000000
01000100
,
10001000
00000000
00000000
01000100
00010001
10001000
01000100
00100010
,
00010000
00000000
00000000
01000000
00100000
00000000
00000000
01000000
,
00000001
00000000
00000000
00000100
00001000
00000001
00000100
00000010
,
10000000
00000000
00000000
00010000
00100000
00000000
00000000
01000000
,
00000010
00000000
00000000
00001000
00000100
00000010
00000001
00000001
,
01000100
00000000
00000000
10001000
01000100
00000000
00000000
00010001
,
01000100
00000000
00000000
00100010
10001000
01000100
01000100
00010001
,
01000100
00000000
00000000
10001000
01000100
00000000
00000000
00010001
,
01000100
00000000
00000000
10001000
00010001
10001000
01000100
00010001
,
01000000
00000000
00000000
00001000
01000000
00000000
00000000
00000001
,
01000000
00000000
00000000
00000010
01000000
00010000
00001000
00000100
,
00000010
00000000
00000000
01000000
00000010
00000000
00000000
10000000
,
00000001
00000100
00010000
00100000
00000100
00001000
01000000
00100000
,
01101001
00000000
00000000
00000000
;

//---------------dance-couple - ----------------
#NOTES:
     dance-couple:
     :
     Challenge:
     6:
     0.525,0.613,0.914,0.000,0.000:
00000000
00000000
00000000
00000000
,
00000000
00000000
00000000
00000000
,
00000000
00000000
00000000
00000000
,
00000000
00000000
00000000
00000000
,
00000000
00000000
00000000
00000000
,
10000000
00000000
10000000
00000000
10000000
00010000
01000000
00000000
,
00000001
00000000
00000001
00000000
00000001
00001000
00000100
00000000
,
00100000
00000010
00100000
00000010
,
00100000
00000000
00000010
00000000
10000001
01000100
10000001
01000100
,
10000000
10000001
01010000
01000000
,
00000001
10000001
00001100
00000100
,
10000000
10000000
00000001
00000001
,
00010000
00001000
10010000
00001001
,
10010000
00000000
01000001
00000000
10000000
10000000
10000001
00000000
,
10010000
00000000
01000100
00000000
00010000
00010000
00010100
00000000
,
10010000
00000000
01000001
00000000
10000000
01000000
01000001
00000000
,
10010000
00000000
01000100
00000000
00010000
01000000
01000100
00000000
,
10000000
01000001
00010000
01000001
,
10000000
00000000
00100100
00000000
00010000
10000000
01000100
00000000
,
10010001
00000000
01000000
00000000
00100000
10000000
01000000
00000000
,
10011000
00000000
01000000
00000000
00010000
01000000
00010000
00000000
,
00001001
00000000
10000100
00000000
00001000
00001000
10001000
00000000
,
00001001
00000000
01000100
00000000
00000001
00000001
01000001
00000000
,
00001001
00000000
10000100
00000000
00001000
00000100
10000100
00000000
,
00001001
00000000
01000100
00000000
00000001
00000100
01000100
00000000
,
00001000
10000100
00000001
10000100
,
00001000
00000000
01000010
00000000
00000001
00001000
01000100
00000000
,
10001001
00000000
00000100
00000000
00000010
00001000
00000100
00000000
,
00011001
00000000
00000100
00000000
00000001
00000100
00000001
00000000
,
01100000
00000000
00010000
00000000
10000000
01000000
01000000
00000000
,
00000110
00000000
00001000
00000000
00000001
00000100
00000100
00000000
,
00100000
00000000
00100000
00000000
00010000
01000000
00010000
00000000
,
00000010
00000000
00000010
00000000
00001000
00000100
00001000
00000000
,
11000000
11000000
00010000
01000000
,
00000101
00000101
00001000
00000100
,
10011001
01000100
01000100
01000100
,
10000001
00011000
10000001
00011000
10000001
00011000
10000001
00010000
,
01000000
00000000
00000100
01000000
10000000
00000000
00000100
01000000
,
00100000
00000000
00000100
00010000
10000000
00100000
01000000
00000001
,
00000100
00000000
00010000
00000100
00000010
00000000
00010000
00000100
,
00001000
00000000
00010000
00000100
00000001
00001000
00000100
00100000
,
00010000
00000000
00000010
01000000
00100000
00000000
00000010
01000000
,
00010000
00000000
00000010
01000000
00100000
10000000
01000000
00000100
,
00001000
00000000
00100000
00000001
00000010
00000000
00100000
00000100
,
00000010
00000000
00100000
00000001
00000100
00000010
00001000
00010000
,
01000000
00000000
00000001
10000000
01000000
00000000
00000001
00010000
,
01000000
00000000
00000001
00100000
10000000
01000000
00100000
00000001
,
00000100
00000000
01000000
00001000
00000100
00000000
01000000
00000001
,
00000100
00000000
01000000
00001000
00000001
00001000
00000100
00010010
,
01000100
00000000
00000000
10000001
01000100
00000000
00000000
00011000
,
01000100
00000000
00000000
00100010
01000100
00011000
10000001
01000100
,
00100010
00000000
00000000
01000100
00100010
00000000
00000000
10000001
,
00011000
01000100
00011000
00100010
01000100
10000001
01000100
00100010
,
10011001
00000000
00000000
00000000
;

//---------------dance-couple - [VER.KOREA / Unison----------------
#NOTES:
     dance-couple:
     [VER.KOREA / Unison:
     Edit:
     4:
     0.476,0.501,1.000,0.000,0.000:
00000000
00000000
00000000
00000000
,
00000000
00000000
00000000
00000000
,
00000000
00000000
00000000
00000000
,
00000000
00000000
00000000
00000000
,
00000000
00000000
00000000
00000000
,
00010001
00010001
00010001
01000100
,
10001000
10001000
10001000
01000100
,
00100010
00100010
00100010
00100010
,
00100010
00100010
10011001
10011001
,
10000000
10000000
10000000
01000000
,
00000001
00000001
00000001
00000100
,
10000000
10000000
00010000
00010000
,
00001000
00000001
00001000
00000001
,
10001000
00100010
00100010
00100010
,
00010001
00100010
00100010
00100010
,
10001000
00100010
00100010
00100010
,
00010001
00100010
00100010
00100010
,
10000000
00000100
00010000
00000100
,
10000000
00000010
00010000
00000010
,
00001000
10000000
00000100
01000000
,
00000001
00010000
00000100
01000000
,
10001000
10001000
10001000
01000100
,
00010001
00010001
00010001
01000100
,
10001000
10001000
00010001
00010001
,
10001000
00010001
00100010
01000100
,
00010010
01000001
10000100
01000001
,
01000001
01000001
00101000
10000100
,
00010010
00010010
01000001
01000001
,
00101000
00101000
10000100
10000100
,
00010001
00010001
00010001
01000100
,
10001000
10001000
10001000
01000100
,
00100010
00100010
00010001
00010001
,
10001000
10001000
01000100
01000100
,
00010001
00011000
00010001
10000001
,
00010001
00100100
00010001
10000001
,
10001000
01000010
10001000
10000001
,
10001000
01000010
00010001
00100100
,
00010001
01000100
00010001
01000100
,
00010001
01000100
00010001
00010001
,
10001000
01000100
10001000
01000100
,
10001000
01000100
10001000
10001000
,
00010000
00100000
10000000
00100000
,
00000001
00000010
00001000
00000010
,
00100000
00000000
00100000
00000000
,
00000010
00000000
00000100
00000100
,
10001000
01000100
00010001
01000100
,
10001000
01000100
00010001
00010001
,
00100010
00000000
10001000
00000000
,
01000100
00100010
00010001
01000100
,
00010000
00000000
10000000
00000000
,
01000000
00001000
00010000
00000100
,
00000001
00000000
00001000
00000000
,
00000100
01000000
00000010
00010000
,
01101001
00000000
00000000
00000000
;

//---------------dance-solo - ----------------
#NOTES:
     dance-solo:
     :
     Easy:
     4:
     0.356,0.418,0.610,0.000,0.000:
000000
000000
000000
000000
,
000000
000000
000000
000000
,
000000
000000
000000
000000
,
000000
000000
000000
000000
,
000000
000000
000000
000000
,
000010
000010
100001
001000
,
010000
010000
100001
001000
,
000100
000010
000100
010000
,
000100
000010
100001
100001
,
010000
010000
001010
001000
,
000001
000001
011000
001000
,
100000
100000
000001
000001
,
010000
000010
100001
100001
,
010000
000100
000100
000100
,
000010
000100
000100
000100
,
010000
000100
000100
000100
,
000010
000100
000100
000100
,
100000
001000
000001
001000
,
100000
000100
000001
000100
,
010000
010000
001000
001000
,
000010
000010
001000
001000
,
100001
001000
010000
001000
,
000001
000001
000001
001000
,
100010
001000
000001
001000
,
100000
100000
100000
001000
,
000001
001000
100000
001000
,
000001
000001
010000
001000
,
000001
000001
001000
001000
,
100000
100000
001000
001000
,
010001
000010
000010
001000
,
100001
010000
010000
001000
,
000100
000100
000001
000001
,
010000
010000
001000
001000
,
001001
001001
100000
001000
,
010001
010001
000010
001000
,
100000
100000
000001
001000
,
100010
010001
100010
010001
,
001010
000000
011000
000000
,
001010
000000
011000
100100
,
010010
000000
101000
000000
,
010001
000000
101000
101000
,
010001
000000
000110
000000
,
100001
000000
100001
001100
,
100010
000000
011000
000000
,
100100
000000
000101
001010
,
100001
001000
000101
000010
,
010001
000100
001010
100001
,
001100
100000
001010
000001
,
011000
100000
001010
100001
,
000010
011000
000001
101000
,
000001
011000
100001
001010
,
000000
000101
000000
010100
,
001000
001000
000100
010000
,
100001
000000
000000
000000
;

//---------------dance-solo - ----------------
#NOTES:
     dance-solo:
     :
     Medium:
     6:
     0.441,0.613,0.862,0.000,0.000:
000000
000000
000000
000000
,
000000
000000
000000
000000
,
000000
000000
000000
000000
,
000000
000000
000000
000000
,
000000
000000
000000
000000
,
000100
000100
100001
011000
,
000100
000100
100001
001010
,
000100
000010
000100
010000
,
000100
000100
100001
100001
,
010000
000010
100000
000010
001000
000000
100001
000000
,
000010
010000
000001
010000
001000
000000
100001
000000
,
100001
001000
100001
000100
,
010000
000010
100001
001010
,
100000
000000
000100
000000
000100
010000
001000
000000
,
100001
000100
001010
001010
,
000001
000000
000100
000000
000100
000010
001000
000000
,
100001
000100
011000
011000
,
100000
001000
000001
001000
,
100000
000000
000100
000000
000001
010000
001000
000000
,
100001
000000
001000
000000
000100
010000
001000
000000
,
100001
000000
001000
000000
000010
001000
000010
000000
,
100001
000000
001000
000000
010000
010000
010000
000000
,
100001
000000
001000
000000
000010
000010
000010
000000
,
100001
000000
001000
000000
010000
001000
001000
000000
,
100001
000000
001000
000000
000010
001000
001000
000000
,
000001
001000
100000
001000
,
000001
000001
010000
001000
,
100001
001000
100100
011000
,
100001
001000
000101
001010
,
001100
000000
000001
000000
100000
001000
001000
000000
,
001100
000000
010000
000000
000010
001000
001000
000000
,
000100
000000
000100
000000
100000
001000
100000
000000
,
000100
000000
000100
000000
000010
001000
000010
000000
,
001001
001001
100000
001000
,
011000
011000
000001
001000
,
100010
001000
001000
001000
,
100001
100001
100001
100001
100001
100001
100001
000000
,
001010
100000
011000
000001
,
001010
100000
011000
011000
,
100001
001000
101000
000001
,
100001
001000
011000
011000
,
100001
000100
100010
001000
,
100001
001000
100001
001100
,
000110
000001
001010
000100
,
010100
000001
000110
001001
,
100010
000000
000000
001000
001100
000000
000000
000010
,
100001
000000
001100
100001
,
001100
000000
000000
010000
011000
000000
000000
000001
,
000101
000000
001100
100001
,
000010
011000
000100
101000
,
000001
011000
100001
001010
,
100000
001001
000100
001010
,
001000
000000
001000
000000
000100
100000
001000
000000
,
010010
000000
000000
000000
;

//---------------dance-solo - ----------------
#NOTES:
     dance-solo:
     :
     Hard:
     7:
     0.386,0.418,0.021,0.000,0.032:
000000
000000
000000
000000
,
000000
000000
000000
000000
,
000000
000000
000000
000000
,
000000
000000
000000
000000
,
000000
000000
000000
000000
,
000010
000000
000010
000000
000010
100000
001000
000000
,
010000
000000
010000
000000
010000
000001
001000
000000
,
000100
010000
000100
000010
,
000100
000000
010000
000000
100000
001000
100000
001000
,
010000
000000
010000
000000
010000
000001
001000
000000
,
000010
000000
000010
000000
000010
100000
001000
000000
,
010000
010000
000010
000010
,
100000
000001
100000
000001
100000
000001
000001
000000
,
010000
000000
000100
000000
001000
000001
000100
001000
,
010000
000000
000000
000100
000000
000000
001000
000000
000000
000000
000010
000000
000010
000000
000000
000000
,
000001
000000
000100
000000
001000
010000
000100
001000
,
000010
000000
000000
000100
000000
000000
001000
000000
000000
000000
010000
000000
010000
000000
000000
000000
,
100000
001000
000001
001000
,
010000
001000
000010
001000
,
100000
000001
000000
100000
000100
001000
000010
000000
,
010000
000000
000001
000000
000000
000000
100000
001000
100000
000000
000001
000000
001000
000000
000000
000000
,
100000
000000
000100
000000
001000
000001
000100
001000
,
010000
000000
000000
000100
000000
000000
001000
000000
000000
000000
000010
000000
000010
000000
000000
000000
,
000001
000000
000100
000000
001000
010000
000100
001000
,
000010
000000
000000
000100
000000
000000
001000
000000
000000
000000
010000
000000
010000
000000
000000
000000
,
100000
001000
000001
001000
,
010000
001000
000010
001000
,
000001
100000
000000
000010
000100
001000
010000
000000
,
000001
000000
100000
000000
000000
000000
000001
001000
000001
000000
100000
000000
001000
000000
000000
000000
,
000001
000000
000001
000000
000001
010000
001000
000100
,
001000
010000
000001
001000
000100
001000
000010
000000
,
000100
000000
000100
100000
000001
100000
001000
010000
,
001000
100000
000001
001000
000100
001000
000010
000000
,
100000
001000
000001
001000
,
010000
001000
000010
001000
,
100001
000000
000000
000000
000000
000000
000000
000010
,
010000
000001
100000
000010
010000
000001
100000
000010
,
001000
000000
000000
001000
100000
000000
000000
001000
,
000100
000000
000000
000001
100000
000010
001000
000001
,
001000
000000
000000
001000
000100
000000
000000
001000
,
100000
000000
000000
001000
000001
100000
001000
000100
,
000001
000000
000000
001000
000010
000000
000000
001000
,
000001
000000
000000
001000
100000
000010
001000
000100
,
100000
000000
000000
000001
000100
000000
000000
001000
,
000100
000000
000000
010000
001000
000100
000001
000001
,
001000
000000
000000
100000
001000
000000
000000
000010
,
001000
000000
000000
000100
100000
001000
001000
000001
,
001000
000000
000000
010000
001000
000000
000000
000001
,
001000
000000
000000
100000
000010
100000
001000
000001
,
001000
000000
000000
010000
001000
000000
000000
000001
,
001000
000000
000000
000100
001000
000010
100000
001000
,
000100
000000
000000
001000
010000
000000
000000
100000
,
000001
001000
000010
000100
001000
010000
001000
000100
,
100001
000000
000000
000000
;

//---------------dance-double - Edit by silenttype01----------------
#NOTES:
     dance-double:
     Edit by silenttype01:
     Challenge:
     9:
     0.579,0.724,0.420,0.378,0.079: // measure 1
00000000
00000000
00000000
00000000
,  // measure 2
00000000
00000000
00000000
00000000
,  // measure 3
00000000
00000000
00000000
00000000
,  // measure 4
00000000
00000000
00000000
00000000
,  // measure 5
00000000
00000000
00000000
00000000
,  // measure 6
00000000
00000010
00000000
00000001
00000000
00000001
00000000
00001000
,  // measure 7
00000000
00000100
00000000
00000100
00000000
00001000
00000000
00000101
,  // measure 8
00000101
00001000
00000000
00010000
00000000
00010000
00000000
00100000
,  // measure 9
00000000
10000000
00000000
10000000
01010000
00000000
10010000
00000000
,  // measure 10
01010000
00000000
10000000
00100000
01000000
00010000
00001000
00000100
,  // measure 11
00001000
00000000
00000001
00000010
00000001
00000000
00001000
00000100
,  // measure 12
00001000
00000000
00000001
00000010
00000100
00001000
00010000
01000000
,  // measure 13
00010000
00000000
10000000
00100000
10000000
00000000
00010000
01000000
,  // measure 14
00020000
00000000
00230000
00000000
00310000
01000000
00010000
00100000
,  // measure 15
00020000
00000000
00000000
02030000
00000000
00000000
03020000
00000000
00000000
00000000
00000000
00000000
00030000
00000000
00000000
00000000
,  // measure 16
00002000
00000000
00003020
00000000
00001030
00000100
00001000
00000010
,  // measure 17
00002000
00000000
00000000
00003200
00000000
00000000
00002300
00000000
00000000
00000000
00000000
00000000
00003010
00000000
00000010
00000000
,  // measure 18
00000020
00000000
00002030
00000000
00003100
00000010
00001000
00000100
,  // measure 19
00001000
00010000
01000000
10000000
00010000
10000000
00010000
10000000
,  // measure 20
00010000
00100000
00100000
01000000
01000000
10000000
00010000
00000000
,  // measure 21
00000000
00000000
00010000
00000000
00010000
00000000
10000000
00100000
10000000
00000000
00010000
00000000
00010000
00000000
00001000
00000000
,  // measure 22
00002000
00000000
00003020
00000000
00001030
00000100
00001000
00000010
,  // measure 23
00002000
00000000
00000000
00003200
00000000
00000000
00002300
00000000
00000000
00000000
00000000
00000000
00003000
00000000
00000100
00000000
,  // measure 24
00020000
00000000
00230000
00000000
10300000
01000000
10000000
00100000
,  // measure 25
20000000
00000000
00000000
32000000
00000000
00000000
23000000
00000000
00000000
00000000
00000000
00000000
30010000
00000000
00010000
00000000
,  // measure 26
00200000
00000000
00320000
00000000
01030000
00100000
00010000
01000000
,  // measure 27
00010000
00001000
00000100
00000001
00000010
00000001
00000100
00000001
,  // measure 28
00001000
00000010
00000010
00000100
00000100
00000001
00001000
00000000
,  // measure 29
00000000
00000000
00001000
00000000
00001000
00000000
00000001
00000010
00000001
00000000
00001000
00000000
00001000
00000000
00010000
00000000
,  // measure 30
00020000
00000000
00230000
00000000
00310000
01000000
00010000
00100000
,  // measure 31
00020000
00000000
00000000
02030000
00000000
00000000
03020000
00000000
00000000
00000000
00000000
00000000
00030000
00000000
00000000
00000000
,  // measure 32
00002000
00000000
00003010
00001000
00000100
00001000
00000010
00001000
,  // measure 33
00000200
00000000
00000000
00002300
00000000
00000000
00003200
00000000
00000000
00000000
00000000
00000000
00000310
00000000
00000010
00000000
,  // measure 34
00000020
00000000
00002030
00000000
00003100
00000010
00001000
00000100
,  // measure 35
00001000
00100000
10000000
01000000
10000000
00010000
01000000
00010000
,  // measure 36
10000000
00000000
00100000
01000000
00000000
00000000
01000000
00010000
00000000
00000000
00010000
00100000
00000000
00000000
01200000
00000000
,  // measure 37
00000000
01000000
00000000
01000000
00000000
01000000
00300000
00100000
,  // measure 38
10010000
00000000
00010000
10000000
01100000
00000000
10000000
01000000
,  // measure 39
00110000
00000000
00100000
00001000
00000100
00001000
00010000
00000100
,  // measure 40
00001001
00000000
00001000
00000001
00000110
00000000
00000001
00000100
,  // measure 41
00001010
00000000
00000010
00010000
01000000
00010000
00001000
00100000
,  // measure 42
10010000
00000000
00100000
10000000
01010000
00000000
00001000
00010000
,  // measure 43
00000101
00000000
00001000
00000010
00000001
00000010
00001000
00000100
,  // measure 44
00001001
00000000
00000010
00000001
00001100
00000000
00010000
00001000
,  // measure 45
11000000
00000000
00010000
00100000
10000000
00100000
00010000
01000000
,  // measure 46
00100000
10000000
10010000
01000000
00010000
00001000
00011000
00000100
,  // measure 47
00000001
00000010
00000011
00001000
00010000
00100000
00010000
00000010
,  // measure 48
00001000
00100000
00110000
10000000
01000000
00100000
00101000
00000010
,  // measure 49
00001000
00000001
00000101
00000010
00001000
00010000
01000000
00010000
,  // measure 50
00100000
00000000
01010000
00000000
01010000
00000000
00100000
10000000
00100000
00000000
11000000
00000000
11000000
00000000
00100000
00001000
,  // measure 51
00100000
00000000
10010000
00000000
10010000
00000000
01000000
00010000
01000000
00000000
00010000
00000000
00001000
00000000
00000100
00000000
,  // measure 52
00000010
00000000
00001001
00000000
00001001
00000000
00000100
00000001
00000100
00000000
00001010
00000000
00001010
00000000
00000100
00000000
,  // measure 53
00000101
00000100
00001010
00001000
01010000
01000000
10100000
10100000
,  // measure 54
10100000
00000000
00000000
00000000
;
