#TITLE:BURNIN' THE FLOOR;
#SUBTITLE:(BLUE FIRE mix);
#ARTIST:NAOKI;
#TITLETRANSLIT:;
#SUBTITLETRANSLIT:;
#ARTISTTRANSLIT:;
#CREDIT:;
#BANNER:BURNIN' THE FLOOR(BLUE FIRE mix).png;
#BACKGROUND:BURNIN' THE FLOOR(BLUE FIRE mix)-bg.png;
#LYRICSPATH:;
#CDTITLE:./CDTITLES/DDRMAX2 -Dance Dance Revolution 7thMIX-.PNG;
#MUSIC:BURNIN' THE FLOOR(BLUE FIRE mix).mp3;
#OFFSET:-0.297;
#SAMPLESTART:63.730;
#SAMPLELENGTH:15.000;
#SELECTABLE:YES;
#DISPLAYBPM:155.000;
#BPMS:0.000=155.050;
#STOPS:;
#BGCHANGES:-1.067=Burnin' The Floor (Blue Fire Mix).avi=1.000=1=1=0,
234.750=BURNIN' THE FLOOR (BLUE FIRE mix)-bg.png=1.000=0=0=1,
99999=-nosongbg-=1.000=0=0=0 // don't automatically add -songbackground-
;

//---------------dance-single - ----------------
#NOTES:
     dance-single:
     :
     Beginner:
     1:
     0.183,0.185,0.085,0.000,0.000:
0000
0000
0000
0000
,
0000
0000
0000
0000
,
1000
0000
0000
0000
,
0001
0000
0000
0000
,
1000
1000
0000
0100
,
0000
0001
0000
0100
,
0000
1000
0000
0001
,
0000
1000
0000
1001
,
0000
0100
0000
0001
,
0000
0100
0000
1000
,
0000
0100
0000
0100
,
0000
0001
0000
1000
,
0000
0100
0000
0001
,
0000
0100
0000
1000
,
1000
1000
0000
1000
,
0000
1000
0000
1001
,
0000
0010
0010
0010
,
0010
0000
0010
0000
,
0001
0000
0010
0000
,
0010
0000
1000
0000
,
0001
0000
0001
0000
,
1000
0000
1000
0000
,
0100
0100
0000
0010
,
0010
0000
1000
0000
,
0010
0000
0001
0000
,
0010
0000
1000
0000
,
0010
0000
0010
0000
,
1000
0000
1000
0000
,
0100
0000
0001
0000
,
0100
0000
1000
0000
,
1000
1000
0000
0001
,
0000
0001
0000
1000
,
1000
0000
0000
0000
,
0000
0010
0000
0000
,
1001
0000
0010
0000
,
0100
0000
1000
0000
,
0100
0100
0000
0010
,
0000
0100
0000
0010
,
0000
0100
0000
0010
,
0000
0100
0000
0100
,
0000
0000
0000
0000
,
0100
0000
1000
0000
,
0010
0000
1000
0000
,
0100
0000
0100
0000
,
0010
0000
0100
0000
,
0010
0000
1001
0000
,
0010
0000
1001
0000
,
0010
0000
0010
0000
,
0001
0000
1000
0000
,
1000
0000
1000
0000
,
0001
0000
0001
0000
,
1000
0000
0100
0000
,
0010
0010
0000
0100
,
0000
0100
0000
0100
,
0000
0110
0000
0100
,
0000
1000
0000
0110
,
0000
0000
0110
0000
,
1000
0000
0001
0000
,
0000
0001
0000
0000
,
0000
0000
0000
0000
;

//---------------dance-single - ----------------
#NOTES:
     dance-single:
     :
     Challenge:
     7:
     0.471,0.524,0.338,0.032,0.011: // measure 1
0000
0000
0000
0000
,  // measure 2
0000
0000
0000
0000
,  // measure 3
1000
0000
0000
0000
,  // measure 4
0001
0000
0000
0000
,  // measure 5
1000
1000
0100
0100
,  // measure 6
0001
0001
0100
0100
,  // measure 7
1000
1100
0001
0101
,  // measure 8
0010
1000
0100
1001
,  // measure 9
0001
1000
0100
0000
0010
0000
0101
0000
,  // measure 10
1000
0001
0100
0000
0010
0000
1100
0000
,  // measure 11
0010
1000
0100
0000
0010
1000
0100
0000
,  // measure 12
0001
0001
1000
1000
,  // measure 13
0001
1000
0100
0000
0010
0000
0101
0000
,  // measure 14
1000
0001
0100
0000
0010
0000
1100
0000
,  // measure 15
1000
0100
1000
0000
0001
0100
1000
0000
,  // measure 16
0010
1000
0100
1001
,  // measure 17
1000
0100
0010
0000
0010
0100
0010
0000
,  // measure 18
0010
0100
0001
1000
0010
0001
0100
0000
,  // measure 19
0001
0010
0100
0000
0010
0100
1000
0000
,  // measure 20
0010
1000
0100
0001
1000
0010
0001
0000
,  // measure 21
0001
0100
1000
0000
0001
0010
1000
0000
,  // measure 22
1000
0100
0001
0000
1000
0010
0001
0000
,  // measure 23
0100
0001
0100
1000
0010
0001
0010
0000
,  // measure 24
1010
0000
0000
0000
0101
0000
0000
0000
1000
0100
0000
1000
0010
0000
1000
0000
,  // measure 25
0010
0000
1100
0000
0001
0100
1000
0000
,  // measure 26
0010
0000
0101
0000
1000
0100
0001
0000
,  // measure 27
0010
1000
0100
0000
0010
0001
0100
0000
,  // measure 28
1100
0101
1000
0001
,  // measure 29
0100
0000
0110
0000
0001
1000
0100
0000
,  // measure 30
0100
0000
0110
0000
1000
0001
0100
0000
,  // measure 31
1000
0100
1000
0000
0001
0100
0001
0000
,  // measure 32
1100
0101
1000
1000
,  // measure 33
2000
0000
0001
0001
0000
0000
0000
0100
,  // measure 34
0000
0010
0010
0000
0100
0100
3000
0000
,  // measure 35
1002
0000
0010
0000
,  // measure 36
0100
0000
1000
0003
,  // measure 37
0100
1000
0100
0001
0010
1000
0010
0000
,  // measure 38
0100
0001
0100
1000
0010
0001
0010
0000
,  // measure 39
0100
1000
0100
0001
0010
1000
0010
0000
,  // measure 40
0100
0001
0100
1000
0010
0000
0200
0000
,  // measure 41
0000
0000
0000
0300
,  // measure 42
0100
0001
1000
0000
1100
0000
0001
0000
,  // measure 43
0010
0001
0100
0000
1100
0000
0010
0000
,  // measure 44
0100
0001
1000
0000
0100
1000
0001
0000
,  // measure 45
0010
0001
0100
1000
,  // measure 46
0010
1000
0100
0000
1001
0000
0100
0000
,  // measure 47
0010
0001
0100
0000
1001
0000
0100
0000
,  // measure 48
0010
1000
0100
0000
0010
1000
0100
0000
,  // measure 49
0001
0100
1000
0110
,  // measure 50
1000
0100
0010
0000
1100
0000
0001
0000
,  // measure 51
0001
0100
0010
0000
0101
0000
1000
0000
,  // measure 52
1000
0100
0010
0000
0100
1000
0001
0000
,  // measure 53
0010
0010
0100
0100
,  // measure 54
1000
0010
0100
0000
0001
0010
0100
0000
,  // measure 55
1001
0000
0110
0000
0001
1000
0100
0000
,  // measure 56
0110
0000
1000
0001
0000
0000
0110
0000
,  // measure 57
0001
1000
0000
0000
0110
0000
1000
0001
,  // measure 58
1000
0100
0000
0000
0001
0100
0000
0110
,  // measure 59
0000
1000
0001
0010
0000
0000
0000
0000
;

//---------------dance-double - ----------------
#NOTES:
     dance-double:
     :
     Challenge:
     7:
     0.453,0.493,0.359,0.032,0.011:
00000000
00000000
00000000
00000000
,
00000000
00000000
00000000
00000000
,
00001000
00000000
00000100
00000000
,
00000001
00000000
00000100
00001000
,
00010000
01000000
00010000
00000000
11000000
00000000
10000000
00000000
,
00100000
10010000
00100000
00010000
,
00001000
00000100
00000001
00000000
00001100
00000000
00000001
00000000
,
00001000
00001000
00002000
00003000
,
00000001
00000100
00001000
00000000
00011000
00000000
01000000
00000000
,
00100000
01000000
10000000
00000000
00100000
01000000
10000000
00000000
,
01100000
10000000
01010000
10000000
,
00100000
00010000
00001000
00000110
,
00000100
00000001
00001000
00000000
00000110
00000000
00000001
00000000
,
00000100
00001000
00010000
00000000
00010000
01000000
00010000
00000000
,
00100000
01000000
10000000
00000000
00100000
01000000
10000000
00000000
,
00100000
10010000
00010000
00010000
,
00100000
00010000
01000000
00000000
00100000
00001000
00010000
00000000
,
00010000
01000000
00010000
00001000
00000100
00000001
00000010
00000000
,
00001000
00000100
00000001
00000000
00001000
00000010
00000001
00000000
,
00000100
00001000
00010000
00001000
00000100
00000010
00001000
00000000
,
00000010
00010000
00001000
00000000
00000100
00001000
00010000
00000000
,
00000010
00001000
00010000
00001000
00000100
00000010
00000100
00000000
,
00000100
00001000
00010000
01000000
00010000
01000000
00100000
00000000
,
10000000
00000000
00000000
00000000
00010000
00000000
00000000
00000000
10000000
01000000
00000000
00010000
01000000
00000000
10000000
00000000
,
11000000
00000000
00010000
00000000
00010000
01000000
10000000
00000000
,
10000000
01000000
00010000
00000000
01100000
00000000
00010000
00000000
,
00001000
00000000
00000110
00000000
00001000
00000100
00000001
00000000
,
00000001
00000100
00001000
00000000
00000101
00000000
00000010
00000000
,
00001000
00000100
00001000
00000000
00000001
00000000
00000001
00000000
,
00000001
00000100
00000001
00000000
00001000
00000000
00001000
00000000
,
00000001
00000100
00001000
00000000
00010000
00000000
00010000
00000000
,
01000000
01100000
10000000
10000000
,
10000000
00000000
01000000
01000000
00000000
00000000
00000000
00010000
,
00000000
00001000
00001000
00000000
00000010
00000020
00000000
00000000
,
00000001
00000000
00001000
00000000
,
00000100
00000000
00000001
00000030
,
00000110
00000000
00000001
00000000
00001000
00010000
01000000
00000000
,
01100000
00000000
10000000
00000000
00010000
00001000
00000100
00000000
,
00000110
00000000
00000001
00000000
00001000
00010000
01000000
00000000
,
01100000
10000000
01000000
00020000
,
00000000
00000000
00000000
00030000
,
00110000
00101000
00010000
01000000
,
10000000
01000000
00010000
00001000
,
00010100
00011000
00000100
00000001
,
00001000
00001100
00000010
00000001
,
00001010
00010010
00001000
00000100
,
00000001
00000100
00001000
00010000
,
01001000
00011000
01000000
10000000
,
00010000
01010000
00100000
10000000
,
00100000
10000000
01000000
00000000
01010000
00000000
11000000
00000000
,
00100000
00000000
00010000
00000000
00001000
00010000
01000000
00000000
,
01000000
00010000
00001000
00000000
00000110
00000000
00000001
00000000
,
00000010
00001000
00000110
00000001
,
00000110
00000000
00000001
00000000
00000100
00001000
00010000
00000000
,
01100000
00000000
10000000
00000000
01000000
00010000
00001000
00000000
,
00000100
00000000
00001000
00010000
00000000
00000000
01000000
00000000
,
00010000
00001000
00000000
00000000
00000100
00000000
00001000
00010000
,
01000000
10000000
00000000
00000000
00010000
10000000
00000000
01000000
,
00000000
00010000
00001000
00000100
00000000
00000000
00000000
00000000
;

//---------------dance-single - ----------------
#NOTES:
     dance-single:
     :
     Hard:
     8:
     0.530,0.569,0.235,0.204,0.087:
0000
0000
0000
0000
,
0000
0000
0000
0000
0000
0000
0000
0000
0000
0000
0000
0000
0000
0000
0010
0001
,
2000
0000
0000
0000
,
3000
0000
1000
0010
0001
0010
0100
0001
,
1000
0100
0010
0001
,
0101
0010
1000
0100
,
0110
0010
0001
0100
,
0000
0000
0011
0000
0100
0100
0100
0100
,
0001
1000
0100
0000
0000
0110
0000
2100
,
0000
0000
0001
3000
0000
0101
0000
0210
,
0000
0000
0001
0000
0001
0001
0301
0002
,
0000
0100
0003
1000
0100
0001
0100
1000
,
0100
0010
0001
0010
0100
0110
0000
0120
,
0000
0001
0001
0000
1000
1000
0000
0001
,
0100
0100
0100
0100
0000
0031
0000
0100
,
1000
0000
0001
1000
0001
0000
0100
0000
0010
0000
0010
0000
0010
0000
0000
0000
,
1000
0100
0010
0001
0010
0100
0010
1000
,
0010
0100
0001
1000
0010
0001
0100
1000
,
0001
0010
0100
0001
0010
0100
1000
0001
,
0010
1000
0100
0001
1000
0010
0001
1000
,
0001
0100
1000
0010
0001
0010
1000
0100
,
1000
0100
0001
0100
1000
0010
0001
0010
,
0100
0001
0100
1000
0010
0001
0010
1000
,
1010
0000
0000
0000
0011
0000
0000
0000
1000
0100
0000
1000
0001
0000
0100
0000
,
0110
0000
0000
0000
0100
0001
0100
0000
0000
0000
0101
0000
0000
0000
0000
0000
,
1000
0000
0200
0000
0000
0000
0000
0300
,
0010
0001
0010
0000
0100
1000
0100
0000
0000
0000
1001
0000
0000
0000
0000
0000
,
0010
0200
0000
0300
,
0020
0000
0000
0000
0000
0000
0000
0000
0000
0000
0000
0000
0030
0000
1000
0100
,
0020
0000
0000
0000
0000
0000
0000
0000
0000
0000
0000
0000
0030
0000
0001
1000
,
0200
0000
0000
0300
,
1000
0100
1000
0000
0001
0100
0001
0000
1000
0010
1000
0000
0010
0100
0010
0000
,
2000
0000
0001
0010
0000
0000
0000
0200
,
3000
0001
0001
0000
0310
0001
0000
2000
,
0100
0000
0000
0000
0100
0000
0000
3020
,
0000
0000
0100
0000
0100
0000
0000
0000
1000
0000
0000
0000
0000
0000
0031
1000
,
0001
0100
0010
1000
,
0001
0100
0001
0100
0010
1000
0010
1000
,
0001
0000
0100
0000
1000
0000
0100
0000
0001
0000
0010
0000
1000
0000
0000
0010
,
0000
0001
0000
0010
0010
0010
1001
0200
,
0000
0000
0000
0000
0300
0000
1000
0100
0010
0100
1000
0000
0000
0000
0000
0000
,
0001
1000
0100
0010
,
0100
1000
0001
0100
,
1000
0100
0001
0010
,
0100
1000
0010
0001
,
0010
0000
1000
0000
0001
0000
0020
0000
0000
0000
0200
0000
0000
0000
0000
0330
,
0000
0110
0000
0000
0000
0100
1000
0001
,
0010
0100
1000
0020
0000
0000
0000
0000
,
0000
1030
0000
1000
0010
0100
0001
0001
,
0001
1000
0100
1000
0100
1000
0010
0100
,
0001
0010
0100
1000
0001
0100
1000
0100
,
0010
1000
0100
0010
0001
0100
0010
1000
,
0100
0010
0001
0100
0001
0100
0001
0010
,
1000
0010
0100
1000
0001
0010
0100
1000
,
0001
0100
1000
0100
0010
0001
0001
0010
,
1000
0100
0010
0011
0000
0000
1000
0100
,
0010
0011
0000
0101
0000
1100
1000
0100
,
0001
0101
0000
0000
0000
1000
0010
0100
,
0001
1000
0101
2200
0000
0000
3300
0000
;
