#TITLE:BROKEN MY HEART;
#SUBTITLE:;
#ARTIST:NAOKI feat. PAULA TERRY;
#TITLETRANSLIT:;
#SUBTITLETRANSLIT:;
#ARTISTTRANSLIT:;
#CREDIT:;
#BANNER:BROKEN MY HEART.png;
#BACKGROUND:BROKEN MY HEART-bg.png;
#LYRICSPATH:;
#CDTITLE:Dance Dance Revolution 5th Mix.png;
#MUSIC:BROKEN MY HEART.ogg;
#OFFSET:0.000;
#SAMPLESTART:36.330;
#SAMPLELENGTH:15.000;
#SELECTABLE:YES;
#DISPLAYBPM:160.000;
#BPMS:0.000=160.714,4.000=160.167;
#STOPS:;
#BGCHANGES:;

//---------------dance-single - ----------------
#NOTES:
     dance-single:
     :
     Beginner:
     1:
     0.174,0.194,0.029,0.000,0.000:
0000
0000
0000
0000
,
0000
0000
0000
0000
,
0000
0000
0000
0000
,
0000
0000
0000
0000
,
0000
0000
0000
0000
,
0001
0000
0001
0000
,
1000
0000
1000
0000
,
0001
0000
0001
0000
,
1000
0000
0000
0000
,
0010
0000
0010
0000
,
0100
0100
0100
0000
,
0010
0000
0010
0000
,
0100
0100
0100
0000
,
0010
0000
0010
0000
,
0100
0100
0100
0000
,
1000
0000
0001
0000
,
1000
0000
0001
0000
,
1000
0000
0000
0000
,
1000
0000
0100
0000
,
0001
0001
0001
0000
,
0001
0001
0001
0000
,
0001
0000
0000
0000
,
0001
0000
0100
0000
,
0001
0000
1000
0000
,
0001
0000
0000
0000
,
1000
0000
1000
0000
,
0001
0000
0001
0000
,
1000
0000
1000
0000
,
0001
0000
0001
0000
,
0100
0000
0010
0000
,
0100
0000
0010
0000
,
0010
0000
0000
0000
,
0010
0000
0000
0000
,
1000
1000
0000
0000
,
0100
0000
0100
0000
,
0001
0001
0000
0000
,
0100
0000
0100
0000
,
1000
1000
0000
0000
,
0100
0000
0100
0000
,
0001
0001
0000
0000
,
0100
0000
0100
0000
,
0110
0000
0010
0000
,
0010
0000
0100
0000
,
0001
0000
1000
0000
,
0001
0000
1000
0000
,
0110
0000
0010
0000
,
0010
0000
0100
0000
,
1000
0000
0001
0000
,
1000
0000
0000
0000
,
1000
0000
1000
0000
,
0001
0000
0001
0000
,
1000
0000
1000
0000
,
0001
0000
0001
0000
,
0100
0000
0010
0000
,
0100
0000
0010
0000
,
0000
0100
0000
0100
,
0000
0001
0000
1000
,
1000
0000
1000
0000
,
0001
0000
0001
0000
,
1000
0000
1000
0000
,
0001
0000
0001
0000
,
0100
0000
0010
0000
,
0100
0000
0010
0000
,
0000
0100
0000
0100
,
0000
0100
0000
1001
,
0000
0010
0000
0100
,
0000
0010
0000
0100
,
0100
0000
0000
0000
;

//---------------dance-single - ----------------
#NOTES:
     dance-single:
     :
     Easy:
     4:
     0.330,0.389,0.232,0.000,0.000:
0000
0000
0000
0000
,
0000
0000
0000
0000
,
0000
0000
0000
0000
,
0000
0000
0000
0000
,
0000
0000
0000
0000
,
0001
0000
0001
0100
,
1000
0000
1000
0100
,
0001
0000
0001
0100
,
1000
0000
0000
0000
,
0010
0000
0010
0000
,
0010
1000
0100
0001
,
0010
0000
0010
0000
,
0010
0001
0100
1000
,
0010
0000
0010
0000
,
0010
1000
0100
0001
,
1000
0100
0001
0010
,
0100
1001
0100
1001
,
0010
1000
0100
1001
,
0100
0001
0010
1001
,
0110
0001
0010
1000
,
0001
0100
1000
0010
,
0001
1001
0001
0100
,
1000
1001
1000
0100
,
0001
0000
1000
0000
,
0001
0000
0000
0000
,
1000
0100
1000
1001
,
0001
0100
0001
1001
,
1000
0100
1000
0010
,
0001
0100
0001
0010
,
0100
1001
0010
1000
,
0100
1001
0010
0001
,
0010
1000
0100
0010
,
0100
0001
0010
0100
,
1000
1000
0100
0100
,
0001
0000
0001
0000
,
0001
0001
0100
0100
,
1000
0000
1000
0000
,
1000
1000
0100
0100
,
0001
0000
0001
0000
,
0001
0001
0100
0100
,
1000
0000
1000
0000
,
0110
0001
0010
1000
,
0010
0001
0100
1000
,
0001
0000
1000
0000
,
0001
0000
1000
0000
,
0110
1000
0010
0001
,
0010
1000
0100
0001
,
1000
0000
0001
0000
,
1000
0000
0000
0000
,
0010
0010
1000
1001
,
0100
1000
0001
0100
,
0010
1000
0100
0010
,
0100
0001
0010
1001
,
0010
0001
0010
0100
,
0010
1000
0100
1001
,
0100
0100
1001
0100
,
0001
0100
1000
1001
,
0010
0010
0001
1001
,
0100
0001
1000
0100
,
0010
0001
0100
0010
,
0100
1000
0010
1001
,
0010
1000
0010
0100
,
0010
0001
0100
1001
,
0100
0100
1001
0100
,
1000
0100
0001
1001
,
0010
0010
1000
0100
,
0010
0010
0001
0100
,
1001
0000
0000
0000
;

//---------------dance-single - ----------------
#NOTES:
     dance-single:
     :
     Medium:
     5:
     0.409,0.421,0.280,0.000,0.000:
0000
0000
0000
0000
,
0000
0000
0000
0000
,
0000
0000
0000
0000
,
0000
0000
0000
0000
,
0000
0000
0000
0000
,
0001
0000
0100
0000
1000
0000
0001
0100
,
1000
0000
0100
0000
0001
0000
1000
0100
,
0001
0000
0100
0000
1000
0000
0001
0100
,
1000
0000
0000
0000
,
0010
1000
0001
0010
,
1100
0101
1000
0100
,
0010
0001
1000
0010
,
0101
1100
0001
0100
,
0010
1000
0001
0010
,
1100
0101
0010
1000
,
0010
0100
0010
0001
,
1100
0101
1000
0100
,
0010
0001
1000
0101
,
0010
1000
0101
1000
,
0010
0000
1001
0000
1000
0100
0001
0000
,
0100
0000
1000
0000
0001
0100
1000
0000
,
0110
0001
0010
1000
,
0011
1100
0010
0001
,
1100
0010
0101
0010
,
1000
0001
0100
0000
0010
0000
1000
0000
,
1100
0000
0001
0000
0010
0100
1000
0000
,
0101
0000
1000
0000
0010
0100
0001
0000
,
0001
0100
1000
0000
1000
0100
0001
0000
,
0010
0010
1100
1001
,
0010
0001
0100
1000
,
0010
1000
0100
0001
,
0010
1100
0001
1000
,
0010
1100
0001
1000
,
0010
0001
0010
0100
,
0010
1000
1000
1000
,
0010
1000
0010
0100
,
0010
0001
0001
0001
,
1000
0000
0010
0000
0100
0001
0010
0000
,
1000
0000
0010
0000
0100
0001
0010
0000
,
1000
0010
0100
0001
,
0010
0100
1000
0010
,
0010
0001
0010
1000
,
0010
0001
0100
0010
,
1000
0000
0001
0000
1000
0100
0001
0000
,
1000
0000
0001
0000
1000
0010
0001
0000
,
0010
1000
0100
1000
,
0001
0100
0001
0010
,
1100
0010
0101
0010
,
1000
0001
0100
0000
1000
0000
0001
0100
,
0000
0000
0010
0000
1000
0000
0001
0100
,
0000
0000
0010
0000
0001
0000
1000
0100
,
0000
0000
0010
0000
1000
0000
0001
0100
,
0000
1000
0100
0001
,
0010
0001
1000
0010
,
0100
0001
1000
0100
,
0010
0001
0101
1000
,
0010
1000
1100
0001
,
0010
0000
1000
0000
0010
1000
0100
0000
,
0010
0000
0001
0000
0010
0001
0100
0000
,
1000
0001
0100
0100
,
0001
1000
0100
0100
,
0010
0001
1000
0010
,
0100
0001
1000
0100
,
0010
0000
1100
0000
0010
1000
0100
0000
,
0010
0000
0101
0000
0010
0001
0100
0000
,
0110
0000
0001
0000
0010
0100
1000
0000
,
0010
0100
0001
0000
1000
0000
0001
0000
,
0010
0000
0000
0000
;

//---------------dance-single - ----------------
#NOTES:
     dance-single:
     :
     Hard:
     9:
     0.586,0.583,0.619,0.000,0.053:
0000
0000
0000
0000
,
0000
0000
0000
0000
,
0000
0000
0000
0000
,
0000
0000
0000
0000
,
0000
0000
0000
0000
,
0010
0000
1000
0000
0100
0000
1000
0100
1000
0000
0010
0000
0100
0000
0000
0000
,
0010
0000
1000
0000
0001
0000
0010
0100
0010
0000
0001
0000
1000
0000
0000
0000
,
0010
0000
1000
0000
0100
0000
1000
0100
1000
0000
0010
0000
0100
0000
0000
0000
,
0001
0000
0000
0000
,
1000
0000
0100
0000
0010
0000
0001
0100
0001
0000
0100
0000
1000
0000
0000
0000
,
0100
0000
0010
0000
0001
0000
0010
0100
0010
0000
1000
0000
0001
0000
0000
0000
,
0010
0000
0001
0000
0100
0000
0001
1000
0001
0000
0010
0000
0100
0000
0000
0000
,
1000
0000
0001
0000
0100
0000
0010
1000
0010
0000
0100
0000
0001
0000
0000
0000
,
1000
0000
0100
0000
0001
0000
1000
0010
1000
0000
0010
0000
0001
0000
0000
0000
,
1000
0000
0001
0000
0010
0000
0100
1000
0100
0000
0010
0000
0100
0000
0000
0000
,
0001
0000
0100
0000
1000
0000
0010
1000
0010
0000
1000
0000
0001
0000
0000
0000
,
0010
0000
0100
0000
1000
0000
0001
0100
0001
0000
0010
0000
0100
0000
0000
0000
,
1001
0000
1000
0100
0010
0000
1000
0100
,
0001
0000
1000
0010
0001
0000
0100
0010
,
0001
0000
0001
0010
0100
0000
0001
0010
,
1000
0000
0001
0100
1000
0000
0110
0000
,
1001
0000
0001
0010
0100
0000
0001
0010
,
0100
0000
0001
0010
0100
1000
0100
0001
,
0000
1000
0010
0001
0000
1000
0100
0001
,
0000
1000
0001
0000
0010
0000
0010
0000
,
1100
0000
0011
0000
1000
0000
0010
0100
,
0001
0000
1010
0000
0001
0000
0110
0001
,
1000
0000
0011
0000
1000
0000
0110
1000
,
0001
0000
0110
0000
0001
0010
0100
1000
,
1001
0000
0101
0000
1100
0001
0100
0000
,
1001
0000
1100
0000
0101
1000
0100
0000
,
1001
0000
0100
1000
0000
0000
1001
0000
,
0100
0001
1000
0100
0000
0010
0010
0001
,
0000
1000
0000
1001
0000
1100
0000
0010
,
0000
0000
0000
0000
0000
0000
0000
0001
,
0000
1000
0000
1001
0000
1100
0000
0010
,
0000
0000
0000
0000
,
0001
0010
0100
1000
0010
0100
1000
0100
,
0001
0010
0100
1000
0010
0100
1000
0100
,
0001
0100
0010
1000
0100
0010
1000
0010
,
0001
0100
0010
1000
0100
0010
1000
0010
,
0110
0000
1000
1100
0000
0001
0101
0000
,
0110
0000
0001
0101
0000
1000
1100
0000
,
0110
0000
1000
1001
0000
1000
1100
0000
,
0110
0000
0001
1001
0000
0001
0101
0000
,
0110
0000
1000
1100
0000
0001
0101
0000
,
0110
0000
0001
0101
0000
1000
1100
0100
,
0000
0001
0101
0100
0000
1000
1100
0100
,
0000
1000
0001
0000
0010
0000
0010
0000
,
0100
0000
0100
0000
1001
0000
0001
0101
,
1000
0000
0010
0000
0100
0000
1000
1100
,
0001
0000
0010
0000
0100
0000
0001
0101
,
1000
0000
0110
0000
1000
0010
0010
0001
,
0110
0000
0101
0000
1000
0100
0001
0100
,
0110
0000
1100
0000
0001
0100
1000
0100
,
0001
0101
1000
1100
,
0001
0000
0101
0000
0010
0000
0010
0001
,
1000
0000
1010
0000
0001
0000
0010
0001
,
1000
0000
1100
0000
0101
0000
1000
0100
,
0001
0000
1100
0000
0101
0000
1000
0010
,
0001
0000
0110
0000
1000
0010
0110
0100
,
0001
0100
0010
0100
1000
0100
0001
0010
,
0001
0100
0010
0100
1000
0100
0001
0010
,
1100
0000
0001
0100
0000
0000
1100
0000
,
0001
0010
0000
0100
1000
0010
0100
1000
,
0100
0000
0101
0000
0000
0010
1000
0100
,
0000
0001
0100
0010
0000
1000
0001
0000
,
0100
0000
0000
0000
;

//---------------dance-double - ----------------
#NOTES:
     dance-double:
     :
     Easy:
     4:
     0.321,0.389,0.145,0.000,0.000: // measure 1
00000000
00000000
00000000
00000000
,  // measure 2
00000000
00000000
00000000
00000000
,  // measure 3
00000000
00000000
00000000
00000000
,  // measure 4
00000000
00000000
00000000
00000000
,  // measure 5
00000000
00000000
00000000
00000000
,  // measure 6
00000001
00000000
00000100
00000000
,  // measure 7
00000010
00001000
00010000
00100000
,  // measure 8
10000000
00000000
01000000
00000000
,  // measure 9
10010000
00000000
00000000
00000000
,  // measure 10
00100000
00000000
00010000
00000000
,  // measure 11
00100000
00000000
10000000
00000000
,  // measure 12
01000000
00000000
01000000
00000000
,  // measure 13
00100000
00010000
00001000
00000000
,  // measure 14
00000010
00000000
00010000
00000000
,  // measure 15
00000010
00000000
00010000
00000000
,  // measure 16
00000010
00000001
00000100
00001000
,  // measure 17
00000010
00000000
00000100
00000000
,  // measure 18
00000010
00000100
00000001
00000100
,  // measure 19
00000010
00001000
00010000
00100000
,  // measure 20
10000000
10000000
00010000
01000000
,  // measure 21
00010000
00010000
10000000
01000000
,  // measure 22
00100000
00010000
00001000
00000010
,  // measure 23
00000100
00001001
00000100
00001000
,  // measure 24
00000010
00000100
00000001
00000110
,  // measure 25
00001000
00000001
00000000
00000000
,  // measure 26
00000001
00000010
00000010
00000100
,  // measure 27
00000100
00000010
00001000
00010000
,  // measure 28
00100000
00001000
00000010
00000001
,  // measure 29
00000100
00000100
00001000
00000100
,  // measure 30
00001000
00000010
00000001
00000110
,  // measure 31
00001000
00010000
00100000
10000000
,  // measure 32
00010000
01000000
01000000
10000000
,  // measure 33
01000000
01000000
00010000
01000000
,  // measure 34
00100000
00010000
00001000
00000010
,  // measure 35
00000001
00000000
00000100
00000000
,  // measure 36
00000010
00001000
00010000
00100000
,  // measure 37
10000000
00000000
01000000
00000000
,  // measure 38
00100000
00010000
00001000
00000010
,  // measure 39
00000001
00000000
00000100
00000000
,  // measure 40
00000010
00001000
00010000
00100000
,  // measure 41
10000000
00000000
01000000
00000000
,  // measure 42
10000000
00100000
01000000
10010000
,  // measure 43
01000000
00100000
00010000
00001000
,  // measure 44
00000010
00000010
00010000
00010000
,  // measure 45
00000010
00000001
00001000
00000100
,  // measure 46
00001001
00000100
00000010
00001000
,  // measure 47
00000110
00000001
00000010
00001000
,  // measure 48
00000010
00001000
00010000
00100000
,  // measure 49
10000000
10000000
00000000
00000000
,  // measure 50
00100000
10010000
10000000
01000000
,  // measure 51
10010000
00010000
01000000
10000000
,  // measure 52
00100000
00010000
00001000
00000010
,  // measure 53
00000001
00000001
00000100
00001000
,  // measure 54
00000001
00000001
00000100
00000100
,  // measure 55
00000010
00000010
00001000
00010000
,  // measure 56
00100000
00100000
10000000
10000000
,  // measure 57
00010000
00010000
10010000
10000000
,  // measure 58
01000000
10010000
00010000
01000000
,  // measure 59
10010000
10000000
01000000
10010000
,  // measure 60
00010000
01000000
10000000
10000000
,  // measure 61
01000000
01000000
00010000
01000000
,  // measure 62
00100000
00010000
00001000
00000010
,  // measure 63
00000001
00000001
00000100
00001000
,  // measure 64
00001001
00000001
00000100
00001001
,  // measure 65
00001000
00000100
00000001
00000001
,  // measure 66
00000100
00000010
00001000
00010000
,  // measure 67
00100000
10000000
10000000
01000000
,  // measure 68
00010000
00000000
00000000
00000000
;

//---------------dance-double - ----------------
#NOTES:
     dance-double:
     :
     Medium:
     6:
     0.463,0.454,0.600,0.000,0.000: // measure 1
00000000
00000000
00000000
00000000
,  // measure 2
00000000
00000000
00000000
00000000
,  // measure 3
00000000
00000000
00000000
00000000
,  // measure 4
00000000
00000000
00000000
00000000
,  // measure 5
00000000
00000000
00000000
00000000
,  // measure 6
00100000
00000000
00110000
00000000
10000000
01000000
00010000
00001000
,  // measure 7
00000100
00000000
00000001
00000100
00000001
00000100
00001000
00000000
,  // measure 8
00000010
00000000
00001010
00000000
00000001
00000100
00001000
00010000
,  // measure 9
01000000
00000000
00000000
00000000
,  // measure 10
10000000
01000000
00010000
00001000
,  // measure 11
00101000
00000000
00110000
00000000
10000000
00010000
01000000
00000000
,  // measure 12
00100000
00000000
10000000
00000000
01000000
00010000
00001000
00000000
,  // measure 13
00101000
00110000
01000000
10000000
,  // measure 14
00100000
01000000
00010000
00001000
,  // measure 15
00000100
00000010
00000101
00001100
,  // measure 16
00000010
00000100
00001000
00010000
,  // measure 17
01000000
00100000
11000000
01010000
,  // measure 18
10000000
01000000
00010000
00001000
,  // measure 19
00010100
00001100
00000001
00000100
,  // measure 20
00000001
00000010
00001000
00000000
00000010
00001000
00010000
00000000
,  // measure 21
00001000
00010000
00100000
00000000
00010000
00100000
10000000
00000000
,  // measure 22
10000000
01000000
00010000
00001000
,  // measure 23
00010010
00001010
00010000
00001000
,  // measure 24
00001000
00000100
00001000
00000000
00001000
00000100
00000001
00000100
,  // measure 25
00000000
00000001
00001000
00000000
00000000
00000000
00000000
00000000
,  // measure 26
00000110
00000000
00001000
00000000
00010000
00000000
00001000
00000100
,  // measure 27
00000001
00000000
00000100
00000000
00001000
00000000
00010000
01000000
,  // measure 28
10000000
00000000
01100000
00000000
11000000
00000000
00100000
00010000
,  // measure 29
00001000
00000000
00010010
00000000
00001000
00000010
00000100
00000000
,  // measure 30
00000101
00000000
00001100
00000000
00000010
00001000
00010000
00000000
,  // measure 31
00100000
00010000
00001000
00000000
01001000
00000000
01010000
00000000
,  // measure 32
00100000
00010000
11000000
00100000
,  // measure 33
10000000
01010000
10010000
01000000
,  // measure 34
10000000
01000000
10000000
11000000
,  // measure 35
00000000
00000000
00000000
00000000
,  // measure 36
00010000
01000000
00010000
01010000
,  // measure 37
00000000
00000000
00000000
00000000
,  // measure 38
10000000
01000000
00110000
00101000
,  // measure 39
00010000
00100000
00110000
11000000
,  // measure 40
00010000
00001000
00000100
00000001
,  // measure 41
00001010
00010010
00001000
00000100
,  // measure 42
00000110
00001000
00010000
00010010
,  // measure 43
00001010
00000100
00001000
00000010
,  // measure 44
00010010
00011000
00101000
00011000
,  // measure 45
01000000
00100000
00010000
01000000
,  // measure 46
00100000
00010000
00001000
00010010
,  // measure 47
00001010
00000100
00001000
00000010
,  // measure 48
00000100
00000001
00000010
00000000
00000100
00001000
00000010
00000100
,  // measure 49
00000000
00000001
00001000
00000000
00000000
00000000
00000000
00000000
,  // measure 50
00001100
00000000
00000001
00000000
00000101
00000000
00001000
00010000
,  // measure 51
01000000
00000000
11000000
00000000
00010000
00000000
10000000
01000000
,  // measure 52
00010000
00000000
01100000
00000000
00010000
00000000
00001000
00000100
,  // measure 53
00000001
00000000
00001100
00000000
00000001
00000100
00001000
00000000
,  // measure 54
00000001
00000000
00000110
00000000
00001000
00010000
01000000
00000000
,  // measure 55
01100000
00000000
10000000
00000000
01000000
00010000
00001000
00000000
,  // measure 56
00000100
00000010
00000001
00000000
00000110
00000000
00000101
00000000
,  // measure 57
00000100
00000010
00000001
00000000
00000110
00000000
00000101
00000000
,  // measure 58
00001010
00000000
00000100
00000000
00000010
00000000
00000100
00000001
,  // measure 59
00000010
00000000
00001100
00000000
00000001
00000000
00000100
00001000
,  // measure 60
00010000
00000000
01000000
00000000
11000000
00000000
10000000
01000000
,  // measure 61
00010000
00000000
11000000
00000000
01000000
10000000
00100000
00000000
,  // measure 62
01010000
10000000
11000000
00010000
,  // measure 63
01000000
00010000
00001000
00000100
,  // measure 64
00000010
00000100
00000001
00000000
00001010
00000000
00000101
00000000
,  // measure 65
00000010
00000100
00001000
00000000
00000011
00000000
00001000
00000000
,  // measure 66
00000010
00000001
00000100
00000100
,  // measure 67
00001000
00000000
00010000
00000000
01000000
10000000
00010000
00000000
,  // measure 68
01000000
00000000
00000000
00000000
;

//---------------dance-double - ----------------
#NOTES:
     dance-double:
     :
     Hard:
     9:
     0.549,0.551,0.426,0.000,0.024: // measure 1
00000000
00000000
00000000
00000000
,  // measure 2
00000000
00000000
00000000
00000000
,  // measure 3
00000000
00000000
00000000
00000000
,  // measure 4
00000000
00000000
00000000
00000000
,  // measure 5
00000000
00000000
00000000
00000000
,  // measure 6
10000000
00000000
00000000
00010000
00000000
00000000
01000000
00000000
00000000
00000000
00001000
00000000
01000000
00000000
00010000
00000000
,  // measure 7
00100000
00000000
00000000
00001000
00000000
00000000
00010000
00000000
00000000
00000000
00001000
00000000
00000100
00000000
00000001
00000000
,  // measure 8
00001000
00000000
00000000
00000010
00000000
00000000
00000001
00000000
00000000
00000000
00000010
00000000
00001000
00000000
00000001
00000000
,  // measure 9
00000010
00000000
00000000
00000000
,  // measure 10
00000011
00000000
00000100
00000000
00000010
00001000
00010000
00001000
,  // measure 11
00000100
00000000
00000000
00001000
00000000
00000000
00010000
00000000
00000000
00000000
01000000
00000000
10000000
00000000
00000000
00000000
,  // measure 12
10100000
00000000
01000000
00000000
00100000
00010000
00001000
00010000
,  // measure 13
01000000
00000000
00000000
00010000
00000000
00000000
00001000
00000000
00000000
00000000
00000100
00000000
00000001
00000000
00000000
00000000
,  // measure 14
00000011
00000000
00000101
00000000
00001000
00010000
01000000
00000000
,  // measure 15
11000000
00000000
10100000
00000000
00010000
00001000
00000010
00000000
,  // measure 16
00000011
00000000
00000101
00000000
00000100
00001000
00010000
00000000
,  // measure 17
00010000
00000000
00011000
00000000
00100000
00010000
00001000
00000000
,  // measure 18
00001000
00000100
00000010
00001000
00000001
00000100
00001000
00000000
,  // measure 19
00010000
01000000
10000000
00010000
01000000
00100000
00010000
00000000
,  // measure 20
00001000
00000100
00000001
00001000
00000001
00000010
00001000
00000000
,  // measure 21
00010000
01000000
00100000
10000000
00100000
01000000
00010000
00000000
,  // measure 22
00001000
00000100
00000001
00000010
00000100
00001000
00000001
00000100
,  // measure 23
00001000
00010000
01000000
00100000
00010000
01000000
00100000
10000000
,  // measure 24
00000000
01000000
10000000
00100000
00000000
01000000
00010000
00100000
,  // measure 25
00000000
10000000
01000000
00000000
00010000
00000000
01000000
00000000
,  // measure 26
00100000
00000000
11000000
00000000
00100000
00000000
00010000
00001000
,  // measure 27
00000010
00000000
00000110
00000000
00000010
00000001
00000100
00001000
,  // measure 28
00010000
00000000
01100000
00000000
10000000
01000000
00010000
00001000
,  // measure 29
00000100
00000000
00000101
00000000
00000010
00000001
00000100
00001000
,  // measure 30
00010000
00000000
00101000
00000000
00100000
00010000
01000000
00000000
,  // measure 31
01001000
00000000
01010000
00000000
00100000
00001000
00010000
00000000
,  // measure 32
00010010
00000000
00001000
00000100
00000001
00000000
00001010
00000000
,  // measure 33
00000001
00000100
00001000
00010000
00000010
00000100
00001000
00010000
,  // measure 34
00000000
01000000
00000000
10000000
00000000
00110000
00000000
11000000
,  // measure 35
00000000
00000000
00000000
00000000
00000000
00000000
00000000
00010000
,  // measure 36
00000000
00001000
00000000
00000100
00000000
00000101
00000000
00001010
,  // measure 37
00000000
00000000
00000000
00000000
,  // measure 38
00000001
00000010
00000100
00001000
00000010
00000100
00001000
00010000
,  // measure 39
01000000
10000000
00110000
11000000
,  // measure 40
10000000
01000000
00100000
00010000
01000000
00100000
00010000
00001000
,  // measure 41
00000100
00000001
00001010
00000101
,  // measure 42
00000001
00000100
00001000
00000100
00000001
00000010
00001000
00010000
,  // measure 43
00100000
10000000
01000000
00100000
00010000
10000000
00100000
00010000
,  // measure 44
00001000
00000100
00000010
00001000
00000100
00000010
00000001
00000100
,  // measure 45
00001000
00010000
00100000
01000000
00010000
10000000
01000000
00010000
,  // measure 46
00001000
00000100
00000001
00001000
00000100
00000010
00000001
00000100
,  // measure 47
00001000
00010000
01000000
10000000
01000000
00010000
00001000
00000000
,  // measure 48
00000000
00001000
00000100
00001000
00000000
00010000
01000000
00010000
,  // measure 49
00000000
00001000
00000100
00000000
00000001
00001000
00000100
00000000
,  // measure 50
00000011
00000000
00000101
00000000
00000010
00000000
00000100
00000001
,  // measure 51
00000010
00000000
00001001
00000000
00000100
00001000
00010000
01000000
,  // measure 52
10000000
00000000
00110000
00000000
10000000
01000000
00010000
00001000
,  // measure 53
00000100
00000000
00000011
00000000
00001000
00000001
00000100
00001000
,  // measure 54
00010000
00000000
00010010
00000000
00000010
00001000
00000100
00000000
,  // measure 55
00010100
00000000
00001100
00000000
00000100
00001000
00000010
00000000
,  // measure 56
00000001
00000100
00000001
00000000
00000001
00000100
00001000
00000000
,  // measure 57
00010000
01000000
10000000
00000000
00100000
10000000
01000000
00000000
,  // measure 58
00110000
00000000
10000000
00000000
11000000
00000000
00010000
00001000
,  // measure 59
00000100
00000000
00000101
00000000
00001000
00000001
00000100
00001000
,  // measure 60
00010000
00000000
11000000
00000000
00010000
10000000
01000000
00010000
,  // measure 61
00001000
00000000
00000110
00000000
00000100
00000001
00000010
00001000
,  // measure 62
00010000
00000000
00101000
00000000
00010000
00100000
00001000
00000000
,  // measure 63
00110000
00000000
00101000
00000000
00010000
01000000
10000000
00000000
,  // measure 64
10000000
00100000
01000000
00000000
00100000
00010000
00001000
00000000
,  // measure 65
00010000
00001000
00000010
00000000
00000001
00000100
00000010
00000000
,  // measure 66
00000101
00000000
00001000
00000000
00000000
00000100
00001000
00010000
,  // measure 67
00000000
01000000
00010000
00001000
00000000
00000100
00000010
00000000
,  // measure 68
00001001
00000000
00000000
00000000
;

//---------------dance-single - ----------------
#NOTES:
     dance-single:
     :
     Challenge:
     9:
     0.640,0.754,0.300,0.232,0.208:
0000
0000
0000
0000
,
0000
0000
0000
0000
,
0000
0000
0000
0000
,
0000
1000
0000
1000
0000
1000
0000
0001
,
0000
0000
0000
0000
0000
0000
0000
0000
0000
0000
0000
0000
0001
0000
1000
0010
,
0100
0000
0000
0000
0001
0000
0000
0000
1000
0000
0000
0000
0100
0000
0000
1000
,
0001
0000
0000
0000
0100
0000
0000
0000
0001
0000
0000
0000
1000
0000
0000
0001
,
0010
0000
0000
0000
0001
0000
0000
0000
1000
0000
0000
0010
0100
0001
1000
0000
,
0200
0000
0000
0020
0300
0000
0000
0030
,
0100
1000
0001
0100
0001
1000
0010
0100
,
0001
0000
1000
0000
0100
0000
0000
0000
0010
0000
0001
1000
0000
0001
1000
0000
,
0010
0100
0001
0100
0010
1000
0100
0010
,
0100
0000
1000
0000
0001
0000
0000
0000
0010
0000
0100
1000
0000
0100
0010
0000
,
0001
0100
0001
1000
0010
0100
0001
1000
,
0100
0000
0010
0000
0001
0000
0000
0000
0010
0000
0001
0100
0000
0010
0100
0000
,
1000
0100
0010
1000
0100
0010
0001
0100
,
1000
0000
0000
0000
0100
0000
0100
0000
0000
0000
0001
0000
0000
0000
1000
0100
,
1000
0100
0010
0001
0100
0010
0000
0000
,
1000
0100
0010
0001
0010
0100
0000
0000
,
1000
0100
0010
0001
0100
1000
0000
0100
,
0020
0000
2030
0000
3002
0000
0203
0001
,
0301
0100
0010
1000
0010
0001
0000
0000
,
0001
0100
0010
1000
0010
0001
1000
0001
,
0000
0100
0000
0100
0000
0100
0000
0100
,
0000
0100
0100
0000
0000
0000
0000
0000
,
0011
0110
0101
1100
,
1001
1010
0110
0101
,
1001
0000
1010
0000
1100
0000
0001
0010
,
0000
0000
0000
0001
0100
1000
0100
0001
,
1000
0000
0100
1000
0100
0000
1000
0001
1000
0000
0001
0100
0001
0000
1000
0100
,
0020
0230
2300
3020
,
0130
0001
0100
0001
0000
0000
1000
0001
,
0100
0000
0100
0000
0100
0000
0100
0000
0100
0000
0100
0000
0100
0010
0100
0010
,
0100
0001
0000
1001
0000
1001
0000
1001
,
0000
0000
0000
0000
0000
0000
0000
1010
,
0000
0101
0000
0011
0000
1100
0000
1001
,
0020
0000
0000
0000
0032
0000
0000
0000
1003
0000
0001
0100
0001
0100
0001
0000
,
1000
0100
0010
0001
0010
0000
0001
0010
0100
1000
0100
0000
0020
0000
0000
0000
,
0000
0000
0031
0010
0100
1000
0100
0000
0010
0001
0200
0000
0000
0000
0000
0000
,
0301
0000
0010
0000
0001
1000
0000
0100
1000
0000
1000
0010
0000
0100
0001
0000
,
1000
0000
1000
0000
1000
0000
1000
0000
1000
0000
1000
0000
1000
0001
1000
0000
,
0001
0010
0100
1000
0010
0100
0000
0000
,
0001
0010
0100
1000
0100
0010
0000
0000
,
0001
0010
0100
1000
0010
0001
0000
1000
,
0020
0000
0032
0000
2003
0000
3200
1000
,
1300
0010
0100
0001
0100
1000
0000
0000
,
1000
0010
0100
0001
0100
1000
0001
1001
,
0000
0010
0000
0010
0000
0010
0000
0010
,
0000
0010
0010
0000
0000
0000
0000
0000
,
0000
1100
0110
1100
,
0011
0110
0011
0101
,
1100
0000
0011
0000
1010
0000
0100
0001
,
0000
0000
0000
1000
0100
0001
0100
1000
,
0010
0000
1000
0001
0100
0000
0001
1000
0010
0000
1000
0001
0100
0000
0001
1000
,
0020
0000
1000
0001
0230
0000
0001
1000
0320
0000
1000
0001
0230
0000
0001
1000
,
0310
0100
0001
1000
0000
0000
0010
0100
,
0001
0000
0001
0000
0001
0000
0001
0000
0001
0000
0001
0000
0001
1000
0001
1000
,
0001
0100
1000
0100
0010
1000
0100
0010
,
0001
1000
0100
1000
0010
0100
0001
0010
,
0001
0010
1000
0010
0001
0100
1000
0100
,
0000
0000
0000
0001
0100
1000
0100
0001
,
1000
0100
0100
0100
1000
0010
0010
0010
,
1000
0001
0001
0001
0100
0010
0010
0010
,
1000
0100
0001
0010
0000
0000
1000
0001
,
0010
0000
0010
0000
0010
0000
0010
0000
0010
0000
0010
0000
0010
0100
0010
0000
,
0000
0001
0000
0100
0000
1000
0000
0100
,
0000
0001
0000
0100
0000
1000
0001
0000
,
2002
0000
0000
3003
;

//---------------dance-double - ----------------
#NOTES:
     dance-double:
     :
     Beginner:
     1:
     0.178,0.227,0.068,0.000,0.000: // measure 1
00000000
00000000
00000000
00000000
,  // measure 2
00000000
00000000
00000000
00000000
,  // measure 3
00000000
00000000
00000000
00000000
,  // measure 4
00000000
00000000
00000000
00000000
,  // measure 5
00000000
00000000
00000000
00000000
,  // measure 6
00000001
00000000
00000100
00000000
,  // measure 7
00000010
00000000
00010000
00000000
,  // measure 8
10000000
00000000
01000000
00000000
,  // measure 9
10010000
00000000
00000000
00000000
,  // measure 10
00100000
00000000
00010000
00000000
,  // measure 11
00100000
00000000
10000000
00000000
,  // measure 12
01000000
00000000
01000000
00000000
,  // measure 13
00100000
00000000
00001000
00000000
,  // measure 14
00000010
00000000
00010000
00000000
,  // measure 15
00000010
00000000
00010000
00000000
,  // measure 16
00000010
00000000
00000100
00000000
,  // measure 17
00000010
00000000
00000100
00000000
,  // measure 18
00000010
00000000
00000001
00000000
,  // measure 19
00000010
00000000
00010000
00000000
,  // measure 20
10000000
00000000
00010000
00000000
,  // measure 21
00010000
00000000
10000000
00000000
,  // measure 22
00100000
00000000
00001000
00000000
,  // measure 23
00000100
00000000
00000100
00000000
,  // measure 24
00000010
00000000
00000001
00000000
,  // measure 25
00001000
00000000
00000000
00000000
,  // measure 26
00000001
00000000
00000010
00000000
,  // measure 27
00000100
00000000
00001000
00000000
,  // measure 28
00100000
00000000
00000010
00000000
,  // measure 29
00000100
00000000
00001000
00000000
,  // measure 30
00001000
00000000
00000001
00000000
,  // measure 31
00001000
00000000
00100000
00000000
,  // measure 32
00010000
00000000
01000000
00000000
,  // measure 33
01000000
00000000
00010000
00000000
,  // measure 34
00100000
00000000
00001000
00000000
,  // measure 35
00000001
00000000
00000100
00000000
,  // measure 36
00000010
00000000
00010000
00000000
,  // measure 37
10000000
00000000
01000000
00000000
,  // measure 38
00100000
00000000
00001000
00000000
,  // measure 39
00000001
00000000
00000100
00000000
,  // measure 40
00000010
00000000
00010000
00000000
,  // measure 41
10000000
00000000
01000000
00000000
,  // measure 42
10000000
00000000
01000000
00000000
,  // measure 43
01000000
00000000
00010000
00000000
,  // measure 44
00000010
00000000
00010000
00000000
,  // measure 45
00000010
00000000
00001000
00000000
,  // measure 46
00001001
00000000
00000010
00000000
,  // measure 47
00000110
00000000
00000010
00000000
,  // measure 48
00000010
00000000
00010000
00000000
,  // measure 49
10000000
00000000
00000000
00000000
,  // measure 50
00100000
00000000
10000000
00000000
,  // measure 51
10010000
00000000
01000000
00000000
,  // measure 52
00100000
00000000
00001000
00000000
,  // measure 53
00000001
00000000
00000100
00000000
,  // measure 54
00000001
00000000
00000100
00000000
,  // measure 55
00000010
00000000
00001000
00000000
,  // measure 56
00100000
00000000
10000000
00000000
,  // measure 57
00010000
00000000
10010000
00000000
,  // measure 58
01000000
00000000
00010000
00000000
,  // measure 59
10010000
00000000
01000000
00000000
,  // measure 60
00010000
00000000
10000000
00000000
,  // measure 61
01000000
00000000
00010000
00000000
,  // measure 62
00100000
00000000
00001000
00000000
,  // measure 63
00000001
00000000
00000100
00000000
,  // measure 64
00001001
00000000
00000100
00000000
,  // measure 65
00001000
00000000
00000001
00000000
,  // measure 66
00000100
00000000
00001000
00000000
,  // measure 67
00100000
00000000
10000000
00000000
,  // measure 68
00010000
00000000
00000000
00000000
;
