#TITLE:BRILLIANT 2U;
#SUBTITLE:(K.O.G G3 MIX);
#ARTIST:NAOKI;
#TITLETRANSLIT:;
#SUBTITLETRANSLIT:;
#ARTISTTRANSLIT:;
#CREDIT:;
#BANNER:BRILLIANT 2U(K.O.G G3 MIX).png;
#BACKGROUND:BRILLIANT 2U(K.O.G G3 MIX)-bg.png;
#LYRICSPATH:;
#CDTITLE:./CDTITLES/DDRMAX2 -Dance Dance Revolution 7thMIX-.PNG;
#MUSIC:BRILLIANT 2U(K.O.G G3 MIX).mp3;
#OFFSET:-0.057;
#SAMPLESTART:49.430;
#SAMPLELENGTH:15.000;
#SELECTABLE:YES;
#DISPLAYBPM:170.000;
#BPMS:0.000=170.010;
#STOPS:;
#BGCHANGES:-0.016=Brilliant 2U (KOG G3 Mix).avi=1.000=1=1=0,
237.00=BRILLIANT 2U (K.O.G G3 MIX)-bg.png=1.000=0=0=1,
99999=-nosongbg-=1.000=0=0=0 // don't automatically add -songbackground-
;

//---------------dance-single - ----------------
#NOTES:
     dance-single:
     :
     Beginner:
     1:
     0.118,0.240,0.035,0.000,0.000:
0000
0000
0000
0000
,
0000
0000
0000
0000
,
0000
0000
0000
0000
,
0000
0000
0000
0000
,
0000
0000
0000
0000
,
0010
0000
0001
0000
,
0001
0000
0010
0000
,
0100
0000
1000
0000
,
1000
0000
0100
0000
,
1001
0000
0010
0000
,
0110
0000
0000
0010
,
0010
0000
1000
0000
,
0010
0000
0001
0000
,
0100
0000
1000
0000
,
0010
0000
0001
0000
,
0010
0000
1000
0000
,
0100
0000
0001
0000
,
1000
0000
1000
0000
,
0001
0000
0001
0000
,
0000
0000
0000
0000
,
0000
0000
0000
0000
,
0000
0000
0000
0000
,
0000
0000
0000
0000
,
0000
0000
0000
0000
,
0000
0000
0000
0000
,
0000
0000
0000
0000
,
0010
0000
0000
0001
,
0000
0000
0000
0100
,
0000
1000
1000
1000
,
0000
0000
0000
0100
,
0000
0001
0001
0001
,
0000
0000
0000
1000
,
0000
1000
0000
1001
,
0000
0000
0000
0001
,
0000
0000
0000
0100
,
0000
1000
0000
0000
,
0001
0000
0001
0000
,
0100
0000
0000
1000
,
0000
0001
0000
0100
,
0000
0001
0000
0000
,
1000
0000
1000
0000
,
0100
0000
0000
0001
,
0000
1000
0000
0100
,
0000
1000
0000
0000
,
0010
0000
0000
0000
,
1000
0000
0000
0000
,
0001
0000
0000
0000
,
1000
0000
0000
0000
,
0001
0000
0000
0000
,
0010
0000
0000
0000
,
0010
0000
0000
0000
,
0000
0000
0000
0000
,
0000
0000
0000
0000
,
0000
0000
0000
0000
,
0000
0000
0000
0000
,
0000
0000
0000
0000
,
0000
0000
0000
0000
,
0000
0000
0000
0000
,
0010
0000
0010
0000
,
0010
0000
0000
0000
;

//---------------dance-single - ----------------
#NOTES:
     dance-single:
     :
     Challenge:
     7:
     0.505,0.583,0.407,0.023,0.163:
0000
0000
0000
0000
,
0000
0000
0000
0000
,
0000
0000
0000
0000
,
0000
0000
0000
0000
,
0000
0000
0000
0000
0000
0000
0000
0100
,
0010
1000
0001
0100
,
0001
0000
0100
0000
0010
0000
1000
0001
,
0100
0010
1000
0001
,
1000
0000
0010
0000
0100
0000
0001
1000
,
1001
0000
0010
0100
0010
0000
1001
0000
,
0110
0000
0001
1000
0000
0100
0010
0000
,
0010
0000
0001
0000
1000
0001
0100
0000
,
0010
0000
0100
0000
0001
0100
1000
0000
,
0100
0000
0010
0000
1000
0001
0100
0000
,
0010
0000
1000
0000
0001
1000
0100
0000
,
0010
0000
0100
0000
1000
0100
0001
0000
,
0100
0000
0010
0000
0001
1000
0100
0000
,
1000
0000
0001
0000
1000
0001
0100
0000
,
0001
0000
1000
0000
0001
1000
0100
0000
,
0000
1001
0000
0110
0000
1001
0000
0110
,
0000
1010
0000
0101
0000
0011
0000
1100
,
0000
0001
0000
1000
0000
0010
0000
0100
,
0000
0010
0000
1000
0000
0001
0000
0100
,
0000
1010
0000
0110
0000
0101
0000
1001
,
0000
1100
0000
0011
0000
0110
0000
1001
,
0000
0110
0000
1001
0000
0110
0000
1001
,
0010
0000
0000
0100
0000
0000
0001
0000
0000
0000
1000
0000
0001
0000
0000
0000
,
0010
0000
0000
0001
0000
0000
0100
0000
0000
0000
1000
0000
0100
0000
0001
0000
,
1000
1000
1000
1000
,
0010
0000
0000
1000
0000
0000
0100
0000
0000
0000
0001
0000
0100
0000
1000
0000
,
0001
0001
0001
0001
,
1000
0000
0000
0001
0000
0000
0100
0000
0000
0000
0010
0000
1000
0000
0100
0000
,
0001
0100
1000
0000
0110
0000
1001
0000
,
0010
0000
0000
1000
0000
0000
0100
0000
0000
0000
1000
0000
0001
0000
0100
0000
,
0010
0000
0000
0100
0000
0000
0001
0000
0000
0000
1000
0000
0100
0000
0010
0000
,
0001
0000
1000
0200
0000
0000
0000
0000
,
0001
0000
1000
0000
0001
0000
1300
0001
,
0100
0000
0000
0010
0000
0000
1000
0000
0000
0000
0001
0000
1000
0000
0100
0000
,
0010
0001
1000
0100
,
1000
0000
0001
0200
0000
0000
0000
0000
,
1000
0000
0001
0000
1000
0000
0301
1000
,
0100
0000
0000
0010
0000
0000
0001
0000
0000
0000
1000
0000
0001
0000
0100
0000
,
0010
0000
1000
0000
0001
1000
0100
0000
,
0010
0000
0001
0000
1000
0100
0000
1000
0000
0001
0000
0000
0000
0000
0100
0000
,
0010
0000
1000
0000
0001
0100
0000
0001
0000
0000
0000
0000
0000
0000
0000
0000
,
1000
0000
0010
0000
0100
0010
0000
0100
0000
0001
0000
0000
0000
0000
1000
0000
,
0001
0000
0010
0000
0100
0010
0000
0100
0000
0000
0000
0000
0000
0000
0000
0000
,
1000
0000
0001
0000
0100
0010
0000
0100
0000
0001
0000
0000
0000
0000
1000
0000
,
0001
0000
1000
0000
0100
0010
0000
0100
0000
0000
0000
0000
0000
0000
0000
0000
,
0010
0000
0001
0000
0100
0001
0000
0100
0000
0010
0000
0000
0000
0000
1000
0000
,
0010
0000
1000
0000
0100
1000
0000
0100
0000
0000
0000
0000
0000
0000
0000
0000
,
0000
0010
0000
1000
0000
0010
0000
0100
,
0000
0001
0000
0100
0000
0001
0000
1000
,
0000
0100
0000
0011
0000
0100
0000
1000
,
0000
0001
0000
1100
0000
0010
0000
0001
,
0000
1010
0000
0100
0000
0011
0000
1000
,
0000
0101
0000
0010
0000
1100
0000
0001
,
0000
0110
0000
1001
0000
0110
0000
1001
,
0010
1000
0001
0100
0010
0100
0001
0100
,
0010
0000
0000
0000
;

//---------------dance-double - ----------------
#NOTES:
     dance-double:
     :
     Challenge:
     7:
     0.463,0.480,0.163,0.023,0.157:
00000000
00000000
00000000
00000000
,
00000000
00000000
00000000
00000000
,
00000000
00000000
00000000
00000000
,
00000000
00000000
00000000
00000000
,
00000000
00000000
00000000
00000000
00000000
00000000
00000000
00010000
,
00000010
00001000
00000001
00000100
,
00001000
00010000
01000000
00100000
,
00010000
10000000
01000000
00100000
,
00010000
01000000
00010000
10000000
,
10010000
00000000
01000000
00010000
00001000
00000000
00000110
00000000
,
00001001
00000000
00000100
00010000
00000000
01000000
00100000
00000000
,
00010000
00000000
10000000
00000000
00100000
00010000
00001000
00000000
,
00000010
00000000
00000100
00000000
00001000
00000001
00000100
00000000
,
00000010
00000000
00000100
00000000
00001000
00010000
01000000
00000000
,
10000000
00000000
00010000
00000000
00100000
01000000
00010000
00000000
,
00001000
00000000
00000100
00000000
00000010
00001000
00000100
00000000
,
00000010
00000000
00000001
00000000
00000100
00001000
00010000
00000000
,
00100000
00000000
10000000
00000000
00010000
10000000
01000000
00000000
,
00100000
01000000
00100000
10010000
,
00000000
00100000
00000000
00010000
00000000
10000000
00000000
01000000
,
00000000
00010000
00000000
00001000
00000000
00000100
00000000
00000010
,
00000000
00001000
00000000
00000001
00000000
00000100
00000000
00000010
,
00000000
00000100
00000000
00000001
00000000
00001001
00000000
00001001
,
00000000
00000010
00000000
00001000
00000000
00000010
00000000
00000001
,
00000000
00000100
00000000
00001000
00000000
00010000
00000000
01000000
,
00000000
00100000
00000000
10000000
00000000
00100000
00000000
00010000
,
00000000
01000000
00000000
00100000
00000000
10010000
00000000
10010000
,
10000000
00000000
00000000
01000000
00000000
00000000
00010000
00000000
00000000
00000000
00001000
00000000
00000100
00000000
00000001
00000000
,
00000010
00000000
00000100
00000000
00000010
00000001
00000100
00000000
,
00000001
00000000
00000000
00000100
00000000
00000000
00001000
00000000
00000000
00000000
00010000
00000000
01000000
00000000
10000000
00000000
,
00100000
00000000
01000000
00000000
00100000
10000000
01000000
00000000
,
10000000
00000000
00000000
00100000
00000000
00000000
00010000
00000000
00000000
00000000
00001000
00000000
00000010
00000000
00000001
00000000
,
00001000
00000000
00000001
00000000
00001000
00000001
00000100
00000000
,
00000001
00000000
00000000
00000010
00000000
00000000
00001000
00000000
00000000
00000000
00010000
00000000
00100000
00000000
10000000
00000000
,
10000000
00000000
00000000
01000000
00000000
00000000
00010000
00000000
00000000
00000000
00001000
00000000
00000100
00000000
00000001
00000000
,
00001000
00000000
00000001
00000020
00000000
00000000
00000000
00000000
,
00001000
00001000
00001000
00001030
,
00001000
00000000
00000000
00010000
00000000
00000000
00100000
00000000
00000000
00000000
10000000
00000000
01000000
00000000
00010000
00000000
,
00001000
00000100
00001000
01000000
,
00010000
00000000
10000000
00200000
00000000
00000000
00000000
00000000
,
00010000
00010000
00010000
00310000
,
00010000
00000000
00000000
00001000
00000000
00000000
00000010
00000000
00000000
00000000
00000001
00000000
00000100
00000000
00001000
00000000
,
00010000
00000000
01000000
00000000
00010000
00001000
00000100
00000000
,
00000010
00000000
00000100
00000000
00000001
00000100
00000000
00000001
00000000
00000100
00000000
00000000
00000000
00000000
00001000
00000000
,
00010000
00000000
00100000
00000000
10000000
00100000
00000000
10000000
00000000
00000000
00000000
00000000
01000000
00000000
00000000
00000000
,
00100000
00000000
01000000
00000000
10000000
01000000
00000000
10000000
00000000
01000000
00000000
00000000
00000000
00000000
00010000
00000000
,
00001000
00000000
00000010
00000000
00000001
00000010
00000000
00000001
00000000
00000000
00000000
00000000
00000000
00000000
00000000
00000000
,
00000010
00000000
00000100
00000000
00001000
00010000
00000000
00001000
00000000
00010000
00000000
00000000
00000000
00000000
00100000
00000000
,
10000000
00000000
01000000
00000000
10000000
01000000
00000000
00100000
00000000
00000000
00000000
00000000
01000000
00000000
00000000
00000000
,
00100000
00000000
01000000
00000000
00010000
00001000
00000000
00010000
00000000
00001000
00000000
00000000
00000000
00000000
00000010
00000000
,
00000001
00000000
00000100
00000000
00000001
00000100
00000000
00000010
00000000
00000000
00000000
00000000
00000000
00000000
00001000
00000000
,
00000000
00000001
00000000
00000100
00000000
00000010
00000000
00000100
,
00000000
00001000
00000000
00010000
00000000
00100000
00000000
00010000
,
00000000
00001000
00000000
00000010
00000000
00001000
00000000
00010000
,
00000000
01000000
00000000
10000000
00000000
01000000
00000000
10000000
,
00000000
00100000
00000000
10000000
00000000
01000000
00000000
00010000
,
00000000
00001000
00000000
00000100
00000000
00000010
00000000
00000100
,
00000000
00000101
00000000
00001010
00000000
00010100
00000000
00101000
,
00000000
01010000
00000000
10100000
00000000
01000000
00010000
00001000
,
00000100
00000000
00000000
00000000
;

//---------------dance-single - ----------------
#NOTES:
     dance-single:
     :
     Hard:
     8:
     0.563,0.720,0.558,0.116,0.325: // measure 1
0000
0000
0000
0000
,  // measure 2
0000
0000
0000
0000
,  // measure 3
0000
0000
0000
0000
,  // measure 4
0000
0000
0000
0000
,  // measure 5
0000
0000
0000
0000
,  // measure 6
1000
0100
0000
1000
0100
0000
1000
0100
0000
1000
0100
0000
0010
0000
0001
0000
,  // measure 7
0100
0001
0000
0100
0001
0000
0100
0001
0000
0100
0001
0000
0010
0000
0100
0000
,  // measure 8
1000
0100
0000
1000
0100
0000
1000
0100
0000
1000
0100
0000
0010
0000
0001
0000
,  // measure 9
1000
0010
0000
0100
0001
0100
0001
0100
0001
0000
1000
0000
1000
0000
0000
0000
,  // measure 10
0101
0000
0011
0100
1000
0000
1001
0000
,  // measure 11
0011
0000
0110
1001
0000
0110
1001
0000
,  // measure 12
0100
0001
1000
0100
,  // measure 13
0010
0000
0000
0000
0100
0000
0000
0000
1000
0000
0000
0000
0010
0000
0100
0001
,  // measure 14
0100
0001
1000
0100
,  // measure 15
0010
0000
0000
0000
0100
0000
0000
0000
1000
0000
0000
0000
0001
0100
0001
0100
,  // measure 16
0001
1000
0100
0010
,  // measure 17
0100
1000
0010
0100
,  // measure 18
0001
1000
0100
1000
,  // measure 19
0010
0000
0000
0000
0100
0000
0000
0000
0001
1000
0000
0001
1000
0000
0010
0000
,  // measure 20
0100
0010
0000
1000
0000
0100
0000
1000
,  // measure 21
0000
0001
0000
0010
0000
0100
0000
0001
,  // measure 22
0000
0100
0000
0010
0000
0001
0000
0100
,  // measure 23
0000
0010
0000
1000
0000
0010
0000
0100
,  // measure 24
0000
0101
0000
1001
0000
0011
0000
1010
,  // measure 25
0000
0101
0000
1100
0000
1010
0000
0110
,  // measure 26
0000
1001
0000
0011
0000
1001
0000
0100
,  // measure 27
0010
0000
0000
0010
0000
0000
0010
0000
0000
0000
1000
0000
1000
0000
0000
0000
,  // measure 28
0000
0000
0001
0000
0000
0000
0001
0000
0000
1000
0000
1000
0010
0000
0100
0000
,  // measure 29
0000
0000
0001
0000
0000
0000
0001
0000
0000
0010
0000
0010
0100
0000
1000
0000
,  // measure 30
0000
0000
0001
0000
0000
0000
0001
0000
0000
0100
0000
0100
1000
0000
0100
0000
,  // measure 31
0000
0000
0001
0000
0000
0000
0001
0000
0000
0001
0000
0000
0000
0000
0000
0000
,  // measure 32
0010
0000
0000
0010
0000
0000
0010
0000
0000
0010
0000
0000
0110
0000
0000
0000
,  // measure 33
1000
0000
1000
0000
1000
0000
0000
0000
0001
0100
0000
0001
0100
0000
0000
0000
,  // measure 34
0011
0000
0101
0000
1100
0000
0101
0001
,  // measure 35
1000
0000
0010
0000
0000
0000
0100
1000
0100
0000
0010
0000
0000
0000
0000
0000
,  // measure 36
1000
0000
1000
0001
0000
0000
0020
0000
0000
0000
0000
0000
0030
0000
0000
0000
,  // measure 37
0110
0000
1001
0000
0110
0000
1001
0010
,  // measure 38
0100
0000
0000
1000
0000
0000
0010
0000
0000
0100
0000
0000
0000
0000
0000
0000
,  // measure 39
0200
0302
2003
3020
,  // measure 40
1030
0000
1000
0001
0000
0000
0020
0000
0000
0000
0000
0000
0030
0000
0000
0000
,  // measure 41
0110
0000
0000
0000
1100
0000
0000
0000
1010
0000
0100
0001
0100
0001
0000
0000
,  // measure 42
1000
0000
1000
0000
0010
0000
0000
0000
0100
0001
0000
0100
0001
0000
0000
0000
,  // measure 43
1000
0010
0000
1000
0001
1000
0001
1000
0001
0000
1000
0000
1000
0000
0000
0000
,  // measure 44
0110
0000
0000
0000
,  // measure 45
0000
0000
0000
0000
,  // measure 46
0110
0000
0000
0000
,  // measure 47
0000
0000
0000
0000
0000
0000
0000
0100
,  // measure 48
2002
0000
3003
0000
,  // measure 49
0000
0000
0000
0000
0000
0000
0000
0010
,  // measure 50
2002
0000
3003
0000
,  // measure 51
0000
0000
0000
0000
0000
0000
0000
1000
,  // measure 52
0100
0010
0000
0011
0000
1001
0000
0101
,  // measure 53
0000
1100
0000
0011
0000
1010
0000
1100
,  // measure 54
0000
0101
0000
1010
0000
0011
0000
0110
,  // measure 55
0000
0000
1100
0000
0000
0000
1001
0000
0000
0000
0010
0000
0100
1000
0100
1000
,  // measure 56
0001
0100
0001
0100
1000
0100
1000
0100
,  // measure 57
0001
0010
0001
0010
1000
0010
1000
0010
,  // measure 58
0001
0100
0010
1000
0100
0010
0001
0100
,  // measure 59
0001
0100
0010
1000
0010
1000
0010
0100
0001
0100
0010
0100
0010
1000
0010
1000
,  // measure 60
0001
0000
0000
0000
;
