#TITLE:BRE∀K DOWN!;
#SUBTITLE:;
#ARTIST:BeforU;
#TITLETRANSLIT:;
#SUBTITLETRANSLIT:;
#ARTISTTRANSLIT:;
#CREDIT:;
#BANNER:BREAK DOWN!.png;
#BACKGROUND:BREAK DOWN!-bg.png;
#LYRICSPATH:;
#CDTITLE:./CDTITLES/DDRMAX2 -Dance Dance Revolution 7thMIX-.PNG;
#MUSIC:BREAK DOWN!.mp3;
#OFFSET:-0.236;
#SAMPLESTART:47.870;
#SAMPLELENGTH:15.000;
#SELECTABLE:YES;
#DISPLAYBPM:190.000;
#BPMS:0.000=190.010;
#STOPS:;
#BGCHANGES:;

//---------------dance-single - ----------------
#NOTES:
     dance-single:
     :
     Easy:
     4:
     0.243,0.344,0.242,0.068,0.000:
0000
0000
0000
0000
,
0000
0000
0000
0000
,
0000
0000
0000
0000
,
0000
0000
0000
0000
,
0001
0000
0001
0000
,
0001
0000
0001
0000
,
1001
0000
1001
0000
,
0010
1000
0100
0000
,
1000
0000
1000
0000
,
1000
0000
1000
0000
,
1001
0000
1001
0000
,
0010
0001
0100
0000
,
1001
0000
1001
0000
,
0010
1000
0100
0000
,
1000
0000
0100
0000
,
1000
0000
1001
0000
,
0001
0000
0100
0000
,
1001
0000
1001
0000
,
0001
0000
0100
0000
,
0001
0000
1001
0000
,
1000
0000
0100
0000
,
0010
0000
0001
0000
,
1000
0000
0100
0000
,
1000
0000
1001
0000
,
0001
0000
0100
0000
,
1001
0000
1001
0000
,
0001
0000
0100
0000
,
0001
0000
1001
0000
,
0010
0000
0010
0000
,
0100
0000
0100
0000
,
1000
2000
0000
0000
,
0001
0000
0001
3000
,
0010
0000
0001
0000
,
0100
0000
0000
0000
,
0001
0002
0000
0000
,
1000
0000
1000
0003
,
0010
0000
1000
0000
,
0100
0000
0100
0000
,
1001
0000
1000
0000
,
0001
0000
1001
0000
,
0010
0000
0010
0000
,
0100
0000
0010
0000
,
1001
0000
1000
0000
,
0001
0000
1001
0000
,
0010
0000
0010
0000
,
0100
0000
0100
0000
,
0110
0000
0010
0000
,
1000
0000
0100
0000
,
0110
0000
0010
0000
,
0001
0000
0100
0000
,
0110
0000
0010
0000
,
1000
0000
0100
0000
,
0110
0000
0010
0000
,
0010
0001
0100
0000
,
2000
0000
0000
0000
,
0000
3000
1000
0000
,
0002
0000
0000
0000
,
0000
0003
0001
0000
,
2000
0000
0000
0000
,
0000
3000
1000
0000
,
0002
0000
0000
0003
,
0001
0100
1000
1000
,
1001
0000
0000
0000
,
1000
0000
0001
0000
,
1001
0000
0000
0000
,
1000
0000
0001
0000
,
1001
0000
0000
0000
,
1000
0000
0001
0000
,
1000
0000
1000
0000
,
0001
0000
0001
0000
,
0010
0000
1000
0000
,
0100
0000
1000
0000
,
0010
0000
0001
0000
,
0100
0000
0001
0000
,
0010
0000
1000
0000
,
0100
0000
1000
0000
,
0010
0000
0001
0000
,
0100
0000
0200
0000
,
0000
0000
0000
0000
,
0310
0000
0000
0000
;

//---------------dance-single - ----------------
#NOTES:
     dance-single:
     :
     Medium:
     6:
     0.481,0.497,0.503,0.164,0.000:
0000
0000
0000
0000
,
0000
0000
0000
0000
,
0000
0000
0000
0000
,
0000
0000
0000
0000
,
1000
1100
0001
1100
,
0001
0101
1000
0101
,
0010
1001
0100
1001
,
0010
0001
1000
1000
,
0001
0101
1000
0101
,
1000
1100
0001
1100
,
0010
1001
0100
1001
,
0010
1000
0001
0001
,
0010
1001
1000
1100
,
0001
0101
0100
0100
,
0010
0001
1000
0010
,
0100
0001
1000
0101
,
0010
1000
0001
0010
,
0100
1000
0001
1100
,
0010
0001
0100
1000
,
0100
0001
0010
1000
,
0001
0101
1000
1100
,
0001
0101
1000
1100
,
0010
1000
0001
0010
,
0100
1000
0001
1100
,
0010
0001
1000
0010
,
0100
0001
1000
0101
,
0010
1000
0100
0001
,
0100
1000
0010
0001
,
0010
0010
0010
0010
,
0100
0100
0100
0100
,
1000
0001
0010
0020
,
0100
0100
0200
0330
,
1000
1100
0001
0101
,
0010
1001
0100
1000
,
0001
1000
0100
0200
,
0010
0010
0020
0330
,
1100
0001
0101
1000
,
0010
1000
0100
0000
,
1000
0010
0100
1000
,
0100
0001
0100
0010
,
0100
0100
0100
1001
,
0100
1001
0100
1001
,
0010
0001
0100
1000
,
0001
0010
1000
0100
,
1001
0100
1001
0100
,
1100
0101
1000
0100
,
1000
0010
0100
1000
,
0100
0001
0100
0010
,
0101
1000
1100
0001
,
0010
0001
0100
1001
,
0010
0001
0100
1000
,
0001
0010
1000
0100
,
0010
1001
0100
1001
,
0010
1000
0100
0000
,
2200
0000
3300
0000
0001
0100
0000
1000
,
0000
0001
0000
1000
0100
0000
0000
0000
,
0202
0000
0303
0000
1000
0100
0000
0001
,
0000
1000
0000
0001
0100
0000
0000
0000
,
2200
0000
3300
0000
0001
0100
0000
1000
,
0000
0001
0000
1000
0100
0000
0100
0000
,
0010
0001
0100
1000
,
1100
0101
1000
0100
,
0002
0000
0100
0000
,
0100
0000
0100
0003
,
2000
0000
0100
0000
,
0100
0000
0100
3000
,
0002
0003
0200
0300
,
2000
3000
0200
0300
,
0001
1000
0100
1100
,
0001
0101
1000
1000
,
0001
0010
0001
0100
,
0010
0100
0001
1000
,
0101
1000
0100
1001
,
0010
0010
0010
1001
,
1000
0010
1000
0100
,
0010
0100
1000
0001
,
1100
0001
0100
1001
,
0010
0000
1000
0000
0100
0000
0000
0002
,
0000
0000
0000
0000
,
1003
0000
0000
0000
;

//---------------dance-single - ----------------
#NOTES:
     dance-single:
     :
     Hard:
     9:
     0.640,0.612,0.523,0.058,0.000: // measure 1
0000
0000
0000
0000
,  // measure 2
0000
0000
0000
0000
,  // measure 3
0000
0000
0000
0000
,  // measure 4
0000
0000
0000
0000
,  // measure 5
0001
0100
0010
1000
0100
0010
1000
0000
,  // measure 6
0001
0100
0010
1000
0100
0010
1000
0000
,  // measure 7
1000
0001
1000
0000
0011
0000
1000
0000
,  // measure 8
1000
0100
0010
0001
0010
0100
1000
0000
,  // measure 9
1000
0100
0010
0001
0100
0010
0001
0000
,  // measure 10
1000
0100
0010
0001
0100
0010
0001
0000
,  // measure 11
0001
1000
0001
0000
1010
0000
0001
0000
,  // measure 12
0001
0100
0010
1000
0010
0100
0001
0000
,  // measure 13
1000
1100
0001
0101
,  // measure 14
1000
0100
0001
0010
1000
0000
0110
0000
,  // measure 15
1000
1000
0100
0000
0001
0001
0100
0000
,  // measure 16
1000
0100
0001
0100
1000
0010
0001
0000
,  // measure 17
1000
1000
0010
0000
0001
0001
0010
0000
,  // measure 18
1000
0010
0001
0010
1000
0100
0001
0000
,  // measure 19
1000
1000
0100
0000
0001
0001
0100
0000
,  // measure 20
0010
1000
0001
0010
0100
1000
0001
0000
,  // measure 21
1100
1001
0101
1001
,  // measure 22
0010
1000
0100
0001
,  // measure 23
0010
0001
0010
0000
0100
1000
0100
0000
,  // measure 24
1000
0010
0100
1000
0001
0010
0100
0000
,  // measure 25
0010
1000
0010
0000
0100
0001
0100
0000
,  // measure 26
0001
0010
0100
0001
1000
0010
0100
0000
,  // measure 27
0010
0001
0010
0000
0100
1000
0100
0000
,  // measure 28
0010
0001
1000
0010
0100
0001
1000
0000
,  // measure 29
1100
1001
0101
1001
,  // measure 30
0010
0010
0010
0010
,  // measure 31
1000
0000
1100
0000
0001
0100
1000
0000
,  // measure 32
0001
0000
0101
0000
1000
0100
0001
0000
,  // measure 33
0010
0001
0100
0000
0010
0100
0001
0000
,  // measure 34
0010
1000
0100
1000
0010
0100
1000
0000
,  // measure 35
0001
0000
0101
0000
1000
0100
0001
0000
,  // measure 36
1000
0000
1100
0000
0001
0100
1000
0000
,  // measure 37
0010
1000
0100
0000
0010
0100
1000
0000
,  // measure 38
0000
0001
1000
0100
0010
0000
0000
0000
,  // measure 39
1000
0100
0001
0000
1000
0100
0001
0000
,  // measure 40
1000
1100
0001
0101
,  // measure 41
1000
0100
0001
0000
1000
0100
0001
0000
,  // measure 42
0010
1001
0100
1001
,  // measure 43
1000
0100
0001
0000
1000
0100
0001
0000
,  // measure 44
0010
0001
0101
1100
,  // measure 45
1000
0100
0001
0000
1000
0100
0001
0000
,  // measure 46
1100
0101
1100
0101
,  // measure 47
0001
0100
1000
0000
0001
0100
1000
0000
,  // measure 48
0010
0010
1001
0100
,  // measure 49
0001
0100
1000
0000
0001
0100
1000
0000
,  // measure 50
0010
0100
0011
1010
,  // measure 51
0001
0100
1000
0000
0001
0100
1000
0000
,  // measure 52
1100
0001
1100
0001
,  // measure 53
0001
0100
1000
0000
0001
0100
1000
0000
,  // measure 54
0000
1000
0100
0001
0010
0000
0000
0000
,  // measure 55
2010
0000
0001
0001
0001
0001
0000
0100
,  // measure 56
0000
0001
0000
0010
0010
0000
3000
0000
,  // measure 57
0012
0000
1000
1000
1000
1000
0000
0100
,  // measure 58
0000
1000
0000
0010
0010
0000
0003
0000
,  // measure 59
0210
0000
0001
0001
0001
0001
0000
1000
,  // measure 60
0000
0001
0000
1000
1000
0000
0300
0000
,  // measure 61
0220
0000
0000
0330
,  // measure 62
1001
1100
0101
1001
,  // measure 63
0110
0000
1000
0100
0001
0010
1000
0000
,  // measure 64
0110
0000
0001
0100
1000
0010
0001
0000
,  // measure 65
0110
0000
1000
0100
0001
0010
1000
0000
,  // measure 66
0110
0000
0001
0100
1000
0010
0001
0000
,  // measure 67
1000
0100
1000
0000
0001
0100
0001
0000
,  // measure 68
1000
0100
0001
0000
1000
0100
0001
0000
,  // measure 69
0010
1000
0001
0000
0010
1000
0001
0000
,  // measure 70
1100
1001
0101
1001
,  // measure 71
1000
0100
0010
0100
1000
0100
0001
0000
,  // measure 72
1010
0100
0010
0101
,  // measure 73
0001
0100
0010
0100
1000
0100
0001
0000
,  // measure 74
0101
0010
1100
0010
,  // measure 75
1000
0010
0100
1000
0001
0010
0100
0000
,  // measure 76
1001
0100
1001
0100
,  // measure 77
0001
0010
0100
0001
1000
0010
0100
0000
,  // measure 78
0000
0001
0100
1000
0010
0000
0000
0200
,  // measure 79
0000
0000
0000
0000
,  // measure 80
0310
0000
0000
0000
;

//---------------dance-double - ----------------
#NOTES:
     dance-double:
     :
     Easy:
     4:
     0.246,0.344,0.164,0.087,0.000:
00000000
00000000
00000000
00000000
,
00000000
00000000
00000000
00000000
,
00000000
00000000
00000000
00000000
,
00000000
00000000
00000000
00000000
,
00000001
00000000
00000100
00000000
,
00001000
00000000
00000100
00000000
,
00000001
00000000
00001000
00000000
,
00010000
00000000
10000000
00000000
,
10000000
00000000
01000000
00000000
,
00010000
00000000
01000000
00000000
,
10000000
00000000
00010000
00000000
,
00001000
00000000
00000001
00000000
,
00001001
00000000
00001001
00000000
,
00000010
00000001
00001000
00000000
,
00001001
00000000
00001001
00000000
,
00000100
00000000
00001000
00000000
,
00010000
00000000
00011000
00000000
,
01000000
00000000
10000000
00000000
,
10010000
00000000
10010000
00000000
,
10000000
00000000
00010000
00000000
,
00100000
00000000
10000000
00000000
,
01000000
00000000
00010000
00000000
,
10000000
00000000
00010000
00000000
,
00001000
00000000
00000001
00000000
,
00000001
00000000
00001000
00000000
,
00010000
00000000
10000000
00000000
,
10000000
00000000
00010000
00000000
,
00001000
00000000
00000001
00000000
,
00001001
00000000
00001001
00000000
,
00000010
00000000
00001001
00000000
,
00000010
00000000
00000020
00000000
,
00000100
00000000
00000130
00000000
,
00001000
00000000
00010000
00000000
,
01000000
00000000
10000000
00000000
,
00100000
00000000
00200000
00000000
,
01000000
00000000
01300000
00000000
,
00010000
00000000
00001000
00000000
,
00000100
00000000
00000110
00000000
,
00000100
00000000
00000100
00000000
,
00001000
00010000
00001000
00000000
,
00000100
00000000
00000100
00000000
,
00001000
00010000
01000000
00000000
,
01000000
00000000
01000000
00000000
,
00010000
00001000
00010000
00000000
,
01000000
00000000
01000000
00000000
,
00010000
00001000
00000100
00000001
,
00000100
00000000
00000100
00000000
,
00001000
00010000
00001000
00000000
,
00000100
00000000
00000100
00000000
,
00001000
00010000
01000000
00000000
,
01000000
00000000
01000000
00000000
,
00010000
00001000
00010000
00000000
,
01000000
00000000
01000000
00000000
,
00010000
00001000
00010000
00000000
,
00120000
00000000
00000000
00000000
,
00000000
00030000
00100000
00000000
,
00012000
00000000
00000000
00000000
,
00000000
00003000
00010000
00000000
,
00002010
00000000
00000000
00000000
,
00000000
00003000
00000010
00000000
,
00021000
00000000
00000000
00030000
,
00001000
00000000
01000000
00000000
,
10000000
00000000
01000000
00000000
,
00010000
00000000
00001000
00000000
,
00001000
00000000
00010000
00000000
,
01000000
00000000
10000000
00000000
,
10000000
00000000
01000000
00000000
,
00010000
00000000
00001000
00000000
,
00001000
00000000
00001000
00000000
,
00010000
00000000
00001000
00000000
,
00021000
00000000
01000000
00000000
,
01000000
00000000
00031000
00000000
,
00012000
00000000
00000100
00000000
,
00000100
00000000
00013000
00000000
,
01000000
00000000
00010000
00000000
,
00001000
00000000
00000100
00000000
,
00000100
00000000
00001000
00000000
,
00010000
00000000
02000000
00000000
,
00000000
00000000
00000000
00000000
,
03100000
00000000
00000000
00000000
;

//---------------dance-double - ----------------
#NOTES:
     dance-double:
     :
     Medium:
     6:
     0.471,0.497,0.464,0.164,0.000:
00000000
00000000
00000000
00000000
,
00000000
00000000
00000000
00000000
,
00000000
00000000
00000000
00000000
,
00000000
00000000
00000000
00000000
,
00000001
00000100
00001000
00000100
,
00001000
00010000
01000000
10000000
,
00010000
11000000
00010000
11000000
,
00010000
10000000
01000000
01000000
,
10000000
01000000
00010000
01000000
,
00010000
00001000
00000100
00000001
,
00001000
00000101
00001000
00000101
,
00001000
00000001
00000100
00000100
,
00000110
00001000
00000110
00000001
,
00000010
00001000
00010000
00010000
,
01000000
00010000
00001000
00000110
,
00001000
00000100
00000001
00000002
,
00000010
00000010
00000010
00000010
,
00000100
00000103
00001001
00000100
,
00000010
00001000
00010000
00001000
,
00000100
00001000
00010000
01000000
,
01100000
00010000
01100000
10000000
,
00100000
00010000
01000000
10000000
,
00010000
01100000
10000000
01000000
,
00010000
00001000
00000100
00000110
,
00001000
00000110
00000001
00000100
,
00001000
00010000
00001000
00000100
,
00000001
00000101
00001000
00001100
,
00000001
00000101
00001000
00001100
,
00000001
00000110
00001000
00000100
,
00001000
00010000
01000000
10000000
,
01000000
00100000
00000000
00000000
,
20020000
30030000
02000000
03000000
,
20000000
30000000
02000000
03000000
,
00020000
00030000
00002000
00003000
,
00000100
00000010
00000000
00000000
,
00002002
00003003
00000200
00000300
,
00001000
00010000
00001000
00000110
,
00001000
00010000
02000000
03000000
,
00010000
00001000
00010000
01000000
,
00010000
00001000
00000100
00000001
,
00000110
00000001
00000110
00001000
,
00000001
00000100
00001000
00010000
,
00100000
00010000
00001000
00010010
,
00000100
00001000
00010000
01000000
,
10000000
10010000
10000000
11000000
,
00010000
00001000
00000100
00000100
,
00001000
00010000
00001000
00000100
,
00001000
00010000
01000000
10000000
,
01100000
10000000
01100000
00010000
,
10000000
01000000
00010000
00001000
,
00000010
00001000
00010000
00101000
,
01000000
00010000
00001000
00000100
,
00000110
00001000
00000100
00000001
,
00001001
00000000
00000100
00000000
,
00002200
00000000
00000000
00000000
00003300
00000000
00000000
00000001
,
00000000
00001000
00000000
00000001
00000100
00000000
00000000
00000000
,
00000202
00000000
00000000
00000000
00000303
00000000
00000000
00001000
,
00000000
00000001
00000000
00001000
00000100
00000000
00000000
00000000
,
00001001
00000001
00000100
00001000
,
00000110
00001000
00010000
01000000
,
11000000
00010000
01000000
10000000
,
01010000
10000000
11000000
00010000
,
10000000
01000000
00010000
00001000
,
00100000
00001000
00010000
01000000
,
00010000
00001000
00000100
00000010
,
00010000
00001000
00000100
00000001
,
00000010
00000001
00000100
00001001
,
00000100
00001000
00000010
00001001
,
00000100
00001001
00000100
00001001
,
00001100
00000101
00001000
00000100
,
00000001
00000100
00001000
00010000
,
00000010
00010000
00001000
00000100
,
00001000
00010000
01000000
00100000
,
00001000
00010000
01000000
10000000
,
01100000
00010000
00001000
00010000
,
01100000
00010000
00001000
00010000
,
01100000
10000000
01100000
00010000
,
00001000
00000000
00000100
00000000
00000001
00000000
00000000
00002000
,
00000000
00000000
00000000
00000000
,
00003100
00000000
00000000
00000000
;

//---------------dance-double - ----------------
#NOTES:
     dance-double:
     :
     Hard:
     9:
     0.644,0.650,0.455,0.010,0.000:
00000000
00000000
00000000
00000000
,
00000000
00000000
00000000
00000000
,
00000000
00000000
00000000
00000000
,
00000000
00000000
00000000
00000000
,
00000010
00001000
00010000
00000000
00100000
00001000
00010000
00000000
,
00100000
00010000
01000000
00000000
00100000
00010000
00001000
00000000
,
00000100
00000001
00000100
00000000
00001010
00000000
00000101
00000000
,
00000100
00000000
00001000
00000100
00000000
00001000
00000010
00000000
,
00000100
00001000
00010000
00000000
01000000
00001000
00010000
00000000
,
01000000
00010000
00100000
00000000
01000000
00010000
10000000
00000000
,
01000000
10000000
01000000
00000000
00110000
00000000
11000000
00000000
,
00010000
00000000
10000000
01000000
00000000
00010000
01000000
00000000
,
00100000
00100000
10010000
00000000
01000000
01000000
10010000
00000000
,
00100000
00100000
01000000
00100000
00100000
00000000
10010000
00000000
,
10000000
01000000
10000000
00000000
00010000
01000000
00010000
00000000
,
00010000
00001000
00000100
00000000
00000110
00000000
00001001
00000000
,
00000001
00000100
00000001
00000000
00001000
00000100
00001000
00000000
,
00001000
00010000
01000000
00000000
01100000
00000000
10010000
00000000
,
10000000
01000000
10000000
00100000
00010000
00100000
00010000
00001000
,
00000100
00001000
00000100
00000001
00000010
00000001
00000010
00000000
,
00001001
00000000
00000000
00000110
00000000
00000000
00001000
00000000
,
00010000
01000000
00010000
00000000
00010000
01000000
10000000
00000000
,
10000000
01000000
00010000
00000000
00010000
01000000
10000000
00000000
,
00100000
00001000
00010000
00000000
00010010
00000000
00001010
00000000
,
00000001
00000100
00000001
00000000
00001000
00000100
00001000
00000000
,
00001000
00010000
01000000
00000000
01100000
00000000
10010000
00000000
,
10000000
01000000
00010000
01000000
00010000
00001000
00010000
00001000
,
00000100
00001000
00000100
00000001
00000010
00000001
00000010
00000000
,
00000110
00000000
00000000
00001001
00000000
00000010
00000001
00000100
,
00000000
00001000
00000100
00000001
00000100
00000000
00000000
00000000
,
00000001
00000001
00000001
00000001
00000000
00001000
00000100
00000000
,
00000110
00000000
00010000
00000010
00000000
00010000
00001000
00000000
,
00010000
01000000
00010000
00000000
10000000
01000000
10000000
00000000
,
00010000
00001000
00010000
01000000
10000000
01000000
10000000
00000000
,
00010000
00010000
00010000
00010000
00000000
00100000
01000000
00000000
,
10010000
00000000
01000000
00010000
00000000
00001000
00000100
00000000
,
00000010
00010000
00001000
00000100
00000010
00001000
00000100
00000010
,
00000000
00001000
00010000
01000000
10000000
00000000
00000000
00000000
,
00010000
00000000
01010000
00000000
10000000
01000000
00010000
00000000
,
00001000
00000000
01001000
00000000
00010000
01000000
10000000
00000000
,
01000000
00010000
00001000
00000000
00000100
00001000
00010000
00000000
,
00000010
00001000
00010000
00100000
00010000
00001000
00000100
00000000
,
00000001
00000000
00000101
00000000
00000001
00000010
00001000
00000000
,
00010000
00000000
00010100
00000000
00001000
00000001
00000100
00000000
,
00000001
00000100
00001000
00000000
00010000
01000000
10000000
00000000
,
10010000
01010000
10010000
11000000
,
00110000
00000000
10000000
00000000
00100000
00010000
01000000
00000000
,
01001000
00000000
00010000
00000000
00001000
00000100
00000010
00000000
,
00000010
00010000
00001000
00000000
00000010
00001000
00000100
00000000
,
00000010
00001000
00010000
00100000
00010000
00001000
00000100
00000000
,
00000101
00000000
00001000
00000000
00000010
00000100
00000001
00000000
,
00001010
00000000
00000001
00000000
00000100
00001000
00010000
00000000
,
01000000
00010000
00001000
00000000
00000100
00001000
00010000
00000000
,
00000000
01000000
10000000
00010000
01000000
00000000
00000000
00000000
,
10100000
00000000
01000000
00010000
00001000
01000000
00000000
00001000
,
00000000
00010000
00000000
00000100
00001000
00000000
00001000
00000000
,
00000011
00000000
00000100
00001000
00010000
00000100
00000000
00010000
,
00000000
00001000
00000000
01000000
00010000
00000000
00010000
00000000
,
01100000
00000000
00010000
00001000
00000100
00000001
00000000
00000110
,
00000000
00001001
00000000
00000001
00000100
00000000
00000100
00000000
,
00000110
00000000
00001000
00010000
01000000
00010000
01000000
00000000
,
10000000
01000000
10000000
01000000
00010000
01000000
00010000
00000000
,
11000000
00010000
01100000
00010000
,
00101000
00010000
00010010
00001000
,
00000001
00000100
00000001
00000000
00001000
00000000
00001000
00000000
,
00010000
01000000
00010000
00000000
10000000
01000000
10000000
00000000
,
00100000
00010000
01000000
00100000
00010000
00001000
00100000
00010000
,
01000000
00100000
00010000
00001000
00100000
00010000
01000000
00100000
,
10000000
01000000
00010000
00000000
00010000
01000000
10000000
00000000
,
10000000
01000000
00010000
00001000
00000100
00000010
00001000
00000000
,
00000110
00000001
00000110
00001000
,
00010010
00001000
01001000
00010000
,
00100000
00010000
00001000
00000000
00001000
00000000
00100000
00000000
,
00100000
00010000
00001000
00000000
00010000
00001000
00000100
00000000
,
00001000
00010000
00000010
00000100
00001000
00010000
00001000
00010000
,
00000010
00000100
00001000
00010000
00001000
00010000
00000010
00000000
,
00000100
00001000
00010000
00000000
01000000
00010000
00001000
00000000
,
00000000
00001000
00100000
00010000
01000000
00000000
00000000
20000000
,
00000000
00000000
00000000
00000000
,
30010000
00000000
00000000
00000000
;

//---------------dance-single - ----------------
#NOTES:
     dance-single:
     :
     Beginner:
     2:
     0.145,0.191,0.019,0.000,0.000:
0000
0000
0000
0000
,
0000
0000
0000
0000
,
0000
0000
0000
0000
,
0000
0000
0000
0000
,
0001
0000
0000
0000
,
0001
0000
0000
0000
,
1000
0000
0000
0000
,
1000
0000
0000
0000
,
0010
0000
0000
0000
,
0010
0000
0000
0000
,
0100
0000
0000
0000
,
0100
0000
0000
0000
,
0001
0000
1000
0000
,
0010
0000
0100
0000
,
1000
0000
0000
0000
,
0010
0000
0000
0000
,
0100
0000
0000
0000
,
0001
0000
0000
0000
,
1000
0000
0000
0000
,
0010
0000
0000
0000
,
0100
0000
0001
0000
,
1000
0000
0001
0000
,
1000
0000
0000
0000
,
0010
0000
0000
0000
,
0100
0000
0000
0000
,
0001
0000
0000
0000
,
1000
0000
0000
0000
,
0010
0000
0000
0000
,
0100
0000
0001
0000
,
1000
0000
0001
0000
,
1000
1000
0000
0000
,
0001
0000
0000
0000
,
0010
0000
0000
0000
,
0100
0000
0000
0000
,
0001
0001
0000
0000
,
1000
0000
0000
0000
,
0010
0000
0000
0000
,
0100
0000
0000
0000
,
1001
0000
0000
0000
,
0001
0000
0100
0000
,
0010
0000
1000
0000
,
0001
0000
0100
0000
,
0010
0000
1000
0000
,
0001
0000
0001
0000
,
1000
0000
1000
0000
,
0100
0000
0100
0000
,
0100
0000
0000
0000
,
1000
0000
0100
0000
,
0001
0000
0100
0000
,
1000
0000
0100
0000
,
0001
0000
0100
0000
,
1000
0000
0000
0000
,
1000
0000
0000
0000
,
0010
0000
0100
0000
,
1001
0000
0000
0000
,
0000
0000
1000
0000
,
0001
0000
0000
0000
,
0000
0000
0001
0000
,
1000
0000
0000
0000
,
0000
0000
1000
0000
,
0001
0000
0000
0000
,
0001
0000
1000
0000
,
0000
0000
0000
0000
,
1000
0000
0000
0000
,
1000
0000
0000
0000
,
0001
0000
0000
0000
,
0001
0000
0000
0000
,
1000
0000
0001
0000
,
1000
0000
0001
0000
,
0001
0000
1000
0000
,
0010
0000
0000
0000
,
0100
0000
0000
0000
,
0010
0000
0000
0000
,
1000
0000
0001
0000
,
0010
0000
0010
0000
,
0001
0000
0001
0000
,
1000
0000
0001
0000
,
0100
0000
0100
0000
,
0000
0000
0000
0000
,
0010
0000
0000
0000
;

//---------------dance-single - ----------------
#NOTES:
     dance-single:
     :
     Challenge:
     9:
     0.694,0.670,0.424,0.292,0.009:
0000
0000
0000
0000
,
0000
0000
0000
0000
,
0002
0000
0000
2003
0000
0000
3010
0000
,
0100
1000
0001
0101
,
0100
1000
0001
0200
0000
0301
0001
0001
,
1000
0010
0100
2000
0000
3100
0001
0001
,
1000
0010
0000
1000
0010
0000
0100
0001
,
0010
0010
0100
0020
0000
0000
0000
0000
,
0031
0100
1000
0200
0000
0301
0001
0001
,
0010
0100
1000
0020
0000
0130
0001
0001
,
1000
0010
0000
0001
0010
0000
0100
0100
,
0010
0000
0100
0000
0010
0000
0020
0000
0000
0000
0000
0000
0000
0000
0000
0030
,
0000
1000
0100
0010
0000
1000
0100
0010
,
0000
1000
0100
0001
0010
0000
0110
0000
,
0100
0001
1000
0001
0100
0001
0010
0100
,
1000
0010
0100
0001
0000
0000
0010
0000
,
0100
1000
0001
1000
0100
1000
0010
0100
,
0001
0010
0100
2000
0000
0000
3010
0000
,
0100
0001
1000
0100
0010
0100
1000
0001
,
0010
0100
1000
0010
0000
0000
0100
0001
,
0020
0000
0000
2030
0000
0000
3100
0000
,
0101
0000
0000
1001
0000
0000
0011
0000
,
0110
0000
0100
1000
0001
0100
0010
1000
,
0001
0010
0100
2000
0000
0000
3001
0001
,
0100
0001
1000
0100
0010
0001
1000
0010
,
0100
0001
1000
0020
0000
0000
1030
0000
,
0001
0010
0100
1000
0010
0100
0010
1000
,
0001
0010
0100
0001
0000
0100
1000
0010
,
0100
0001
1000
0010
0000
0100
0001
1000
,
0000
0010
0110
0000
1010
0000
0110
0000
,
0001
0010
1000
0100
0000
0001
0010
0000
,
0200
2300
3020
0230
,
0301
0001
0001
0001
1000
1000
1000
1000
,
0010
0010
0010
0010
0100
0100
0100
0100
,
1000
0010
0001
0100
0000
1000
0010
0000
,
0002
0203
2300
3200
,
0301
1000
0001
1000
0001
1000
0001
0110
,
0000
0010
0010
1000
0001
0000
0110
0000
,
1001
0000
0010
1000
0001
0010
0001
1000
,
0010
1000
0001
0010
0001
1000
0010
1000
,
0001
0100
0001
1000
0100
1000
0001
0100
,
0001
1000
0100
1000
0001
0100
0001
1000
,
0010
0100
0001
1000
0100
0010
0001
0100
,
0020
0000
0000
2030
0000
3002
0000
0103
,
0010
0000
1000
0100
0001
0000
0100
1000
,
0011
1001
0101
0110
,
1001
0000
0010
0001
1000
0100
0001
0100
,
0010
0001
1000
0100
0001
0100
0010
0001
,
0100
1000
0001
0010
1000
0010
0100
0001
,
0100
1000
0001
0010
1000
0010
0100
0001
,
0010
0100
1000
0001
0100
1000
0100
0010
,
1000
0100
0010
0001
0010
1000
0010
0100
,
0001
0000
0001
0100
2000
0000
0000
0000
,
3000
0001
0001
0001
0001
0000
0000
0000
,
0120
0000
0100
0130
0010
0010
0000
1000
,
0000
0001
0000
0010
0010
0000
0000
0000
,
2001
0000
0001
3001
1000
1000
0000
0110
,
0000
0101
0000
0110
0100
0000
0000
0000
,
0010
0000
0010
0000
0010
0000
0000
0010
,
0000
0010
0010
0010
,
1000
0000
1000
0002
0000
0000
0000
0000
,
0000
1003
0010
0001
0100
1000
0010
0001
,
0100
0000
0000
0000
,
1000
0000
0001
0000
,
1100
0000
0010
0000
,
1001
0000
0101
0000
1001
0000
1100
0001
,
0100
1000
0100
0010
1000
0100
1000
0001
,
0020
0000
0000
0032
0000
0000
1003
0100
,
0010
0000
0010
0001
1000
0000
1000
0001
,
0110
0101
1001
1100
,
0010
0001
0000
1100
0000
0110
0000
0011
,
0000
1001
0000
0101
0000
0110
0000
1100
,
0000
0011
0000
1001
0000
1010
0000
0011
,
0000
0000
1100
0000
0000
0000
0110
0000
0000
0000
1001
0000
0100
0010
0100
0000
,
0100
1000
0001
0100
1000
0100
0001
0010
,
1000
0010
0001
0100
0010
1000
0001
0100
,
0010
1000
0100
0010
0001
0010
1000
0100
,
0000
0001
0001
0001
0001
0000
0000
0020
,
0000
0000
0000
0000
0000
0000
0000
0000
0000
0000
0000
0000
0000
0000
1000
0001
,
0130
0000
0000
0000
;

//---------------dance-double - ----------------
#NOTES:
     dance-double:
     :
     Beginner:
     1:
     0.128,0.186,0.028,0.019,0.000: // measure 1
00000000
00000000
00000000
00000000
,  // measure 2
00000000
00000000
00000000
00000000
,  // measure 3
00000000
00000000
00000000
00000000
,  // measure 4
00000000
00000000
00000000
00000000
,  // measure 5
00010000
00000000
00000000
00000000
,  // measure 6
00010000
00000000
00000000
00000000
,  // measure 7
10000000
00000000
00000000
00000000
,  // measure 8
10000000
00000000
00000000
00000000
,  // measure 9
01000000
00000000
00000000
00000000
,  // measure 10
01000000
00000000
00000000
00000000
,  // measure 11
00010000
00000000
00000000
00000000
,  // measure 12
00010000
00000000
00000000
00000000
,  // measure 13
00001000
00000000
00010000
00000000
,  // measure 14
00001000
00000000
00010000
00000000
,  // measure 15
00001000
00000000
00000000
00000000
,  // measure 16
00000100
00000000
00000000
00000000
,  // measure 17
00000001
00000000
00000000
00000000
,  // measure 18
00001000
00000000
00000000
00000000
,  // measure 19
00000100
00000000
00000000
00000000
,  // measure 20
00010000
00000000
00000000
00000000
,  // measure 21
00001000
00000000
00000000
00000000
,  // measure 22
00010000
00000000
00010000
00000000
,  // measure 23
00100000
00000000
00000000
00000000
,  // measure 24
10000000
00000000
00000000
00000000
,  // measure 25
01000000
00000000
00000000
00000000
,  // measure 26
00010000
00000000
00000000
00000000
,  // measure 27
00001000
00000000
00000000
00000000
,  // measure 28
00000010
00000000
00000000
00000000
,  // measure 29
00000001
00000000
00000000
00000000
,  // measure 30
00001000
00000000
00000001
00000000
,  // measure 31
00002000
00000000
00000000
00003000
,  // measure 32
00000000
00000000
00000000
00000000
,  // measure 33
00000100
00000000
00000000
00000000
,  // measure 34
00010000
00000000
00000000
00000000
,  // measure 35
00002000
00000000
00000000
00003000
,  // measure 36
00000000
00000000
00000000
00000000
,  // measure 37
00010000
00000000
00000000
00000000
,  // measure 38
01000000
00000000
00000000
00000000
,  // measure 39
10010000
00000000
00000000
00000000
,  // measure 40
01000000
00000000
00010000
00000000
,  // measure 41
01000000
00000000
00000000
00000000
,  // measure 42
00001000
00000000
00010000
00000000
,  // measure 43
00001000
00000000
00000000
00000000
,  // measure 44
00000100
00000000
00001000
00000000
,  // measure 45
00000100
00000000
00000000
00000000
,  // measure 46
00000010
00000000
00000001
00000000
,  // measure 47
00000010
00000000
00000000
00000000
,  // measure 48
00001000
00000000
00000010
00000000
,  // measure 49
00001000
00000000
00000000
00000000
,  // measure 50
00010000
00000000
00001000
00000000
,  // measure 51
00010000
00000000
00000000
00000000
,  // measure 52
01000000
00000000
00000000
00000000
,  // measure 53
10000000
00000000
00000000
00000000
,  // measure 54
00100000
00000000
00000000
00000000
,  // measure 55
00011000
00000000
00000000
00000000
,  // measure 56
00000000
00000000
00001000
00000000
,  // measure 57
00001000
00000000
00000000
00000000
,  // measure 58
00000000
00000000
00000100
00000000
,  // measure 59
00000100
00000000
00000000
00000000
,  // measure 60
00000000
00000000
00001000
00000000
,  // measure 61
00001000
00000000
00000000
00000000
,  // measure 62
00010000
00000000
00010000
00000000
,  // measure 63
01000000
00000000
00000000
00000000
,  // measure 64
10000000
00000000
00000000
00000000
,  // measure 65
10000000
00000000
00000000
00000000
,  // measure 66
00100000
00000000
00000000
00000000
,  // measure 67
00100000
00000000
00000000
00000000
,  // measure 68
00010000
00000000
00001000
00000000
,  // measure 69
00010000
00000000
00000000
00000000
,  // measure 70
00001000
00000000
00000100
00000000
,  // measure 71
00001000
00000000
00000000
00000000
,  // measure 72
00000100
00000000
00000000
00000000
,  // measure 73
00000001
00000000
00000000
00000000
,  // measure 74
00001000
00000000
00001000
00000000
,  // measure 75
00000100
00000000
00000000
00000000
,  // measure 76
00010000
00000000
00010000
00000000
,  // measure 77
00001000
00000000
00001000
00000000
,  // measure 78
00010000
00000000
00010000
00000000
,  // measure 79
00000000
00000000
00000000
00000000
,  // measure 80
00011000
00000000
00000000
00000000
;
