#TITLE:BALALAIKA,CARRIED WITH THE WIND;
#SUBTITLE:;
#ARTIST:Julie ann Frost;
#TITLETRANSLIT:;
#SUBTITLETRANSLIT:;
#ARTISTTRANSLIT:;
#CREDIT:;
#BANNER:BALALAIKA,CARRIED WITH THE WIND.png;
#BACKGROUND:BALALAIKA,CARRIED WITH THE WIND-bg.png;
#LYRICSPATH:;
#CDTITLE:Dance Dance Revolution Ultramix 2 Song Pack 8.png;
#MUSIC:BALALAIKA,CARRIED WITH THE WIND.ogg;
#OFFSET:0.000;
#SAMPLESTART:18.300;
#SAMPLELENGTH:14.980;
#SELECTABLE:YES;
#DISPLAYBPM:134.000;
#BPMS:0.000=110.265,4.000=134.003;
#STOPS:;
#BGCHANGES:;

//---------------dance-single - ----------------
#NOTES:
     dance-single:
     :
     Beginner:
     1:
     0.166,0.184,0.101,0.000,0.000:
0000
0000
0000
0000
,
0000
0000
0000
0000
,
0000
0000
0000
0000
,
1000
0000
0001
0000
,
0010
0000
0010
0000
,
0010
0000
0010
0000
,
0010
0000
0100
0000
,
0001
0001
0001
0000
,
0010
0000
0100
0000
,
1000
1000
1000
0000
,
1000
0000
0010
0000
,
0010
0010
0010
0000
,
0001
0000
0100
0000
,
0100
0100
0100
0000
,
0001
0000
0001
0000
,
1000
0000
1000
0000
,
0010
0000
0100
0000
,
1001
0000
1001
0000
,
1000
0000
1000
0000
,
0001
0000
0001
0000
,
0100
0000
0010
0000
,
0110
0000
0110
0000
,
0010
0000
0010
0000
,
0100
0000
0100
0000
,
0010
0000
0010
0000
,
0001
0000
0001
0000
,
0010
0000
1001
0000
,
0100
0000
1001
0000
,
0010
0000
1001
0000
,
0001
0000
0001
0000
,
0100
0000
1000
0000
,
0010
0000
0100
0000
,
0001
0000
1000
0000
,
0010
0000
0110
0000
,
1000
0000
1000
0000
,
0010
0000
0010
0000
,
0010
0000
0100
0000
,
0010
0000
0100
0000
,
1000
0000
0010
0000
,
0001
0001
0001
0000
,
0001
0000
0010
0000
,
1000
1000
1000
0000
;

//---------------dance-single - ----------------
#NOTES:
     dance-single:
     :
     Easy:
     2:
     0.262,0.290,0.164,0.291,0.000:
0000
0000
0000
0000
,
0000
0000
0000
0000
,
0000
0000
0000
0000
,
2000
3000
0002
0003
,
0010
0100
0010
0100
,
0010
0100
0010
0100
,
0010
0001
0100
0000
,
0001
0001
0001
0000
,
0010
1000
0100
0000
,
1000
1000
1000
1001
,
1000
0001
0010
0000
,
0010
0010
0010
0000
,
0001
1000
0100
0000
,
0100
0100
0100
1001
,
0002
0003
0002
0003
,
2000
3000
2000
3000
,
0020
0030
0200
0300
,
1001
0000
1001
0000
,
2000
3000
2000
3000
,
0002
0003
0002
0003
,
0200
0300
0020
0030
,
0110
0000
0110
0000
,
0010
1000
0010
0000
,
0100
0001
0100
0000
,
0010
0100
0010
0000
,
0001
0010
0001
1001
,
0010
0000
1001
0000
,
0100
0000
1001
0000
,
0010
0000
1001
0000
,
0001
1000
0001
1000
,
0200
0300
2000
3000
,
0020
0030
0200
0300
,
0002
0003
2000
3000
,
0020
0030
0220
0330
,
1000
0001
1000
0000
,
0010
0100
0010
0000
,
0010
0001
0100
0000
,
0010
1000
0100
1001
,
1000
0100
0010
0000
,
0001
0001
0001
0000
,
0001
0100
0010
0000
,
1000
1000
1000
1001
;

//---------------dance-single - ----------------
#NOTES:
     dance-single:
     :
     Medium:
     4:
     0.414,0.475,0.367,0.392,0.000:
0000
0000
0000
0000
,
0000
0000
0000
0000
,
0000
0000
0000
0000
,
0001
1001
1000
1001
,
0002
2003
3002
2003
,
3002
2003
3002
2003
,
3010
0000
1000
0001
0010
0000
0001
0000
,
1000
0000
0001
1000
0010
0000
0100
0000
,
0001
1000
0010
0100
,
0001
1000
0001
0000
0010
0000
0001
0000
,
1000
0000
0001
0100
1000
0000
0100
0000
,
1000
0000
0100
0001
0010
0000
0100
0000
,
0001
0100
0010
0001
,
1000
0000
0001
1000
0001
0000
1001
0000
,
0102
1003
0102
1003
,
2100
3001
2100
3001
,
0120
0031
0210
1300
,
1001
0010
1001
0100
,
2010
3001
2010
3001
,
0012
1003
0012
1003
,
0210
1300
0120
0031
,
0110
1100
0110
0101
,
0010
0000
1000
0100
0010
0000
0001
0000
,
0100
0000
0010
1000
0001
0000
0100
0000
,
1010
0100
0110
0001
,
0010
0100
1000
0000
0001
0000
1001
0000
,
0100
0010
1001
0100
,
0001
0010
1001
0100
,
0010
1000
1100
0001
,
1000
0001
1000
0001
,
0200
0310
2000
3100
,
0020
0031
2000
3010
,
0200
0301
2000
3100
,
0020
0130
0220
0330
,
0100
0000
0001
1000
0100
0000
1000
0000
,
0001
0000
1000
0001
0100
0000
0010
0000
,
1000
0001
0100
0010
,
1000
0000
0100
0001
0100
0000
1000
0000
,
0001
0000
1000
0010
0001
0000
0010
0000
,
0001
0000
0010
1000
0100
0000
0010
0000
,
1000
0010
0100
2000
,
3001
0002
1003
1001
;

//---------------dance-single - ----------------
#NOTES:
     dance-single:
     :
     Hard:
     6:
     0.504,0.475,0.430,0.228,0.000: // measure 1
0000
0000
0000
0000
,  // measure 2
0000
0000
0000
0000
,  // measure 3
0000
0000
0000
0000
,  // measure 4
0010
1100
0010
0101
,  // measure 5
1000
0001
1000
0001
1000
0001
1000
0001
,  // measure 6
1000
0001
1000
0001
1000
0000
1001
0000
,  // measure 7
0100
1000
0001
0100
0010
0000
0110
0000
,  // measure 8
0010
0100
0001
1000
0100
0000
1100
0000
,  // measure 9
0002
2003
3002
2003
,  // measure 10
3001
0100
0010
0000
1000
0000
1001
0000
,  // measure 11
1000
0010
0100
0001
0010
0000
0011
0000
,  // measure 12
0010
0001
0100
0010
1000
0000
1010
0000
,  // measure 13
0002
2003
3002
2003
,  // measure 14
3001
0000
0100
0010
1000
0000
1001
0000
,  // measure 15
1000
0100
1000
0001
1000
0010
1000
0000
,  // measure 16
0100
1000
0100
0010
0100
0001
0100
0000
,  // measure 17
1000
0100
1000
0001
1000
0010
1000
0000
,  // measure 18
1100
0011
1001
0101
,  // measure 19
0001
0010
0001
1000
0001
0100
0001
0000
,  // measure 20
0010
0001
0010
0100
0010
1000
0010
0000
,  // measure 21
0001
0010
0001
1000
0001
0100
0001
0000
,  // measure 22
0110
1001
0110
1001
,  // measure 23
1000
0001
0100
0010
1000
0001
0100
0010
,  // measure 24
1000
0100
0010
0001
1000
0100
0010
0001
,  // measure 25
1001
1100
1001
0101
,  // measure 26
0001
0100
0010
0000
1000
0000
1001
0000
,  // measure 27
1000
0001
0100
0001
0101
0000
0100
0000
,  // measure 28
0001
1000
0100
1000
1100
0000
0100
0000
,  // measure 29
0100
1000
0001
0100
0110
0000
0010
0000
,  // measure 30
0100
0001
1000
0100
0010
0001
1000
0000
,  // measure 31
1000
0001
0100
0010
1000
0100
0001
0000
,  // measure 32
0010
1000
0010
0001
0100
0010
1000
0000
,  // measure 33
0010
0100
0001
1000
0001
0010
0100
0000
,  // measure 34
0100
0010
0001
1000
2002
0000
3003
0000
,  // measure 35
0100
0001
1000
0100
0010
0000
0110
0000
,  // measure 36
0010
0100
1000
0001
0100
0000
0101
0000
,  // measure 37
2000
3020
0230
0302
,  // measure 38
1003
0000
0100
0010
0001
0000
1100
0000
,  // measure 39
1000
0100
1000
0010
0100
0000
0110
0000
,  // measure 40
0100
0010
1000
0100
1000
0000
0101
0000
,  // measure 41
2000
3200
0320
0032
,  // measure 42
1003
1100
0101
1001
;

//---------------dance-double - ----------------
#NOTES:
     dance-double:
     :
     Easy:
     3:
     0.271,0.396,0.152,0.253,0.000:
00000000
00000000
00000000
00000000
,
00000000
00000000
00000000
00000000
,
00000000
00000000
00000000
00000000
,
00000000
00011000
00000000
00011000
,
00020000
00032000
00023000
00032000
,
00023000
00032000
00023000
00030000
,
00001000
00001000
00001000
00000000
,
00000100
00000100
00000100
00000000
,
00000010
00000010
00000010
00000000
,
00001000
00001000
00001000
00011000
,
00010000
00010000
00010000
00000000
,
01000000
01000000
01000000
00000000
,
00100000
00100000
00100000
00000000
,
00010000
00010000
00010000
00011000
,
00020000
00030000
00002000
00003000
,
00000200
00000300
00000002
00000003
,
00000020
00000030
00002000
00003000
,
00011000
00000000
00011000
00000000
,
00020000
00030000
00200000
00300000
,
20000000
30000000
02000000
03000000
,
00020000
00030000
00002000
00003000
,
00011000
00000000
00011000
00000000
,
00001000
00001000
00001000
00000000
,
00000100
00000100
00000100
00000000
,
00000010
00000010
00000010
00000000
,
00001000
00001000
00001000
00011000
,
00010000
00010000
00010000
00000000
,
01000000
01000000
01000000
00000000
,
00100000
00100000
00100000
00000000
,
00010000
00010000
00010000
00011000
,
00010000
00010000
01000000
01000000
,
10000000
10000000
01000000
01000000
,
00100000
00100000
00010000
00010000
,
10000000
10000000
02000000
03000000
,
00010000
00010000
00010000
00000000
,
00100000
00100000
00100000
00000000
,
01000000
01000000
01000000
00000000
,
00010000
00010000
00010000
00011000
,
00001000
00001000
00001000
00000000
,
00000010
00000010
00000010
00000000
,
00000100
00000100
00000100
00000000
,
00001000
00001000
00001000
00011000
;

//---------------dance-double - ----------------
#NOTES:
     dance-double:
     :
     Medium:
     5:
     0.414,0.475,0.329,0.417,0.000:
00000000
00000000
00000000
00000000
,
00000000
00000000
00000000
00000000
,
00000000
00000000
00000000
00000000
,
00000001
00000101
00001000
00001010
,
00000020
00000000
00000000
00000030
00002000
00000000
00000000
00000000
00003200
00000000
00000000
00000000
00020300
00000000
00000000
00000000
,
00032000
00203000
00320000
20030000
,
30100000
00000000
10000000
00100000
01000000
00000000
00010000
00000000
,
01000000
00000000
00001000
00010000
00000100
00000000
00000010
00000000
,
00000001
00000100
00000010
00001000
,
00000100
00010000
00001000
00000000
00100000
00000000
00110000
00000000
,
10000000
00000000
00010000
01000000
10000000
00000000
01000000
00000000
,
00010000
00000000
00100000
01000000
00010000
00000000
00001000
00000000
,
00010000
00000100
00001000
00000010
,
00000100
00000000
00000001
00001000
00000001
00000000
00001001
00000000
,
00000002
00000103
00000200
00001300
,
00002000
00013000
00020000
01030000
,
02000000
13000000
20000000
30010000
,
01010000
10000000
11000000
01000000
,
00210000
01300000
21000000
30010000
,
02010000
03100000
01002000
00013000
,
00020100
00031000
00002100
00003001
,
00000101
00001000
00001100
00000001
,
00000101
00000000
00000001
00000100
00000010
00000000
00001000
00000000
,
00000010
00000000
00010000
00001000
00100000
00000000
01000000
00000000
,
10000000
00100000
01000000
00010000
,
00100000
00001000
00010000
00000000
00000100
00000000
00001100
00000000
,
00000002
00001000
00000010
00001003
,
00002000
00000100
00000001
00003100
,
00000200
00010000
00001000
00010300
,
00020000
00001000
00000100
00031000
,
00210000
01300000
21000000
30010000
,
02010000
03100000
01002000
00013000
,
00020100
00031000
00210000
01300000
,
21000000
30010000
02200000
03300000
,
01000000
00000000
10000000
00100000
01000000
00000000
00010000
00000000
,
01000000
00000000
00001000
00010000
00000100
00000000
00000010
00000000
,
00000001
00000100
00000010
00001000
,
00000100
00010000
00001000
00000000
00100000
00000000
00110000
00000000
,
10000000
00000000
00010000
01000000
10000000
00000000
01000000
00000000
,
00010000
00000000
00100000
01000000
00010000
00000000
00001000
00000000
,
00010000
00000100
00001000
00000010
,
00000100
00000000
00000001
00001000
00000001
00000000
00001001
00000000
;

//---------------dance-double - ----------------
#NOTES:
     dance-double:
     :
     Hard:
     6:
     0.506,0.475,0.405,0.228,0.000:
00000000
00000000
00000000
00000000
,
00000000
00000000
00000000
00000000
,
00000000
00000000
00000000
00000000
,
00010000
00011000
00001000
00011000
,
00001000
00010000
00001000
00010000
00001000
00010000
00001000
00010000
,
00001000
00010000
00001000
00010000
00001000
00000000
00011000
00000000
,
00010000
01000000
10000000
01000000
00100000
00000000
01100000
00000000
,
00100000
01000000
10000000
01000000
00010000
00000000
01010000
00000000
,
02000000
23000000
30020000
00230000
,
00301000
00010000
00001000
00000000
00010000
00000000
00011000
00000000
,
00001000
00000100
00000001
00000100
00000010
00000000
00000110
00000000
,
00000010
00000100
00000001
00000100
00001000
00000000
00001100
00000000
,
00000200
00000302
00002003
00003020
,
00010030
00000000
00001000
00010000
00001000
00000000
00011000
00000000
,
01000000
00010000
10000000
00010000
01000000
00010000
10000000
00000000
,
00100000
01000000
00010000
01000000
00100000
01000000
00010000
00000000
,
00001000
00010000
00000010
00010000
00001000
00010000
00000010
00000000
,
00010010
00011000
00101000
00011000
,
00001000
00010000
00000100
00010000
00001000
00010000
00000100
00000000
,
00001000
00000100
00000010
00000100
00001000
00000100
00000010
00000000
,
00000100
00001000
00000001
00001000
00000100
00001000
00000001
00000000
,
00001001
00001100
00010100
00011000
,
00100000
00010000
10000000
01000000
00100000
00010000
10000000
00010000
,
10000000
00100000
01000000
00010000
00100000
01000000
10000000
00100000
,
10100000
01010000
01001000
00011000
,
00010000
00000100
00001000
00000000
00000001
00000000
00001001
00000000
,
00000010
00001000
00000100
00010000
00011000
00000000
00001000
00000000
,
00010000
00001000
00100000
00010000
00110000
00000000
10000000
00000000
,
01000000
10000000
00010000
01000000
01010000
00000000
00010000
01000000
,
00001000
00010000
00000100
00001000
00000001
00000010
00000100
00000000
,
00001000
00000100
00010000
00001000
01000000
00010000
10000000
00000000
,
00010000
00100000
01000000
10000000
00010000
01000000
00100000
00000000
,
00100000
01000000
00010000
00100000
00001000
00010000
00000100
00001000
,
00000010
00000100
00000001
00001000
00002002
00000000
00003003
00000000
,
00001000
00000010
00000001
00000010
00000100
00000000
00000110
00000000
,
00000100
00000010
00000001
00000010
00001000
00000000
00001010
00000000
,
00000020
00000032
00002003
00003200
,
00010300
00001000
00010000
00000000
00001000
00000000
00011000
00000000
,
00010000
00100000
10000000
00100000
01000000
00000000
01100000
00000000
,
01000000
00100000
10000000
00100000
00010000
00000000
00110000
00000000
,
00200000
20300000
30020000
02030000
,
03100000
00000000
10000000
00010000
10000000
00000000
10010000
00000000
;

//---------------dance-double - ----------------
#NOTES:
     dance-double:
     :
     Beginner:
     1:
     0.150,0.184,0.076,0.000,0.000:
00000000
00000000
00000000
00000000
,
00000000
00000000
00000000
00000000
,
00000000
00000000
00000000
00000000
,
00000000
00011000
00000000
00011000
,
00000000
00001000
00000000
00001000
,
00000000
00001000
00000000
00000000
,
00001000
00000000
00001000
00000000
,
00000100
00000000
00000100
00000000
,
00000010
00000000
00000010
00000000
,
00001000
00000000
00001000
00000000
,
00010000
00000000
00010000
00000000
,
01000000
00000000
01000000
00000000
,
00100000
00000000
00100000
00000000
,
00010000
00000000
00010000
00000000
,
00010000
00000000
00001000
00000000
,
00000100
00000000
00000001
00000000
,
00000010
00000000
00001000
00000000
,
00011000
00000000
00011000
00000000
,
00010000
00000000
00100000
00000000
,
10000000
00000000
01000000
00000000
,
00010000
00000000
00001000
00000000
,
00011000
00000000
00011000
00000000
,
00001000
00000000
00001000
00000000
,
00000100
00000000
00000100
00000000
,
00000010
00000000
00000010
00000000
,
00001000
00000000
00001000
00000000
,
00010000
00000000
00010000
00000000
,
01000000
00000000
01000000
00000000
,
00100000
00000000
00100000
00000000
,
00010000
00000000
00010000
00000000
,
00010000
00000000
01000000
00000000
,
10000000
00000000
01000000
00000000
,
00100000
00000000
00010000
00000000
,
10000000
00000000
01000000
00000000
,
00010000
00000000
00010000
00000000
,
00100000
00000000
00100000
00000000
,
01000000
00000000
01000000
00000000
,
00010000
00000000
00010000
00000000
,
00001000
00000000
00001000
00000000
,
00000010
00000000
00000010
00000000
,
00000100
00000000
00000100
00000000
,
00001000
00000000
00001000
00000000
;

//---------------dance-single - ----------------
#NOTES:
     dance-single:
     :
     Challenge:
     8:
     0.491,0.713,0.278,0.000,0.392: // measure 1
0000
0000
0000
0000
,  // measure 2
0000
0000
0000
0000
,  // measure 3
0000
0000
0000
0000
,  // measure 4
0000
0000
0000
0000
,  // measure 5
0000
0000
0000
0000
,  // measure 6
0000
0000
0000
0000
,  // measure 7
1000
0000
0001
0100
0001
0000
1000
0000
,  // measure 8
0100
1000
0001
0010
0100
0000
1000
0000
,  // measure 9
0001
0000
0000
0001
0100
0000
0000
0100
0010
0000
0000
0010
1000
0000
0000
1000
,  // measure 10
0001
0000
0010
0100
0010
0000
1001
0000
,  // measure 11
0100
0000
0001
1000
0010
0000
0100
0000
,  // measure 12
0010
1000
0001
0100
1000
0000
0100
0000
,  // measure 13
0001
0000
0000
0001
0100
0000
0000
0100
0010
0000
0000
0010
1000
0000
0000
1000
,  // measure 14
0001
0000
1000
0100
1000
0000
1001
0000
,  // measure 15
0001
0100
0010
1000
0100
0010
0100
1000
,  // measure 16
0001
0100
0010
1000
0001
1000
0010
0100
,  // measure 17
0001
1000
0010
0100
1000
0100
0001
1000
,  // measure 18
1100
0101
1001
0110
,  // measure 19
0100
1000
0001
0100
0010
1000
0001
0100
,  // measure 20
0010
0100
0001
0010
0100
1000
0100
0010
,  // measure 21
1000
0010
0001
1000
0001
0100
1000
0100
,  // measure 22
1100
0011
0110
1001
,  // measure 23
0010
0000
0001
0010
0001
0000
0010
0100
0010
0000
0100
1000
0100
1000
0100
1000
,  // measure 24
0100
0000
1000
0001
1000
0000
0001
0100
0001
0000
1000
0010
1000
0010
1000
0010
,  // measure 25
1000
1001
0010
1001
,  // measure 26
0100
1001
0010
0000
,  // measure 27
1100
0100
0101
0001
,  // measure 28
0011
0010
1010
1000
,  // measure 29
1100
0100
0101
0001
,  // measure 30
0010
0000
1000
0010
1000
0000
0100
1000
0100
0000
0001
0100
0001
0000
0100
0000
,  // measure 31
1000
0000
0010
1000
0000
0000
0001
0100
0000
0000
0010
0100
0000
0000
1000
0100
,  // measure 32
0000
0000
0010
0100
0000
0000
0001
1000
0000
0000
0001
0010
0000
0000
0100
1000
,  // measure 33
0000
0000
0100
0001
0000
0000
0100
1000
0000
0000
0001
0010
0000
0000
0100
1000
,  // measure 34
0001
1000
0001
1000
0001
1000
0001
1000
0001
0000
0000
0000
0000
0000
0000
0000
,  // measure 35
1000
0000
0000
1000
0100
0000
0000
0100
0001
0000
0000
0001
0100
0000
0000
0100
,  // measure 36
1000
0000
0000
1000
0010
0000
0000
0010
0001
0000
0000
0001
0010
0000
0000
0010
,  // measure 37
1000
0000
0000
1000
0001
0000
0000
0001
0100
0000
0000
0100
0010
0000
0000
0010
,  // measure 38
1000
0000
0000
1000
0100
0000
0010
0001
1000
0000
0000
0000
MMMM
0000
0000
0000
,  // measure 39
0001
0000
0000
0100
0010
0000
0000
1000
0100
0000
0000
0010
0001
0000
0000
0100
,  // measure 40
0010
0000
0000
1000
0100
0000
0000
0001
0100
0000
0000
1000
0100
0000
0000
1000
,  // measure 41
0010
0000
0000
0001
0010
0000
0000
1000
0100
0000
0000
0010
0001
0000
0000
0000
,  // measure 42
0101
1100
1001
MMMM
;

//---------------dance-double - ----------------
#NOTES:
     dance-double:
     :
     Challenge:
     8:
     0.502,0.607,0.329,0.000,0.392:
00000000
00000000
00000000
00000000
,
00000000
00000000
00000000
00000000
,
00000000
00000000
00000000
00000000
,
00000000
00000000
00000000
00000000
,
00000000
00000000
00000000
00000000
,
00000000
00000000
00000000
00000000
,
00001000
00000010
00000001
00000010
00000100
00000000
00000110
00000000
,
00000100
00000010
00000001
00000010
00001000
00000000
00001010
00000000
,
00000010
00000000
00000000
00000010
00000001
00000000
00000000
00000001
00001000
00000000
00000000
00001000
00000100
00000000
00000000
00000100
,
00010000
00000000
00000000
00001000
00010000
00000000
00000000
00010000
00001000
00000000
00000000
00000000
00011000
00000000
00000000
00000000
,
00010000
00100000
10000000
00100000
01000000
00000000
01100000
00000000
,
01000000
00100000
10000000
00100000
00010000
00000000
00110000
00000000
,
00100000
00000000
00000000
00100000
10000000
00000000
00000000
10000000
00010000
00000000
00000000
00010000
01000000
00000000
00000000
01000000
,
00001000
00000000
00000000
00001000
00010000
00000000
00000000
00010000
00001000
00000000
00000000
00000000
00011000
00000000
00000000
00000000
,
00000010
00001000
00000001
00001000
00000010
00001000
00000001
00000100
,
00001000
00100000
00001000
00010000
00001000
00000100
00001000
00010000
,
01000000
00100000
00001000
00100000
01000000
00100000
10000000
00010000
,
01000000
10000000
01000000
00010000
01000000
10000000
01000000
00010000
,
00001000
00000010
00001000
00000010
00000001
00000100
00000010
00001000
,
00000100
00010000
00000100
00010000
00001000
00000100
00000001
00000100
,
00001000
00100000
00001000
00100000
01000000
00010000
01000000
10000000
,
11000000
10100000
00110000
00011000
,
00001000
00000000
00000010
00000000
00000001
00000000
00000010
00000000
00001000
00000000
00010000
00001000
00010000
00001000
00010000
00001000
,
00010000
00000000
00100000
00000000
10000000
00000000
00100000
00000000
00010000
00000000
00001000
00010000
00001000
00010000
00001000
00010000
,
00001000
00001010
00000011
00001010
,
00011000
01010000
10010000
00000000
,
11000000
00100000
00011000
00000100
,
00000011
00000100
00011000
00100000
,
11000000
00100000
00011000
00000100
,
00000011
00000000
00000010
00000001
00000010
00000000
00000001
00001000
00000001
00000000
00001000
00000001
00001000
00000000
00000000
00000000
,
00000000
00000000
00000001
00000010
00000000
00000000
00001000
00010000
00000000
00000000
00000010
00001000
00000000
00000000
00000001
00000100
,
00000000
00000000
00001000
00010000
00000000
00000000
00100000
00010000
00000000
00000000
00000010
00001000
00000000
00000000
00000100
00010000
,
00000000
00000000
01000000
00100000
00000000
00000000
10000000
00100000
00000000
00000000
00010000
01000000
00000000
00000000
00100000
10000000
,
00010000
10000000
00010000
10000000
00010000
10000000
00010000
10000000
00010000
00000000
00000000
00000000
00000000
00000000
00000000
00000000
,
10000000
00000000
00000000
10000000
00100000
00000000
00000000
00100000
00010000
00000000
00000000
00010000
00001000
00000000
00000000
00001000
,
00000010
00000000
00000000
00000010
00000001
00000000
00000000
00000001
00000100
00000000
00000000
00000100
00001000
00000000
00000000
00001000
,
00010000
00000000
00000000
00010000
01000000
00000000
00000000
01000000
10000000
00000000
00000000
10000000
00010000
00000000
00000000
00010000
,
01000000
00000000
00000000
01000000
00100000
00000000
10000000
00010000
10000000
00000000
00000000
00000000
MMMMMMMM
00000000
00000000
00000000
,
10000000
00000000
00000000
01000000
00010000
00000000
00000000
00001000
00000010
00000000
00000000
00000001
00000010
00000000
00000000
00001000
,
00010000
00000000
00000000
00100000
10000000
00000000
00000000
01000000
00100000
00000000
00000000
00010000
00001000
00000000
00000000
00000100
,
00000010
00000000
00000000
00000001
00000100
00000000
00000000
00000010
00000001
00000000
00000000
00000010
00001000
00000000
00000000
00000000
,
00001100
00000101
00001001
MMMMMMMM
;
