#TITLE:B4U;
#SUBTITLE:;
#ARTIST:NAOKI;
#TITLETRANSLIT:;
#SUBTITLETRANSLIT:;
#ARTISTTRANSLIT:;
#CREDIT:;
#BANNER:B4U.png;
#BACKGROUND:B4U-bg.png;
#LYRICSPATH:;
#CDTITLE:Dance Dance Revolution 4th Mix.png;
#MUSIC:B4U.ogg;
#OFFSET:0.000;
#SAMPLESTART:26.308;
#SAMPLELENGTH:15.000;
#SELECTABLE:YES;
#DISPLAYBPM:155.000;
#BPMS:0.000=155.172,12.000=155.085;
#STOPS:;
#BGCHANGES:;

//---------------dance-single - ----------------
#NOTES:
     dance-single:
     :
     Beginner:
     1:
     0.166,0.250,0.111,0.000,0.000:
0000
0000
0000
0000
,
0000
0000
0000
0000
,
0000
0000
0000
0000
,
0000
0000
0000
0000
,
0000
0000
0000
0000
,
1000
0000
1000
0000
,
1000
0000
1000
0000
,
0001
0000
0001
0000
,
0001
0000
0001
0000
,
1000
0000
0000
0000
,
0001
0000
0000
0000
,
0010
0000
0100
0000
,
0010
0010
0010
0000
,
1000
0000
1000
0000
,
0001
0000
0001
0000
,
0010
0000
0010
0000
,
0100
0100
0100
0100
,
0100
0000
0000
0000
,
0001
0000
1000
0000
,
1001
0000
0000
0000
,
0010
0000
0100
0000
,
0110
0000
0000
0000
,
1001
1001
1001
0000
,
0100
0000
0000
0000
,
0010
0000
0000
0000
,
1000
0000
0000
0000
,
0001
0000
0000
0000
,
1000
0000
0000
0000
,
0100
0100
0100
0000
,
0001
0000
1000
0000
,
0001
0000
1000
0000
,
0010
0000
0100
0000
,
0010
0000
0100
0000
,
0001
0000
0001
0000
,
1000
0000
1000
0000
,
0001
0001
0000
0000
,
1000
1000
0000
0000
,
0010
0000
0100
0000
,
0010
0000
0100
0000
,
0001
0001
0001
0000
,
0100
0100
0100
0100
,
0100
0000
0000
0000
,
0001
0000
1000
0000
,
1001
0000
0000
0000
,
0010
0000
0100
0000
,
0110
0000
0000
0000
,
0001
0000
0001
0000
,
0001
0000
0000
0000
,
1000
0000
0001
0000
,
1000
0000
0000
0000
,
0010
0000
0000
0000
,
0001
0000
0000
0000
,
1000
1000
1000
1000
,
1000
0000
0000
0000
,
0001
0000
1000
0000
,
0110
0000
0000
0000
,
0010
0000
0100
0000
,
1001
0000
0000
0000
,
0010
0000
0010
0000
,
0110
0000
0000
0000
,
0001
0000
1000
0000
,
0010
0000
0100
0000
,
1001
0000
0000
0000
;

//---------------dance-single - ----------------
#NOTES:
     dance-single:
     :
     Easy:
     4:
     0.278,0.344,0.050,0.000,0.000:
0000
0000
0000
0000
,
0000
0000
0000
0000
,
0000
0000
0000
0000
,
0000
0000
0000
0000
,
0000
0000
0000
0000
,
0100
0000
0010
1000
,
0001
0001
0001
0001
,
0010
0000
0001
1000
,
0100
0100
0100
0100
,
1000
0100
0000
0001
,
0000
1000
0000
0001
,
0000
0010
0000
0100
,
1000
0010
0100
0001
,
0001
0000
1000
0100
,
0000
0001
0000
1000
,
0010
0100
0001
1000
,
0010
0010
0100
0100
,
1000
0000
1000
0010
,
0100
0100
0100
1001
,
0010
0000
0010
1000
,
0001
0001
0001
0010
,
0100
0000
0100
1000
,
0001
0001
0001
0110
,
1000
0000
1000
0010
,
0100
0001
1000
0010
,
0001
0000
0000
0000
,
0001
0000
0000
0000
,
0010
0000
0100
0000
,
0010
0100
0001
1000
,
0100
0010
0001
1000
,
0001
0100
0010
1000
,
0010
1000
0001
0100
,
0010
0010
0010
0010
,
1000
1000
0000
0001
,
0000
0010
0000
0100
,
1000
0000
0001
0000
,
0100
0001
1000
0010
,
0100
0100
0100
0100
,
0010
0010
0010
0010
,
0000
1000
0000
0001
,
0100
0010
1000
0001
,
1000
0000
1000
0010
,
0100
0100
0100
1001
,
0010
0000
0010
1000
,
0001
0001
0001
0010
,
0100
0000
0100
1000
,
0001
0001
0001
0110
,
1000
0000
1000
0010
,
0100
0001
1000
0010
,
1000
0000
0001
0000
,
1000
0000
0001
0000
,
1000
0001
1000
0001
,
1000
0000
0000
1001
,
1000
0000
1000
0010
,
0100
0001
1000
0010
,
0100
0000
0100
0001
,
1000
1000
1000
1000
,
0001
0000
1000
0010
,
0100
0100
0100
0010
,
1000
0000
1000
0001
,
0100
0010
1000
0001
,
0100
0100
0000
0100
0100
0100
0100
0000
,
0100
0000
0000
0000
;

//---------------dance-single - ----------------
#NOTES:
     dance-single:
     :
     Medium:
     5:
     0.345,0.376,0.010,0.000,0.000:
0000
0000
0000
0000
,
0000
0000
0000
0000
,
0000
0000
0000
0000
,
0000
0000
0000
0000
,
0000
0000
0000
0000
,
0100
0100
0001
1000
,
0010
0000
0010
0100
0001
1000
0100
0000
,
1000
1000
0010
0100
,
0001
0000
0001
1000
0010
0100
0001
0000
,
1000
0000
0001
0000
,
0100
0000
0100
0010
0100
0001
1000
0000
,
0001
0001
0000
1000
,
0000
0010
0010
0000
0000
0100
0100
0000
,
0001
0000
0000
0001
1000
0000
0000
1000
,
0010
0000
1000
0000
0001
0000
0001
1000
,
0100
0100
0100
0100
,
1000
0000
1000
0000
1000
0001
1000
0001
,
0100
0000
0100
0010
,
1000
0000
0001
0000
1000
0000
0001
0100
,
1000
0000
0100
0001
,
1000
0000
0010
0000
0100
0000
0001
0100
,
1000
0000
0010
1000
,
0001
0000
0100
0000
0010
0000
1000
0100
,
0001
0000
0100
1000
,
0010
0010
1000
0001
,
0100
0000
0000
0000
0000
0000
0000
0010
,
0100
0000
0000
0000
0000
0000
0000
0010
,
0100
0000
0010
0000
,
0010
1000
0001
0100
,
1000
0010
0100
0001
,
1000
0100
0010
0001
,
0100
0001
1000
0010
,
0100
0000
0100
0000
0010
1000
0001
0100
,
0010
0000
0010
1000
,
0001
0000
0001
0000
0100
0001
1000
0010
,
0100
0000
0100
0001
,
1000
1000
1000
0000
0000
0001
0001
0000
,
0100
0000
0000
0010
1000
0000
0000
0001
,
0010
0000
0010
0000
0001
0000
1000
0010
,
0100
0001
1000
0010
,
1000
0000
1000
0000
1000
0001
1000
0001
,
0100
0001
1000
0010
,
0100
0000
0100
0000
0100
0000
0010
1000
,
0001
0000
0100
0010
,
1000
0000
1000
0000
1000
0000
0010
0100
,
0001
0000
1000
0010
,
1000
0000
0010
0000
0100
0000
0001
0010
,
0100
1000
1000
1000
,
0010
0010
0100
0000
,
0001
0000
1000
0000
,
0010
0000
0100
0000
,
0001
0100
0010
1000
,
0001
0100
0010
1000
0001
0000
1001
0000
,
0010
0000
0100
0001
,
1000
0000
0010
0000
0100
0000
0010
0010
,
1000
1000
0001
0100
,
0001
0000
1000
1000
0010
0000
0100
0100
,
0001
0000
1000
0010
,
0100
0000
0001
0000
1000
0000
0001
0001
,
0100
0000
0100
0000
0010
0000
1000
0001
,
0100
0000
0100
0010
1000
1000
0000
0000
,
0001
1000
0000
0001
1000
0001
1000
0000
,
0010
0000
0000
0000
;

//---------------dance-single - ----------------
#NOTES:
     dance-single:
     :
     Hard:
     8:
     0.492,0.501,0.162,0.000,0.081:
0000
0000
0000
0000
,
0000
0000
0000
0000
,
0000
0000
0000
0000
,
0000
0000
0000
0000
,
0000
0000
1000
1001
,
0001
0100
0000
0010
0000
1000
0001
1000
,
0000
0010
0100
0010
0000
0100
0001
1000
,
0000
0010
0000
0100
0000
0001
0100
1000
,
0000
0010
0000
0010
0000
0001
1000
0001
,
1000
0000
0000
0001
0100
0100
0000
0010
,
1000
0001
0100
0010
0100
0010
1000
0000
,
0001
0000
0000
0100
0010
1000
0000
0001
,
1000
0000
0001
0100
0010
1000
0001
0000
,
1000
0000
1000
0001
0100
0000
0100
0010
,
1000
0001
0100
0000
0100
0000
1001
0000
,
0100
0101
0100
1100
,
0010
0000
0100
0000
0010
0100
0001
1000
,
0010
0000
0000
0000
0010
0000
0000
0000
0100
0000
0000
0001
1000
0000
0010
0000
,
0100
0000
0100
0000
0100
0000
0010
1000
,
1000
0000
0000
0000
0001
0000
0000
0000
0100
0000
0000
0010
1000
0000
0001
0000
,
0100
0010
0100
0010
0100
0010
0100
0100
,
0001
0000
0000
0000
1000
0000
0000
0000
0010
0000
0000
1000
0001
0000
0100
0000
,
0010
0000
1010
0000
0100
0000
0010
1000
,
1000
0000
0000
0000
0001
0000
0000
0000
0100
0000
0000
0001
0010
0000
0001
0000
,
1000
0100
0010
0001
1000
1000
0000
0000
,
0010
0000
0000
0000
0000
0000
0000
1000
,
0001
0000
0000
0000
0000
0000
0000
0100
,
0010
0000
1000
0001
,
0100
0000
0010
0000
1000
0001
0100
0010
,
1000
0001
0000
0100
0000
0010
0100
0001
,
0000
1000
0000
0010
0000
0100
0001
1000
,
0000
0001
0000
0100
0000
0001
1000
0100
,
0000
0010
0000
0100
1000
0001
0010
0001
,
1000
0000
0001
0100
0010
0000
1000
0001
,
0100
0000
0100
0010
1000
0001
0100
0000
,
0010
0000
0010
1000
0001
0000
0001
0100
,
0010
1000
0001
0000
0001
1000
0010
0000
,
0100
0000
0100
0010
1000
0000
1000
0001
,
0010
0000
0010
0001
1000
0000
1000
0100
,
1000
0010
0100
0001
1000
0010
0100
0000
,
1000
0000
0010
0000
0100
0001
1000
0010
,
0100
0000
0000
0000
0010
0000
0000
0010
1000
0000
0000
1000
0001
0000
0100
0000
,
0010
0000
0010
0000
0010
0000
0100
0001
,
0001
0000
0000
0000
0000
0000
0000
0000
0010
0000
0000
0100
1000
0000
0001
0000
,
0010
0100
0010
0100
0010
0100
0010
0010
,
0001
0000
0000
0000
0100
0000
0000
0100
0001
0000
0000
0001
1000
0000
0010
0000
,
0100
0000
0101
0000
0010
0000
0100
0001
,
0001
0000
0000
0000
0000
0000
0000
0000
0010
0000
0000
1000
0100
0000
1000
0000
,
0001
0010
0100
1000
0001
0001
0000
0000
,
1001
0001
0110
0100
,
1010
0010
1001
1000
,
0011
1100
0011
1100
,
0001
0000
0100
0000
0010
0000
1000
0000
0001
1000
0001
1000
0000
0000
0000
0000
,
0010
0000
0000
0000
0010
0000
0000
0000
0001
0000
0000
1000
0100
0000
0010
0000
,
0001
0000
1000
0000
0001
0000
0100
0010
,
1000
0000
0000
0000
1000
0000
0000
0000
0100
0000
0000
0010
1000
0000
0001
0000
,
0100
0010
1000
0001
0100
0010
1000
1000
,
0001
0000
0000
0000
0001
0000
0000
0000
0010
0000
0000
0100
0001
0000
1000
0000
,
0010
0000
0110
0000
0100
0000
0001
1000
,
0100
0000
0000
0000
0010
0000
0000
0000
1000
0000
0000
0010
0100
0000
0001
0000
,
1000
0010
0100
0001
1000
1000
0010
0100
,
0001
0001
0000
1000
0010
1000
0001
0000
,
1100
0000
0000
0000
;

//---------------dance-double - ----------------
#NOTES:
     dance-double:
     :
     Easy:
     4:
     0.286,0.313,0.071,0.000,0.000:
00000000
00000000
00000000
00000000
,
00000000
00000000
00000000
00000000
,
00000000
00000000
00000000
00000000
,
00000000
00000000
00000000
00000000
,
00000000
00000000
00000000
00000000
,
10000000
00000000
00010000
00000000
,
01000000
00001000
00010000
00001000
,
00010000
00000000
00000010
00000000
,
00001000
00000001
00000100
00000010
,
00010000
00000000
00000100
00000000
,
00010000
00001000
00000000
00011000
,
01000000
00000000
00100000
00000000
,
10000000
00010000
01000000
00001000
,
00010000
00000000
00000010
00000000
,
00001000
00000010
00000000
00001001
,
00000100
00000100
00000010
00000010
,
00010000
00010000
00001000
00010000
,
01000000
01000000
10000000
00010000
,
00100000
00001000
01000000
00001000
,
00010000
00000000
00010000
00001000
,
00000100
00000100
00000100
00000100
,
00000001
00000000
00000100
00000010
,
00010000
00010000
00001000
01000000
,
00100000
00000000
10000000
00010000
,
01000000
00100000
10000000
10010000
,
01000000
00000000
00000000
00000000
,
00000010
00000000
00000000
00000000
,
01000000
00000000
00100000
00000000
,
10000000
00010000
01000000
00001000
,
00000100
00000010
00010000
00000100
,
00100000
00001000
00010000
00000100
,
00001000
00000001
00000100
00000010
,
00010000
00001000
01000000
00100000
,
10000000
00000000
00010000
01000000
,
00001000
00010000
00001000
00011000
,
00000100
00000000
00000010
00001000
,
00000001
00001000
00000100
00010000
,
00001000
00000000
00100000
00000000
,
00010000
00100000
00000000
01100000
,
10000000
10000000
00010000
00010000
,
00001000
00010000
00001000
00001000
,
00000100
00000100
00000001
00001000
,
00000010
00010000
00000100
00010000
,
01000000
00000000
10000000
00010000
,
01000000
00010000
00001000
00000100
,
00000001
00000000
00000100
00000010
,
00010000
00010000
00001000
01000000
,
00100000
00000000
10000000
00010000
,
01000000
00100000
00001000
00011000
,
00000000
00000010
00000000
00000100
,
00000000
00000001
00000000
00001000
,
00000010
00010000
00001000
01000000
,
00010000
10000000
00100000
10010000
,
01000000
00000000
00001000
00010000
,
00000010
00000010
00000010
00001000
,
00000001
00000000
00000100
00000010
,
00010000
00010000
00001000
01000000
,
00100000
00000000
10000000
00010000
,
01000000
01000000
01000000
00001000
,
00010000
00000000
00000010
00001000
,
00000100
00010000
00001000
00100000
,
00010000
00000000
00000000
10000000
00010000
10000000
00010000
00000000
,
01000000
00000000
00000000
00000000
;

//---------------dance-double - ----------------
#NOTES:
     dance-double:
     :
     Medium:
     6:
     0.350,0.407,0.182,0.000,0.000:
00000000
00000000
00000000
00000000
,
00000000
00000000
00000000
00000000
,
00000000
00000000
00000000
00000000
,
00000000
00000000
00000000
00000000
,
00000000
00000000
00000000
00000000
,
10000000
00000000
00000000
00010000
01000000
00000000
00000000
00001000
,
00010000
00001000
00010000
00000010
,
00000100
00000000
00000000
00000001
00001000
00000000
00000000
00000010
,
00010000
00010000
00001000
01000000
,
00010000
00000000
00000000
01000000
00001000
00000000
00000000
00010000
,
00000010
00000000
00000010
00000000
00000010
00001000
00000001
00000000
,
00000100
00000000
00000000
00000010
00010000
00000000
00000000
00001000
,
01000000
00000000
00000000
11000000
,
00010000
00000000
00000000
01000000
00001000
00000000
00000000
00010000
,
00000010
00000100
00000001
00001000
,
00000100
00000100
00010000
00001000
,
00100000
10010000
01000000
10010000
,
00110000
00000000
00000000
00010100
,
00001000
00000000
00000010
00000000
00000100
00000000
00000001
00001000
,
00000100
00000000
00010000
01010000
,
10000000
00000000
10000000
00000000
10000000
00010000
10000000
00010000
,
01000000
01000000
11000000
00010000
,
00100000
00000000
00001000
00000000
00010000
00000000
00000100
00001000
,
00000001
00000000
00000100
00000100
,
00000001
00000000
00001000
00000010
00010000
00001000
00000000
00000000
,
10000000
00000000
00000000
00000000
00000000
00000000
00000000
00100000
,
00001000
00000000
00000000
00000000
00000000
00000000
00000000
00100000
,
10000000
00000000
00010000
00000000
,
01000000
00001000
00010000
00000010
,
00000000
00000001
00000000
00000100
00000000
00000010
00000000
00001000
,
00000000
00000100
00000000
00010000
00000000
00001000
00000000
00100000
,
00000000
00010000
00000000
10000000
00000000
00100000
00000000
01000000
,
00000000
00010000
00000000
10000000
00100000
01000000
01000000
00000000
,
00010000
01000000
00001000
00010000
,
00000010
00000000
00000100
00000000
00000010
00001000
00000001
00000100
,
00000010
00000000
00010000
00000000
,
01000000
00000000
11000000
11000000
,
00010000
00000000
00000000
01000000
00001000
00000000
00000000
00010000
,
00000010
00000000
00000100
00000000
00000001
00001000
00000001
00000000
,
00000100
00000100
00010000
00001000
,
00100000
10010000
01000000
10010000
,
01100000
00000000
10000000
00010000
,
00100000
00000000
00001000
00000000
00010000
00000000
00000010
00001000
,
00000100
00000000
00010000
00101000
,
10000000
00000000
10000000
00000000
01000000
00100000
01000000
00100000
,
10000000
00000000
11000000
01010000
,
01000000
00000000
00000000
00000000
00001000
00000000
00010000
00000100
,
00001000
00000000
00000001
00000001
,
00001000
00000000
00000010
00010000
00000100
00010000
00000000
00000000
,
01000000
00000000
00100000
00000000
,
10000000
00000000
00010000
00000000
,
01000000
00001000
00010000
00000010
,
00001000
00000001
00000100
00001001
,
00000010
00010000
00001000
00100000
,
00010000
00000000
10000000
00000000
00100000
00000000
01000000
00010000
,
10000000
00000000
00100000
00101000
,
00000100
00000000
00000100
00000000
00001000
00000001
00001000
00000001
,
00000100
00000100
00000001
00001000
,
00000010
00000000
00010000
00000000
00001000
00000000
01000000
00010000
,
10000000
00000000
00100000
00100000
,
10000000
00000000
00010000
00100000
00001000
00010000
00000000
00000000
,
00000010
00001000
00000000
00000001
00000100
00000001
00000100
00000000
,
00001001
00000000
00000000
00000000
;

//---------------dance-double - ----------------
#NOTES:
     dance-double:
     :
     Hard:
     7:
     0.454,0.469,0.141,0.000,0.061:
00000000
00000000
00000000
00000000
,
00000000
00000000
00000000
00000000
,
00000000
00000000
00000000
00000000
,
00000000
00000000
00000000
00000000
,
00000000
00000000
00000000
00000000
,
00100000
00101000
00010000
00010100
,
00000010
00001000
00000001
00000100
00001000
00010000
00001000
00010000
,
01000000
01001000
00010000
00010010
,
01000000
00001000
00010000
00000010
00001000
00000000
00000001
00001000
,
00000100
00000000
00000100
00010000
00001000
00000000
00001000
00100000
,
00010000
00000000
00010000
10000000
00100000
01000000
00010000
00000000
,
00100000
00000000
00000000
00001000
00010000
00000010
00000100
00000001
,
00001000
00000010
00010000
00010100
,
00001000
00000000
00000000
00100000
00010000
00000000
10100000
00000000
,
00100000
00000000
01000000
00001000
00010000
00000000
00011000
00000000
,
00000100
00000000
00000100
00001000
00000010
00000100
00000001
00001000
,
00000001
00000000
00000100
00000000
00000010
00000100
00000010
00000100
,
00000001
00000000
00000000
00000000
00000000
00000000
00000000
00000000
00000100
00000000
00000000
00000010
00010000
00000000
00001000
00000000
,
01000000
00000000
01000000
00000000
01000000
00100000
10000000
00010000
,
00000000
00000000
00000000
00000000
00000000
00000000
00000000
00000000
01000000
00000000
00000000
00001000
00100000
00000000
00001000
00000000
,
00010000
00000000
00001000
00010000
00000010
00000000
00000010
00000100
,
00000001
00000000
00000000
00000000
00000000
00000000
00000000
00000000
00001000
00000000
00000000
00000010
00010000
00000000
00001000
00000000
,
00010000
00000000
00011000
00000000
00001000
00000000
00100000
00010000
,
01000000
00000000
00010000
10000000
,
00100000
01000000
00001000
00010000
00000010
00000000
00001010
00000000
,
00010000
00000000
00000000
00000000
00010000
00000000
00000000
01000000
,
00001000
00000000
00000000
00000000
00001000
00000000
00000000
00010000
,
00000010
00000000
00000100
00000000
,
00000001
00000000
00000100
00000000
00000010
00010000
00001000
01000000
,
00100000
00010000
00000000
00001000
00100000
00000000
00001000
00010000
,
00000000
10000000
00000000
00000000
00100000
01000000
00010000
10000000
,
00000000
00010000
00000000
00000000
00010000
00000010
00000000
00010000
,
00000100
00001000
00000001
00000010
00000000
00000001
00001000
00000010
,
00010000
00000000
00000000
00001000
00010000
00000010
00001000
00000001
,
00000100
00000000
00000000
00000001
00000100
00000010
00001000
00000010
,
00010000
00000000
00001000
00010000
00001000
00000000
01000000
00000000
,
00010000
00000000
00100000
00001000
01000000
00000000
01001000
00000000
,
00010000
00000000
00000000
00000010
00001000
00000000
00000000
00001000
,
00000001
00000000
00000100
00000010
00001000
00000000
00011000
00000000
,
01000000
01000000
00100000
10000000
,
00010000
00000000
01000000
00000000
00100000
01000000
00100000
01000000
,
00010000
00000000
00000000
00000000
10000000
00000000
00000000
00000000
00100000
00000000
00000000
00100000
01000000
00000000
00001000
00000000
,
00010000
00000000
00001000
00000000
00010000
00000000
00000010
00001000
,
00000001
00000000
00000000
00000000
00000000
00000000
00000000
00000000
00000100
00000000
00000000
00000100
00000010
00000000
00010000
00000000
,
00001000
00000000
00100000
00000000
00010000
00000000
00010000
01000000
,
10000000
00000000
00000000
00000000
01000000
00000000
00000000
00000000
00010000
00000000
00000000
00010000
00100000
00000000
00001000
00000000
,
00010000
00000000
00001000
00000000
00010000
00000000
00000010
00001000
,
00000001
00000000
00000000
00000000
00000000
00000000
00000000
00000000
00001000
00000000
00000000
00000001
00000100
00000000
00000010
00000000
,
00001000
00000100
00010000
00001000
00100000
00000000
00010000
01000000
,
10000000
00000000
00010000
10010000
,
00100000
01100000
01000000
01100000
,
00001000
00010000
00001000
00010000
,
00000010
00000000
00010000
00000000
00000100
00000000
00001000
00000000
00000001
00000100
00000001
00000100
00000000
00000000
00000000
00000000
,
00000001
00000000
00001000
00000001
00000100
00000000
00010000
00001000
,
01000000
00000000
01000000
00000000
01000000
00100000
10000000
00010000
,
01000000
00000000
00000000
00000000
01000000
00000000
00100000
00000000
10000000
00000000
00000000
10000000
00010000
00000000
00100000
00000000
,
00001000
00000000
00001000
00000000
00010000
00000000
00000010
00001000
,
00000100
00000000
00000000
00000000
00000010
00000000
00000000
00000000
00001000
00000000
00000000
00000001
00001000
00000000
00000010
00000000
,
00000100
00000000
00000100
00000000
00001000
00000000
00100000
00010000
,
10000000
00000000
00000000
00000000
00100000
00000000
00000000
00000000
01000000
00000000
00000000
00010000
10000000
00000000
00100000
00000000
,
01000000
00010000
00100000
00001000
00010000
00000100
00000000
00000000
,
00001000
00000010
00000000
00010000
00000100
00010000
00000100
00000000
,
00001000
00000000
00000000
00000000
;

//---------------dance-couple - ----------------
#NOTES:
     dance-couple:
     :
     Medium:
     8:
     0.499,0.939,1.000,0.000,0.010:
00000000
00000000
00000000
00000000
,
00000000
00000000
00000000
00000000
,
00000000
00000000
00000000
00000000
,
00000000
00000000
00000000
00000000
,
00000000
00000000
10001000
10011001
,
01000000
00000000
00100000
10000000
,
00010000
00010000
00010000
00010000
,
00000010
00000000
00000100
00000001
,
00001000
00001000
00001000
00001000
,
10000000
00000000
00010000
00000000
,
01000000
00000000
01000000
00100000
01000000
00000000
00011000
00000000
,
00000001
00000000
00001000
00000000
,
00000010
00000000
00000010
00000100
00000010
00000000
00011000
00000000
,
10000000
00000000
00000000
00010000
00001000
00000000
00000000
00000001
,
00100010
10000001
00011000
00011000
,
00100000
01000000
00000010
00000100
,
10000001
00000000
10000001
00000000
00011000
10000001
00011000
10000001
,
01000100
00000000
01000000
00000000
,
00001000
00000000
00000001
00000000
00001000
00000000
00000001
00000100
,
00001000
00000000
00001000
00000000
,
00100000
00000000
01000000
00000000
00100000
00000000
01000000
00010000
,
10000000
00000000
00010001
01000100
,
00100010
00000000
10101010
00000000
01000100
00000000
00100010
10001000
,
00010001
00000000
01000100
01000100
,
00100010
00000000
00100010
00000000
10001000
00010001
00000000
00000000
,
01000100
00000000
00000000
00000000
00000000
00000000
00000000
00000001
,
00001000
00000000
00000000
00000000
00000000
00000000
00000000
10000000
,
00010000
00000000
00100010
00000000
,
00100010
10001000
00010001
01000100
,
00000001
00000010
00000100
00001000
,
00000001
00000100
00000010
00001000
,
10000000
00100000
01000000
00010000
,
10000000
01000000
00100000
00010000
,
00000010
00000000
00000010
00011000
,
00000001
00000000
00000001
00000000
00000100
00000001
00101000
00000010
,
01000000
00000000
01000000
00011000
,
10000000
00000000
10000000
00000000
00100000
10000000
00010100
01000000
,
00000001
00001000
10000000
00010000
,
00100010
00100010
00010001
10001000
,
00000010
01000000
00000001
10000000
,
00011000
00000000
00011000
00000000
00011000
10000001
00011000
10000001
,
00100000
10000000
00011000
01000000
,
00100000
00000000
00100000
00000000
00100010
00000000
01000000
00010000
,
10000100
00000001
00011000
00000010
,
00000100
00000000
00000100
00000000
01000100
00000000
00000010
00001000
,
00000001
00000000
00000000
00000000
00000000
00000000
00000000
00000000
01000100
00000000
00000000
00010001
10001000
00000000
00100010
00000000
,
01000100
00000000
01000100
00000000
00100010
00000000
01000100
00010001
,
10001000
00000000
00000000
00000000
00011000
00000000
10000001
00011000
,
10000001
00100010
01000100
00011000
10000001
10000001
00000000
00000000
,
00001000
00000000
00000001
00000000
,
00010000
00000000
10000000
00000000
,
00000010
00000100
00100000
01000000
,
00010001
01000100
00100010
10001000
00010001
00000000
10011001
00000000
,
01000000
00100000
01000000
00010000
,
00000100
00000001
00001000
00000010
,
00000100
00000010
00000100
00000001
,
01000000
00010000
10000000
00100000
,
01000010
00000000
00011000
10000001
,
00000100
00000000
01000000
00000000
00000010
00000000
00010000
10000001
,
01000010
00000000
00000000
00000000
00100100
00000000
00000000
00000000
10000001
00000000
00000000
00100100
01000010
00000000
00011000
00000000
,
10000001
00100100
01000010
00011000
10000001
10000001
00100100
01000010
,
00011000
00011000
00000000
10000001
00100100
10000001
00011000
00000000
,
10000001
00000000
00000000
00000000
;

//---------------dance-solo - ----------------
#NOTES:
     dance-solo:
     :
     Easy:
     4:
     0.286,0.313,0.071,0.000,0.000:
000000
000000
000000
000000
,
000000
000000
000000
000000
,
000000
000000
000000
000000
,
000000
000000
000000
000000
,
000000
000000
000000
000000
,
001000
000000
000100
000000
,
100000
000010
100000
000001
,
001000
000000
000100
000000
,
001000
000001
010000
000001
,
100000
000000
001000
000000
,
000010
010000
000000
010010
,
100000
000000
000001
000000
,
100000
000001
001000
000100
,
001000
000000
000010
000000
,
001000
000100
000000
100001
,
001000
001000
000100
000100
,
100000
100000
000010
100000
,
000001
000001
010000
000001
,
001000
000100
001000
000001
,
100000
000000
100000
000100
,
001000
001000
001000
001000
,
000010
000000
010000
000001
,
100000
100000
000100
001000
,
000010
000000
001000
000100
,
100000
000001
100000
100001
,
010000
000000
000000
000000
,
000010
000000
000000
000000
,
100000
000000
000001
000000
,
100000
000001
001000
000100
,
100000
000100
001000
000001
,
010000
000010
010000
000010
,
001000
000001
100000
000100
,
001000
000100
100000
000001
,
010000
000000
000010
001000
,
000001
100000
000001
100001
,
001000
000000
000010
010000
,
000010
100000
000001
001000
,
000100
000000
100000
000000
,
000010
001000
000000
001100
,
100000
100000
000001
000001
,
010000
000001
010000
010000
,
001000
001000
100000
000001
,
000100
100000
001000
100000
,
000100
000000
100000
000001
,
001000
000001
000100
000001
,
001000
000000
000100
100000
,
000001
000001
010000
000100
,
100000
000000
000010
100000
,
000100
001000
000001
100001
,
000000
000100
000000
001000
,
000000
000001
000000
100000
,
000100
001000
000010
001000
,
000001
010000
000100
100001
,
001000
000000
000100
001000
,
000001
000001
000001
010000
,
000100
000000
001000
000100
,
100000
100000
000010
100000
,
000001
000000
001000
000100
,
100000
100000
100000
000010
,
001000
000000
000100
100000
,
000010
001000
000001
001000
,
000001
000000
000000
010000
000001
010000
000001
000000
,
100000
000000
000000
000000
;

//---------------dance-solo - ----------------
#NOTES:
     dance-solo:
     :
     Medium:
     5:
     0.348,0.407,0.162,0.000,0.000:
000000
000000
000000
000000
,
000000
000000
000000
000000
,
000000
000000
000000
000000
,
000000
000000
000000
000000
,
000000
000000
000000
000000
,
100000
000000
000000
000010
001000
000000
000000
000010
,
001000
000100
001000
000001
,
100000
000000
000000
000010
100000
000000
000000
000100
,
001000
001000
000001
100000
,
000100
000000
000000
001000
000001
000000
000000
010000
,
000001
000000
000001
000000
000001
100000
000100
000000
,
001000
000000
000000
000001
100000
000000
000000
000100
,
001000
000000
000000
001100
,
100000
000000
000000
000010
100000
000000
000000
000001
,
001000
000100
100000
000001
,
001000
001000
000010
001000
,
000001
010001
100000
100010
,
001010
000000
000000
011000
,
100000
000000
000100
000000
001000
000000
000001
100000
,
000001
000000
001000
001001
,
100000
000000
100000
000000
100000
000010
100000
000010
,
001000
001000
100000
000001
,
001000
000000
000010
000000
001000
000000
010000
001000
,
000010
000000
100000
100000
,
000001
000000
001000
000100
100000
000100
000000
000000
,
001000
000000
000000
000000
000000
000000
000000
000010
,
001000
000000
000000
000000
000000
000000
000000
000001
,
100000
000000
000100
000000
,
010000
000010
010000
000010
,
000000
100000
000000
000100
000000
001000
000000
000001
,
000000
100000
000000
001000
000000
000100
000000
000001
,
000000
100000
000000
000001
000000
001000
000000
000100
,
000000
100000
000000
000100
001000
000001
000001
000000
,
001000
000010
001000
000001
,
100000
000000
000100
000000
001000
000010
001000
000010
,
100000
000000
000001
000000
,
010000
000000
010001
010001
,
100000
000000
000000
000100
001000
000000
000000
000001
,
100000
000000
000010
000000
001000
000010
001000
000000
,
000001
000001
100000
000100
,
001000
100001
000100
100001
,
001100
000000
010000
000010
,
010000
000000
000001
000000
100000
000000
000001
001000
,
000100
000000
100000
100100
,
000010
000000
000010
000000
001000
000100
001000
000100
,
100000
000000
101000
001001
,
001000
000000
000000
000000
000100
000000
001000
000100
,
100000
000000
000010
000010
,
010000
000000
000001
010000
000001
010000
000000
000000
,
000100
000000
100000
000000
,
000001
000000
001000
000000
,
000010
001000
000010
100000
,
000001
100000
000001
010000
,
000100
001000
000001
100000
,
000010
000000
100000
000000
000001
000000
001000
000001
,
100000
000000
000100
001100
,
100000
000000
100000
000000
000100
001000
000100
001000
,
000001
000001
010000
000001
,
100000
000000
000010
000000
001000
000000
000100
001000
,
000001
000000
100000
100000
,
000010
000000
001000
000100
001000
000010
000000
000000
,
100000
000001
000000
001000
000100
001000
000100
000000
,
100001
000000
000000
000000
;

//---------------dance-solo - ----------------
#NOTES:
     dance-solo:
     :
     Hard:
     8:
     0.498,0.563,0.273,0.000,0.091:
000000
000000
000000
000000
,
000000
000000
000000
000000
,
000000
000000
000000
000000
,
000000
000000
000000
000000
,
000000
000000
000000
000000
,
000010
001010
010000
011000
,
000100
001000
000001
100000
000010
010000
000010
010000
,
000100
000110
000100
010100
,
100000
000000
000001
001000
000010
100000
000001
001000
,
000010
000000
100000
000100
001000
000000
100010
001000
,
000001
100000
000001
100000
010001
100010
010001
000000
,
000001
000000
100000
000010
001000
000000
100001
000100
,
010000
001000
010000
001000
100000
000010
010000
000001
,
100000
000000
000000
000010
100000
000000
001001
000100
,
010000
000000
000100
001000
000001
000000
010001
000000
,
100000
100000
000100
001000
,
000010
000000
001000
000000
000010
000001
000010
000001
,
000100
000000
000000
000000
001000
000000
000000
000000
000100
000000
000000
100000
000001
000000
010000
000000
,
001000
000000
001000
000000
001000
100000
000010
001000
,
000001
000000
000000
000000
000001
000000
000000
000000
010000
000000
000000
000100
100000
000000
000010
000000
,
001000
000000
000100
000000
010000
000000
010000
000001
,
100000
000000
000000
000000
100000
000000
000000
000010
000000
000000
000000
001000
000001
000000
100000
000000
,
000100
000000
000100
000000
100000
000000
000001
010000
,
001000
000000
100000
000001
,
010000
000010
001000
000010
100000
000000
000001
001000
,
000100
000000
000000
000000
000100
000000
000000
100000
,
000010
000000
000000
000000
000010
000000
000000
001000
,
000001
000000
010000
000000
,
000001
000000
001000
000000
000100
010000
000001
001000
,
000010
001010
010000
011000
,
000100
001000
000001
100000
000010
010000
000010
010000
,
000100
000110
000100
010100
,
100000
000000
000001
001000
000010
100000
000001
001000
,
001000
000000
001000
000010
100000
000001
100000
000001
,
010000
000000
010000
000010
001000
000000
001100
000000
,
100000
000000
000001
010000
000001
000000
001000
001000
,
000010
000000
100000
000010
001000
000000
011000
000000
,
010001
000000
000000
000100
100010
000000
100000
000000
,
000010
000000
001000
000100
100000
000000
100010
000000
,
000001
000001
000100
001000
,
100000
000000
000001
000000
001000
000010
001000
000010
,
100000
000000
000000
000000
000001
000000
000000
000001
010000
000000
000000
000100
001000
000000
000010
000000
,
001000
000000
000100
000000
000100
100000
000001
001000
,
000010
000000
000000
000000
000000
000000
000000
100000
000010
000000
000000
000010
100000
000000
000001
000000
,
010000
000100
010000
000100
100000
000010
100000
000010
,
001000
000000
000000
000000
000001
000000
000000
000001
100000
000000
000000
100000
000100
000000
001000
000000
,
000100
000000
001000
000000
000010
000000
100000
000100
,
001000
000000
000000
000000
000000
000000
000000
000000
000001
000000
000000
000001
010000
000000
000000
000000
,
000010
010000
000100
010000
000001
000000
100000
000010
,
001000
001100
000100
001100
,
100000
100001
000001
100001
,
010000
010001
000010
100010
,
001000
000000
000100
000000
001000
000000
000100
000000
100000
000001
100000
000001
000000
000000
000000
000000
,
000100
000000
000000
000000
001000
000000
000000
000010
001000
000000
000000
000010
100000
000000
000100
000000
,
001000
000000
001000
000000
000001
000100
001000
100000
,
000001
000000
000000
000000
000000
000000
000000
000000
100000
000000
000000
000010
001000
000000
000100
000000
,
100000
000010
100000
000010
010000
000001
010000
000100
,
001000
000000
000000
000000
000000
000000
000000
000000
000001
000000
000000
000001
100000
000000
000100
000000
,
001000
000000
000100
000000
001000
000000
000010
001000
,
000001
000000
000000
000000
000000
000000
000000
000000
100000
000000
000000
100000
000001
000000
001000
000000
,
000100
001000
000001
100000
000100
000000
001000
000010
,
100000
000001
000000
001000
010000
001000
010000
000000
,
100001
000000
000000
000000
;

//---------------dance-double - ----------------
#NOTES:
     dance-double:
     :
     Beginner:
     1:
     0.164,0.188,0.040,0.000,0.000:
00000000
00000000
00000000
00000000
,
00000000
00000000
00000000
00000000
,
00000000
00000000
00000000
00000000
,
00000000
00000000
00000000
00000000
,
00000000
00000000
00000000
00000000
,
10000000
00000000
00010000
00000000
,
01000000
00000000
00010000
00000000
,
00010000
00000000
00010000
00000000
,
00000010
00000000
00001000
00000000
,
00000100
00000000
00010000
00000000
,
00000100
00000000
00010000
00000000
,
00011000
00000000
00100000
00000000
,
10000000
00000000
01000000
00000000
,
00010000
00000000
00000010
00000000
,
00001000
00000000
00000000
00001001
,
00000000
00000100
00000000
00000010
,
00000000
00010000
00000000
00010000
,
00000000
01000000
00000000
00010000
,
00000000
00001000
00000000
00001000
,
00000000
00000000
00010000
00000000
,
00000100
00000000
00000100
00000000
,
00000001
00000000
00000100
00000000
,
00010000
00000000
00001000
00000000
,
00100000
00000000
10000000
00000000
,
01000000
00000000
10000000
00000000
,
01000000
00000000
00000000
00000000
,
00000010
00000000
00000000
00000000
,
01000000
00000000
00100000
00000000
,
10000000
00000000
01000000
00000000
,
00000100
00000000
00010000
00000000
,
00100000
00000000
00010000
00000000
,
00001000
00000000
00000100
00000000
,
00010000
00000000
01000000
00000000
,
10000000
00000000
00010000
00000000
,
00001000
00000000
00001000
00000000
,
00000100
00000000
00000010
00000000
,
00000001
00000000
00000100
00000000
,
00001000
00000000
00100000
00000000
,
00010000
00000000
00000000
01100000
,
00000000
10000000
00000000
00010000
,
00000000
00010000
00000000
00001000
,
00000000
00000100
00000000
00001000
,
00000000
00010000
00000000
00010000
,
00000000
00000000
10000000
00000000
,
01000000
00000000
00001000
00000000
,
00000001
00000000
00000100
00000000
,
00010000
00000000
00001000
00000000
,
00100000
00000000
10000000
00000000
,
01000000
00000000
00001000
00000000
,
00000000
00000010
00000000
00000100
,
00000000
00000001
00000000
00001000
,
00000000
00010000
00000000
01000000
,
00000000
10000000
00000000
10010000
,
00000000
00000000
00001000
00000000
,
00000010
00000000
00000010
00000000
,
00000001
00000000
00000100
00000000
,
00010000
00000000
00001000
00000000
,
00100000
00000000
10000000
00000000
,
01000000
00000000
01000000
00000000
,
00010000
00000000
00000010
00000000
,
00000100
00000000
00001000
00000000
,
00010000
00000000
00010000
00000000
,
01000000
00000000
00000000
00000000
;

//---------------dance-single - ----------------
#NOTES:
     dance-single:
     :
     Challenge:
     9:
     0.684,0.689,0.575,0.010,0.636:
0000
0000
0000
0000
,
0000
0000
0000
0000
,
0000
0000
0000
0000
,
0000
0000
0000
0000
,
1000
0000
0000
0000
1000
0000
0000
0000
1000
0000
0000
0000
0001
0100
0001
0100
,
0001
0101
0000
0110
0000
1010
0000
1001
,
0000
1100
0000
0110
0000
1100
0000
0011
,
0000
0101
0000
1100
0000
0110
0000
0011
,
0000
1010
0000
1001
0000
0110
0000
1000
,
0100
0000
0001
0000
0010
0000
0100
0000
1000
0000
0001
0010
0000
0010
0100
1000
,
0100
1000
0000
0001
0100
0000
0010
1000
0000
0001
0100
0000
0001
0000
1000
0000
,
0100
0010
0001
0100
0010
1000
0100
1000
,
0001
1000
0010
0100
0001
1000
0100
0010
,
0001
0000
0000
0001
0000
0000
0010
0100
1000
0000
0000
1000
0000
0000
0010
0100
,
0010
0100
0010
0000
1000
0000
0100
0000
0010
0000
0000
0010
0000
0000
0000
0000
,
0100
0000
1000
0000
0001
0000
0100
0000
1000
0000
0000
1000
0000
0000
1000
0000
,
0100
0000
0100
0000
0100
0001
1000
0001
,
0100
0001
0000
1000
0000
1000
0000
0010
0000
0010
0000
0100
0001
0000
1000
0000
,
1100
0000
0110
0000
0011
0000
1001
1000
,
0001
1000
0000
0001
0000
0001
0000
0010
0000
0010
0000
0100
1000
0000
0000
0000
,
0001
0010
0100
0010
0100
1000
0001
0001
,
1000
0010
0000
0100
0000
0100
0000
0001
0000
0001
0000
1000
0100
0000
0010
0000
,
0110
0000
0011
0000
1001
0000
1100
0100
,
0010
0001
0000
0100
0000
0100
0000
0010
0000
0010
0000
1000
0001
0000
0000
0000
,
1000
0010
0100
0001
1000
1001
0000
0000
,
0000
0000
0010
0000
0000
0010
0000
0000
0010
0000
0000
0010
0000
0000
0010
0000
,
0000
0000
1000
0000
0000
1000
0000
0000
1000
0000
0000
1000
0000
0000
1000
0000
,
0000
0000
0001
0000
0000
0001
0000
0000
0001
0000
0000
0001
0000
0000
0001
0000
,
0100
0000
0000
0000
0100
0000
0000
0000
0100
0000
0000
0100
0001
0000
1000
0000
,
0100
0110
0000
0011
0000
1001
0000
1010
,
0000
0011
0000
1001
0000
1010
0000
0011
,
0000
1001
0000
0101
0000
1100
0000
1001
,
0000
0000
0101
0000
0000
0000
1100
0000
0000
0000
1001
0000
0000
0000
1000
0100
,
1000
0001
0100
0010
1000
0001
0010
0001
,
1000
0000
0001
0000
0100
0000
0010
0100
0010
0000
1000
0000
0100
0000
1000
0000
,
0001
0010
0100
0001
0100
1000
0010
0100
,
0001
0010
1000
0010
0001
0100
0010
1000
,
0001
0000
0010
0100
0000
0000
1000
0000
0001
0000
0100
0010
0000
0000
1000
0000
,
0010
0000
0100
0001
0000
0000
1000
0000
0100
0000
0010
0001
0000
0000
0001
0000
,
1000
0000
0010
0000
0100
0000
0010
0000
1000
0000
0001
0100
0000
0000
0001
0000
,
0010
0000
0010
0000
0001
1000
0001
1000
,
0120
0100
0100
0130
,
1001
0000
1100
0000
0110
0000
0011
1001
,
1000
0001
0000
0100
0000
0100
0000
0010
0000
0010
0000
1000
0100
0000
0000
0000
,
1000
0010
0100
0010
1000
0001
0010
0010
,
0100
1000
0000
0001
0000
0001
0000
0010
0000
0010
0000
0100
0001
0000
0100
0000
,
0101
0000
1100
0000
1001
0000
0101
0001
,
1000
0010
0000
0100
0000
0100
0000
0001
0000
0001
0000
1000
0100
0000
0000
0000
,
0010
0001
0010
0000
0001
0000
0100
0000
1000
0000
1100
0000
0000
0000
0000
0000
,
0101
0000
0000
0101
0000
0000
0000
0000
1001
0000
0000
0000
0000
0000
0000
0000
,
1100
0000
0000
1100
0000
0000
0000
0000
0110
0000
0000
0000
0000
0000
0000
0001
,
0010
0001
0000
1000
0100
1000
0000
0001
0100
0001
0000
1000
0010
1000
0000
0001
,
0100
0000
0010
0000
1000
0000
0001
0000
1000
0100
1000
0100
0000
0000
0000
0000
,
0010
0001
0000
0100
0000
0100
0000
0010
0000
1000
0000
0100
0010
0000
0001
0000
,
1000
0100
1000
0100
0000
1000
0001
1000
0001
0000
0100
0000
0001
0000
1000
0000
,
0100
0010
0000
0001
0000
0001
0000
1000
0000
0010
0000
0100
0001
0000
0000
0000
,
0010
0001
0010
0001
0010
0000
0001
0000
0100
0000
0010
0000
1000
0000
0001
0000
,
1000
0100
0000
0001
0000
0001
0000
0100
0000
0010
0000
0001
1000
0000
0010
0000
,
0100
0001
0100
0001
0000
1000
0100
1000
0100
0000
0010
0000
0001
0000
1000
0000
,
0001
0100
0000
1000
0000
1000
0000
0100
0000
0010
0000
1000
0001
0000
0000
0000
,
1000
0100
1000
0100
1000
0000
0001
0010
0001
0010
0001
0000
1000
0010
0100
0001
,
1000
0100
0000
1000
0010
0001
0100
0000
,
1001
0000
0000
0000
;

//---------------dance-double - ----------------
#NOTES:
     dance-double:
     :
     Challenge:
     9:
     0.636,0.689,0.212,0.020,0.454: // measure 1
00000000
00000000
00000000
00000000
,  // measure 2
00000000
00000000
00000000
00000000
,  // measure 3
00000000
00000000
00000000
00000000
,  // measure 4
00000000
00000000
00000000
00000000
,  // measure 5
00000001
00000000
00000000
00000000
00000001
00000000
00000000
00000000
00000001
00000000
00000000
00000000
00001000
00000100
00001000
00000100
,  // measure 6
00001000
00000001
00000100
00000010
00001000
00000001
00000100
00001000
,  // measure 7
00010000
00100000
00010000
00001000
00000010
00001000
00010000
01000000
,  // measure 8
10000000
00010000
01000000
00100000
10000000
00010000
01000000
00100000
,  // measure 9
00010000
00001000
00000010
00001000
00010000
00000100
00000000
00000010
,  // measure 10
00000001
00000000
00000100
00000001
00000000
00000000
00001000
00000000
00000100
00000000
00000010
00000001
00000000
00000000
00000100
00000001
,  // measure 11
00000100
00000001
00000000
00000001
00000100
00000000
00000100
00001000
00000000
00001000
00010000
00000000
00100000
00000000
00000000
00000000
,  // measure 12
00100000
00000000
10000000
00000000
00010000
00000000
01000000
00100000
01000000
00000000
00010000
00000000
10000000
00000000
01000000
00000000
,  // measure 13
00010000
00000000
01000000
00100000
01000000
00000000
10000000
00000000
00100000
00000000
00010000
00000000
00001000
00000000
00000100
00000010
,  // measure 14
00000100
00000000
00000000
00000001
00000000
00000000
00001000
00000100
00001000
00000000
00000000
00000010
00000000
00000000
00000100
00000001
,  // measure 15
00000100
00000001
00000100
00000000
00000010
00000000
00001000
00000000
00000100
00000000
00000000
00010000
00000000
00000000
00000000
00000000
,  // measure 16
00001000
00000100
00001000
00010000
01000000
00100000
01000000
10000000
,  // measure 17
00010000
00000000
01000000
00000000
00100000
00000000
01000000
00010000
01000000
00000000
00010000
00000000
20000000
00000000
00000000
00000000
,  // measure 18
01000000
01000000
01000000
31000000
,  // measure 19
10010000
00000000
10010000
00000000
10010000
00000000
10000000
01000000
,  // measure 20
00100000
00000000
00000000
00000000
00010000
00000000
00000000
00000000
01000000
00000000
00000000
00100000
10000000
00000000
00000000
00000000
,  // measure 21
01000000
00010000
00001000
00000010
00001000
00010000
00000010
00000100
,  // measure 22
00000001
00000000
00000000
00000000
00000001
00000000
00000000
00000000
00000001
00000000
00000000
00000100
00000001
00000000
00001000
00000000
,  // measure 23
00001100
00000000
00010100
00000000
00001100
00000000
00000100
00000010
,  // measure 24
00001000
00000000
00000000
00000000
00010000
00000000
00000000
00000000
00100000
00000000
00000000
10000000
00010000
00000000
00000000
00000000
,  // measure 25
10000000
01000000
00100000
00010000
01000000
01000000
00000000
00000000
,  // measure 26
00000000
00000000
00000000
00000000
00000000
00000000
00000000
00001000
,  // measure 27
00001000
00000000
00000000
00000000
00000000
00000000
00000000
00010000
,  // measure 28
00010000
01100000
10000000
00110000
,  // measure 29
10000000
00000000
00000000
00000000
10000000
00000000
00000000
00000000
10000000
00000000
00000000
00010000
01000000
00000000
00100000
00000000
,  // measure 30
10000000
01000000
00010000
00001000
00000010
00001000
00010000
00100000
,  // measure 31
00010000
00001000
00000100
00000001
00000010
00001000
00010000
00000100
,  // measure 32
00001000
00000001
00000100
00001000
00100000
00010000
01000000
00001000
,  // measure 33
00010000
00000000
01000000
00000000
10000000
00000000
00100000
00000000
00010000
00000000
00001000
00000000
00000000
00000000
01000000
00010000
,  // measure 34
01000000
00000000
00100000
00000000
10000000
00000000
01000000
10000000
01000000
00000000
00100000
00000000
00010000
00000000
01000000
00001000
,  // measure 35
01000000
00000000
00100000
00000000
00010000
00000000
00001000
00010000
00001000
00000000
00000100
00000000
00001000
00000000
00000100
00000000
,  // measure 36
00000001
00000000
00000010
00000001
00000010
00000000
00000100
00001000
00000100
00000000
00010000
00001000
00000000
00000000
00000100
00000010
,  // measure 37
00001000
00000000
00000100
00010000
00001000
00000000
00100000
00001000
00010000
00000000
00001000
01000000
00000000
00000000
00100000
10000000
,  // measure 38
01000000
00000000
10000000
01000000
00000000
00000000
00010000
00000000
00001000
00000000
00010000
00001000
00000000
00000000
00000100
00000000
,  // measure 39
00000010
00000000
00001000
00000100
00000000
00000000
00000010
00000001
00000010
00000000
00000100
00001000
00000000
00000000
00000100
00000000
,  // measure 40
00001000
00000000
00000010
00000000
00000001
00000000
00000010
00000000
00000001
00000000
00000010
00000100
00000000
00000000
00000001
00000000
,  // measure 41
00000010
00000000
00000100
00000001
00000000
00000000
00000100
00001000
00000100
00000000
00000010
00000000
00000002
00000000
00000000
00000000
,  // measure 42
00000100
00000100
00000100
00000103
,  // measure 43
00001100
00000000
00000110
00000000
00010010
00000000
00000100
00001000
,  // measure 44
00000010
00000000
00000000
00000000
00000100
00000000
00000000
00000000
00000010
00000000
00000000
00010000
00001000
00000000
00000000
00000000
,  // measure 45
01000000
00100000
01000000
00010000
10000000
00010000
00100000
00100000
,  // measure 46
00001000
00000000
00000000
00000000
01000000
00000000
00000000
00000000
00100000
00000000
00000000
10000000
01000000
00000000
00100000
00000000
,  // measure 47
00110000
00000000
01010000
00000000
11000000
00000000
01000000
00001000
,  // measure 48
00010000
00000000
00000000
00000000
01000000
00000000
00000000
00000000
00100000
00000000
00000000
00001000
00010000
00000000
00000000
00000000
,  // measure 49
00000010
00001000
00000100
00000000
00000010
00000000
00000001
00000000
00000100
00000000
00000100
00000000
00000000
00000000
00000000
00000000
,  // measure 50
00001001
00000000
00000000
00000000
00000000
00000000
00000000
00000000
00000100
00000000
00000000
00001000
00000000
00001000
00000000
00000000
,  // measure 51
00011000
00000000
00000000
00000000
00000000
00000000
00000000
00000000
00010000
00000000
00000000
01000000
00000000
01000000
00000000
00000000
,  // measure 52
01100000
10010000
01100000
10010000
,  // measure 53
10000000
00000000
01000000
00000000
00010000
00000000
00001000
00000000
00000100
00000010
00000100
00000010
00000000
00000000
00000000
00000000
,  // measure 54
00001000
00000000
00000000
00000100
00000000
00001000
00000000
00000001
00000000
00000010
00000000
00000000
00000100
00000000
00000010
00000000
,  // measure 55
00000001
00000100
00000001
00000100
00000000
00000001
00000100
00000001
00000100
00000000
00001000
00000000
00010000
00000000
01000000
00000000
,  // measure 56
00100000
00000000
00000000
01000000
00000000
10000000
00000000
00010000
00000000
00100000
00000000
01000000
10000000
00000000
00000000
00000000
,  // measure 57
00010000
10000000
00010000
10000000
00010000
00000000
01000000
00000000
00100000
00000000
00010000
00000000
00001000
00000000
00000100
00000000
,  // measure 58
00000010
00001000
00000000
00000001
00000000
00000001
00000000
00000010
00000000
00000100
00000000
00010000
00001000
00000000
00000100
00000000
,  // measure 59
00000010
00010000
00000010
00010000
00000000
00001000
01000000
00001000
01000000
00000000
00010000
00000000
01000000
00000000
00100000
00000000
,  // measure 60
10000000
00100000
00000000
01000000
00000000
01000000
00000000
00100000
00000000
00010000
00000000
00001000
00000100
00000000
00000000
00000000
,  // measure 61
00000001
00000100
00001000
00000100
00001000
00000000
00010000
00001000
00010000
00001000
00100000
00000000
01000000
00010000
01000000
00010000
,  // measure 62
00001000
00000010
00000000
00000001
00000100
00001000
00000010
00000000
,  // measure 63
00001001
00000000
00000000
00000000
;
