#TITLE:Abyss;
#SUBTITLE:;
#ARTIST:dj TAKA;
#TITLETRANSLIT:;
#SUBTITLETRANSLIT:;
#ARTISTTRANSLIT:;
#CREDIT:;
#BANNER:Abyss.png;
#BACKGROUND:Abyss-bg.png;
#LYRICSPATH:;
#CDTITLE:Dance Dance Revolution 5th Mix.png;
#MUSIC:Abyss.ogg;
#OFFSET:0.000;
#SAMPLESTART:72.679;
#SAMPLELENGTH:15.000;
#SELECTABLE:YES;
#DISPLAYBPM:142.000;
#BPMS:0.000=142.292,4.000=141.994,132.000=142.009;
#STOPS:132.000=2.960
;
#BGCHANGES:;

//---------------dance-single - ----------------
#NOTES:
     dance-single:
     :
     Beginner:
     1:
     0.179,0.164,0.134,0.000,0.000:
0000
0000
0000
0000
,
0000
0000
0000
0000
,
0000
0000
0000
0000
,
0000
0000
0000
0000
,
0000
0000
0000
0000
,
1000
0000
1000
0000
,
1000
0000
1000
0000
,
0001
0000
0100
0000
,
1000
0000
0100
0000
,
1000
1000
0000
0000
,
1000
1000
0000
0000
,
0001
0001
0000
0000
,
0001
0001
0000
0000
,
1000
1000
0000
0000
,
0001
0001
0000
0000
,
1000
1000
0000
0000
,
0001
0001
0000
0000
,
0000
0010
0010
0010
,
0000
0100
0100
0100
,
0000
1000
0000
0001
,
0000
0100
0100
0100
,
0000
0010
0010
0010
,
0000
0100
0100
0100
,
0000
1000
0000
0001
,
0000
0100
0100
0100
,
0000
0100
0000
0100
,
0000
0100
0000
0100
,
0000
0001
0000
0100
,
0000
1000
0000
0100
,
0000
0001
0001
0001
,
0000
0100
0100
0100
,
0000
1000
1000
1000
,
0000
0100
0100
0100
,
0100
0000
0000
0000
,
0000
1000
0000
1001
,
0000
1000
0000
1001
,
0000
1000
0000
1001
,
0000
0001
0000
1001
,
0000
0001
0000
1001
,
0000
0001
0000
1001
,
0000
0001
0001
0001
,
0000
0010
0000
1001
,
0000
0010
0000
0100
,
0000
0010
0000
1001
,
0000
0010
0000
0010
,
0000
0010
0000
1001
,
0000
0010
0000
0100
,
0000
0010
0000
1001
,
0000
0010
0010
0010
,
0000
1000
0000
0110
,
0000
0001
0000
1000
,
0000
0001
0000
0110
,
0000
1000
0000
1000
,
0000
1000
0000
0110
,
0000
0001
0000
1000
,
0000
0001
0000
0110
,
0000
1000
0000
1000
,
1000
1000
0000
0000
;

//---------------dance-single - ----------------
#NOTES:
     dance-single:
     :
     Easy:
     3:
     0.233,0.245,0.029,0.000,0.000:
0000
0000
0000
0000
,
0000
0000
0000
0000
,
0000
0000
0000
0000
,
0000
0000
0000
0000
,
0000
0000
0000
0000
,
1000
0000
1000
0000
,
1000
0000
1000
0000
,
0001
0000
0100
0000
,
1000
0000
0100
0100
,
1001
0100
1000
1000
,
0001
1000
0001
0001
,
1000
0001
1000
1000
,
0001
1000
0001
1000
,
0010
0100
0010
0100
,
0001
1000
0001
1000
,
0010
0100
0001
1000
,
0010
1000
0100
0001
,
0010
0010
0010
0010
,
1000
0100
0100
0100
,
1000
1000
0001
0001
,
0010
0100
0100
0100
,
1000
1000
0001
0100
,
1000
0100
0001
0100
,
1000
0100
1000
1000
,
0001
0001
1000
1000
,
0010
0100
1000
0100
,
0010
0100
0001
0100
,
1000
0001
0010
0100
,
0001
1000
0010
0100
,
0001
0001
0001
0001
,
0010
0100
0100
0100
,
1000
0000
1000
0000
,
1000
0001
1000
0001
,
1000
0100
0000
1000
,
0000
0100
0000
1000
,
0000
0100
0000
0100
,
0000
0001
0000
0100
,
0000
1000
0000
0000
,
0000
1000
0000
0000
,
0000
1000
0000
0000
,
0000
1000
0001
1000
,
1001
1000
1000
1000
,
1000
0001
1000
0001
,
1000
0010
0010
0100
,
0100
0001
1000
0001
,
1000
0001
0100
1000
,
0100
0001
0100
1000
,
0100
0001
0000
0001
,
0000
0001
1000
0001
,
1001
1000
0000
1000
,
0000
1000
0000
1000
,
0001
0100
0000
0100
,
0000
0100
0000
0100
,
0001
0010
0001
0000
,
1000
0000
0001
0000
,
1000
0000
0001
0000
,
1000
0000
0001
0000
,
0100
0000
0000
0000
;

//---------------dance-single - ----------------
#NOTES:
     dance-single:
     :
     Medium:
     5:
     0.344,0.408,0.172,0.000,0.000:
0000
0000
0000
0000
,
0000
0000
0000
0000
,
0000
0000
0000
0000
,
0000
0000
0000
0000
,
0000
0000
0000
0000
,
1000
0000
0100
0000
,
1000
0001
1000
0001
,
0100
0000
0100
0000
,
0001
0000
0001
0001
,
1001
0000
0100
0000
1000
1000
1000
0000
,
0001
0000
1000
0000
0100
0100
0100
0000
,
1000
0000
0010
0000
0001
0001
0001
0000
,
1000
0000
0100
0000
0010
0010
0010
0000
,
0010
0000
0001
0000
0100
0100
0100
0000
,
0001
0000
0100
0000
1000
1000
1000
0000
,
1000
0000
0100
0000
0001
0001
0001
0000
,
1000
0000
0001
0000
1000
1000
1000
0000
,
1001
0000
0100
0000
0001
1000
0100
0000
,
0010
0000
1000
0000
0001
1000
0100
0000
,
0010
0000
0001
0000
1000
0001
0100
0000
,
1000
0000
0100
0000
0010
0001
0100
0000
,
0001
0000
0010
0000
0100
1000
0001
0000
,
1000
0000
0001
0000
0010
0100
1000
0000
,
0001
0000
0100
0000
0010
1000
0100
0000
,
1000
0001
1000
1000
,
0010
0000
1001
0000
0001
1000
0100
0000
,
1000
0000
0101
0000
1000
0100
0010
0000
,
0001
0000
1100
0000
0001
0010
0100
0000
,
1000
0000
1001
0000
0010
1000
0001
0000
,
0100
0000
0110
0000
1000
0010
0100
0000
,
0001
0000
1010
0000
0001
0100
0010
0000
,
1000
0000
0101
0000
0001
1000
0100
0000
,
1000
1000
1000
1000
,
1000
1000
0001
0100
,
0000
0001
0010
0100
,
0000
1000
0001
0100
,
0000
1000
0100
0010
,
0001
1001
0000
1000
,
1000
0100
0000
0001
,
0001
0100
0000
1000
,
0000
0000
1000
0001
1000
0001
1000
0001
,
1000
0000
0010
0000
1001
0000
0100
0100
,
0100
0000
0001
0000
0110
0000
1000
1000
,
1000
0000
1000
0000
0101
0000
0010
0010
,
0010
0000
0001
0000
1001
0000
0100
0100
,
0100
0000
1000
0000
0001
0000
1000
0100
,
0010
0000
0001
0000
0100
0000
1000
0100
,
0001
1000
1100
0001
,
0101
0000
1000
0001
1000
0001
1000
0001
,
0100
0000
1001
0000
0100
0000
0001
1000
,
0100
0000
1001
0000
0100
0000
1000
0001
,
0100
0000
1000
1000
1000
0000
0001
0001
,
0001
0000
0010
0000
0010
0000
0100
0100
,
0100
1000
1000
1000
,
1000
0001
0001
0001
,
0001
1000
0000
0001
,
0000
1000
1000
0100
,
0100
0000
0000
0000
;

//---------------dance-single - ----------------
#NOTES:
     dance-single:
     :
     Hard:
     7:
     0.423,0.462,0.010,0.000,0.115:
0000
0000
0000
0000
,
0000
0000
0000
0000
,
0000
0000
0000
0000
,
0000
0000
0000
0000
,
0000
0000
0000
0000
,
0001
0000
1000
0000
,
0010
1000
0001
0100
,
0010
1000
0001
0100
0010
1000
0100
1000
,
0001
0001
0001
0001
0001
0001
0001
0001
,
0100
0000
0000
0001
1000
0000
0000
0000
0010
0000
1000
0000
0100
0000
0000
0000
,
0001
0000
0000
1000
0100
0000
0000
0000
0010
0000
0001
0000
0100
0000
0000
0000
,
0010
0000
0000
0001
0100
0000
0000
0000
1000
0000
0100
0000
1000
0000
0000
0000
,
0100
0000
0000
0010
0001
0000
0000
0000
0001
0000
1000
0000
0100
0000
0000
0000
,
1000
0000
0000
0001
0010
0000
0000
0000
0100
0000
1000
0000
0001
0000
0000
0000
,
0100
0000
0000
0010
1000
0000
0000
0000
0001
0000
0010
0000
0100
0000
0000
0000
,
0001
0000
0000
1000
0100
0000
0000
0000
0010
0000
0001
0000
1000
0000
0000
0000
,
0010
1000
0100
0010
0001
0100
0010
1000
,
0001
0000
0000
1000
0100
0000
0000
0000
0010
0000
0000
0001
1000
0000
0000
0000
,
0001
0000
0000
0001
0100
0000
0000
0000
1000
0000
0000
1000
0100
0000
0000
0000
,
0010
0000
0000
0001
1000
0000
0000
0000
0001
0000
0000
0001
1000
0000
0000
0000
,
0100
0000
0000
1000
0100
0000
0000
0000
0010
0000
0000
1000
0001
0000
0000
0000
,
0001
0000
0000
0010
0100
0000
0000
0000
0001
0000
0000
1000
0100
0000
0000
0000
,
0001
0000
0000
0100
0010
0000
0000
0000
1000
0000
0000
0001
0010
0000
0000
0000
,
0001
0000
0000
1000
0100
0000
0000
0000
0010
0000
0010
0000
0010
0000
0000
0000
,
0010
0100
0001
1000
0100
0100
0100
0000
,
0010
1000
0001
0100
0010
1000
0001
0100
,
0010
1000
0001
0100
0001
0100
0001
0100
,
0001
0010
0100
1000
0001
0010
0100
1000
,
0001
0010
0100
1000
0100
1000
0100
1000
,
0001
1000
0100
0010
0001
1000
0100
0010
,
0001
1000
0100
0010
0100
0010
0100
0010
,
0001
0100
0010
1000
0010
0100
0001
1000
,
0001
0100
0001
0100
0001
0100
0001
0100
,
0010
1000
0001
0100
,
0100
0001
1000
0100
,
0100
1000
0010
0100
,
0100
0001
0010
0100
,
0100
1001
0000
0000
,
0000
0010
0000
1000
,
0000
0001
0100
1000
,
0010
0000
1000
1000
1000
1000
1000
1000
,
1000
0000
1000
0000
0100
0000
0000
0010
0001
0000
0000
0000
0001
0000
0001
0000
,
0001
0000
0000
0000
1000
0000
0000
0100
1000
0000
0000
0000
0001
0000
0001
0000
,
0100
0000
0000
0000
0010
0000
0000
1000
0001
0000
0000
0000
1000
0000
1000
0000
,
0100
0000
0000
0000
0010
0000
0000
0001
0100
0000
0000
0000
1000
0000
1000
0000
,
1000
0000
0010
1000
0100
1000
0001
0100
,
0010
1000
0001
1000
0100
1000
0100
1000
,
0100
1000
0001
1000
0100
1000
0001
1000
,
0100
1000
0001
1000
0001
1000
0001
1000
,
0100
1000
0001
0000
0100
0000
1000
0000
,
0100
0001
0100
1000
,
0100
0000
0001
0100
1000
0100
0001
0100
,
1000
0100
0001
0001
0001
0001
0001
0001
,
0001
0001
0100
0000
0001
0000
1000
0000
,
0001
0010
0001
0100
,
0001
0000
1000
0000
,
1000
0000
1000
0000
,
0001
0000
0000
0000
;

//---------------dance-double - ----------------
#NOTES:
     dance-double:
     :
     Easy:
     3:
     0.251,0.326,0.124,0.000,0.000: // measure 1
00000000
00000000
00000000
00000000
,  // measure 2
00000000
00000000
00000000
00000000
,  // measure 3
00000000
00000000
00000000
00000000
,  // measure 4
00000000
00000000
00000000
00000000
,  // measure 5
00000000
00000000
00000000
00000000
,  // measure 6
00000001
00000000
00000100
00000000
,  // measure 7
00001000
00000000
00000100
00000000
,  // measure 8
00001000
00000000
00010000
00000000
,  // measure 9
01000000
00000000
10000000
10000000
,  // measure 10
10010000
01000000
01000000
00010000
,  // measure 11
00010000
00001000
00001000
00000100
,  // measure 12
00000100
00000001
00000001
00000010
,  // measure 13
00000010
00000100
00000100
00001000
,  // measure 14
00000001
00000100
00000100
00001000
,  // measure 15
00001000
00010000
00010000
01000000
,  // measure 16
01000000
10000000
10000000
00100000
,  // measure 17
00100000
10000000
10000000
01000000
,  // measure 18
10000000
00010000
00001000
00000010
,  // measure 19
00000001
00000001
00000001
00000001
,  // measure 20
00000001
00001000
00010000
00100000
,  // measure 21
10000000
10000000
10000000
10000000
,  // measure 22
10000000
00010000
01000000
00001000
,  // measure 23
00010000
00000010
00001000
00000001
,  // measure 24
00000001
00001000
00000100
00010000
,  // measure 25
00001000
00100000
00010000
10000000
,  // measure 26
10000000
10000000
10000000
10000000
,  // measure 27
00010000
00001000
00000010
00000001
,  // measure 28
00000001
00000001
00000001
00000001
,  // measure 29
00001000
00010000
00100000
10000000
,  // measure 30
10000000
01000000
00010000
00001000
,  // measure 31
00000010
00000001
00000001
00000001
,  // measure 32
00000001
00000100
00001000
00010000
,  // measure 33
00100000
10000000
10000000
10000000
,  // measure 34
10000000
00001000
00000000
00000001
,  // measure 35
00000000
00000100
00000000
00000100
,  // measure 36
00000000
00001000
00000000
00001000
,  // measure 37
00000000
00010000
00000000
00010000
,  // measure 38
00000000
00100000
00000000
00000000
,  // measure 39
00000000
10000000
00000000
00000000
,  // measure 40
00000000
01000000
00000000
00000000
,  // measure 41
00000000
00010000
00001000
00001000
,  // measure 42
00001000
00000110
00000001
00000001
,  // measure 43
00000001
00000110
00001000
00001000
,  // measure 44
00001000
00011000
00100000
00100000
,  // measure 45
00100000
01100000
10000000
10000000
,  // measure 46
10000000
01100000
00010000
00010000
,  // measure 47
00010000
00011000
00000100
00000100
,  // measure 48
00000100
00000110
00000001
00000110
,  // measure 49
00001000
00011000
00011000
00011000
,  // measure 50
00011000
00100000
00000000
10000000
,  // measure 51
00000000
01000000
00000000
00010000
,  // measure 52
00000000
00001000
00000000
00001000
,  // measure 53
00000000
00001000
00000000
00001000
,  // measure 54
00000010
00000001
00000001
00000000
,  // measure 55
00001000
00000000
00000100
00000000
,  // measure 56
00010000
00000000
00001000
00000000
,  // measure 57
00100000
00000000
00010000
00000000
,  // measure 58
10000000
00000000
00000000
00000000
;

//---------------dance-double - ----------------
#NOTES:
     dance-double:
     :
     Medium:
     5:
     0.344,0.408,0.181,0.000,0.000: // measure 1
00000000
00000000
00000000
00000000
,  // measure 2
00000000
00000000
00000000
00000000
,  // measure 3
00000000
00000000
00000000
00000000
,  // measure 4
00000000
00000000
00000000
00000000
,  // measure 5
00000000
00000000
00000000
00000000
,  // measure 6
10000000
00000000
01000000
00000000
,  // measure 7
00010000
00001000
00010000
00001000
,  // measure 8
00000100
00000001
00000100
00000001
,  // measure 9
00001000
00000100
00000001
00000100
,  // measure 10
00000010
00000000
00010010
00000000
00001000
00001000
00001000
00000000
,  // measure 11
00100000
01000000
10000000
10000000
,  // measure 12
01000000
00000000
00010000
00000000
00001000
00001000
00001000
00000000
,  // measure 13
00001000
00000100
00000001
00000001
,  // measure 14
00001000
00000000
00000100
00000000
00010000
00010000
00010000
00000000
,  // measure 15
00001000
00100000
01000000
01000000
,  // measure 16
10000000
00000000
00010000
00000000
00100000
00100000
00100000
00000000
,  // measure 17
00001000
00010000
00000100
00000100
,  // measure 18
00001001
00000000
00000100
00000000
00001000
00010000
01000000
00000000
,  // measure 19
10000000
00000000
01000000
00000000
00010000
10000000
01000000
00000000
,  // measure 20
00010000
00000000
00001000
00000000
00010000
00001000
00100000
00000000
,  // measure 21
00001000
00000000
00010000
00000000
00001000
00000010
00000001
00000000
,  // measure 22
00000001
00000000
00000100
00000000
00000100
00000010
00001000
00000000
,  // measure 23
00001000
00000000
00000100
00000000
00010000
00001000
01000000
00000000
,  // measure 24
00100000
00000000
10000000
00000000
10000000
01000000
00010000
00000000
,  // measure 25
00010000
00001000
00000100
00000100
,  // measure 26
00000001
00000000
00001100
00000000
00000010
00010000
00001000
00000000
,  // measure 27
00001000
00000000
00010100
00000000
00010000
00001000
01000000
00000000
,  // measure 28
00100000
00000000
10010000
00000000
00100000
10000000
01000000
00000000
,  // measure 29
00010000
00000000
11000000
00000000
01000000
00010000
00001000
00000000
,  // measure 30
00000100
00000000
00000110
00000000
00000010
00001000
00000100
00000000
,  // measure 31
00010000
00000000
00001100
00000000
00000010
00000001
00000100
00000000
,  // measure 32
00001000
00000000
01001000
00000000
00010000
00001000
00000100
00000000
,  // measure 33
00001000
00010000
00001000
00000100
,  // measure 34
00000001
00010000
00001000
00000100
,  // measure 35
00000000
00000001
00000010
00000100
,  // measure 36
00000000
00010000
00001000
01000000
,  // measure 37
00000000
00100000
10000000
01000000
,  // measure 38
00010000
00011000
00000000
00001000
,  // measure 39
00001000
00000100
00000000
00001000
,  // measure 40
00010000
01000000
00000000
10000000
,  // measure 41
00000000
00000000
10000000
01000000
00010000
01000000
10000000
00100000
,  // measure 42
01000000
00000000
00001000
00000000
00011000
00000000
00000010
00000100
,  // measure 43
00000100
00000000
00000001
00000000
00000110
00000000
00010000
00001000
,  // measure 44
00001000
00000000
00001000
00000000
00000101
00000000
00001000
00010000
,  // measure 45
00010000
00000000
00100000
00000000
10100000
00000000
01000000
00010000
,  // measure 46
00010000
00000000
00001000
00000000
01010000
00000000
00100000
00001000
,  // measure 47
00010000
00000000
00000010
00000000
00000100
00000000
00001000
00000100
,  // measure 48
00000001
00001000
00000101
00000010
,  // measure 49
00001100
00000000
00001000
00010000
00001000
00010000
00001000
00010000
,  // measure 50
01000000
00000000
10010000
00000000
01000000
00000000
01000000
00010000
,  // measure 51
00001000
00000000
00110000
00000000
00001000
00000000
00010000
00001000
,  // measure 52
00000100
00000000
00000001
00000001
00000001
00000000
00000100
00001000
,  // measure 53
00010000
00000000
00100000
00000000
00100000
00000000
10000000
10000000
,  // measure 54
10000000
01000000
00010000
00100000
,  // measure 55
10000000
01000000
00010000
00001000
,  // measure 56
00000100
00000001
00000000
00001000
,  // measure 57
00000000
00100000
00010000
00001000
,  // measure 58
00000010
00000000
00000000
00000000
;

//---------------dance-double - ----------------
#NOTES:
     dance-double:
     :
     Hard:
     7:
     0.423,0.462,0.010,0.000,0.115: // measure 1
00000000
00000000
00000000
00000000
,  // measure 2
00000000
00000000
00000000
00000000
,  // measure 3
00000000
00000000
00000000
00000000
,  // measure 4
00000000
00000000
00000000
00000000
,  // measure 5
00000000
00000000
00000000
00000000
,  // measure 6
00001000
00000000
00010000
00000000
,  // measure 7
00100000
10000000
01000000
00010000
,  // measure 8
00000010
00001000
00000001
00000100
00000010
00001000
00000100
00010000
,  // measure 9
00001000
00100000
01000000
01000000
01000000
01000000
01000000
01000000
,  // measure 10
10000000
00000000
00000000
00010000
01000000
00000000
00000000
00000000
00100000
00000000
10000000
00000000
01000000
00000000
00000000
00000000
,  // measure 11
00001000
00000000
00000000
00100000
00010000
00000000
00000000
00000000
00001000
00000000
00010000
00000000
00000100
00000000
00000000
00000000
,  // measure 12
00010000
00000000
00000000
00000010
00000100
00000000
00000000
00000000
00000001
00000000
00001000
00000000
00000100
00000000
00000000
00000000
,  // measure 13
00010000
00000000
00000000
00001000
01000000
00000000
00000000
00000000
00001000
00000000
00010000
00000000
00000100
00000000
00000000
00000000
,  // measure 14
00000010
00000000
00000000
00010000
00001000
00000000
00000000
00000000
01000000
00000000
00100000
00000000
10000000
00000000
00000000
00000000
,  // measure 15
00010000
00000000
00000000
10000000
01000000
00000000
00000000
00000000
00100000
00000000
00001000
00000000
00010000
00000000
00000000
00000000
,  // measure 16
01000000
00000000
00000000
00001000
00010000
00000000
00000000
00000000
00000100
00000000
00001000
00000000
00000001
00000000
00000000
00000000
,  // measure 17
00000010
00001000
00000100
00010000
00001000
00100000
00010000
10000000
,  // measure 18
00010000
00000000
00000000
00010000
00001000
00000000
00000000
00000000
00000010
00000000
00000000
00000001
00001000
00000000
00000000
00000000
,  // measure 19
00000100
00000000
00000000
00010000
00001000
00000000
00000000
00000000
00001000
00000000
00000000
00000001
00000100
00000000
00000000
00000000
,  // measure 20
00000010
00000000
00000000
00010000
00001000
00000000
00000000
00000000
00100000
00000000
00000000
10000000
01000000
00000000
00000000
00000000
,  // measure 21
00010000
00000000
00000000
00001000
00100000
00000000
00000000
00000000
00001000
00000000
00000000
00000100
00000001
00000000
00000000
00000000
,  // measure 22
00000001
00000000
00000000
00001000
00000100
00000000
00000000
00000000
00010000
00000000
00000000
01000000
10000000
00000000
00000000
00000000
,  // measure 23
00010000
00000000
00000000
00100000
01000000
00000000
00000000
00000000
00010000
00000000
00000000
00001000
01000000
00000000
00000000
00000000
,  // measure 24
00010000
00000000
00000000
00000010
00000100
00000000
00000000
00000000
00000001
00000000
00000001
00000000
00000001
00000000
00000000
00000000
,  // measure 25
00000010
00000100
00001000
00000100
00010000
00001000
01000000
00000000
,  // measure 26
10000000
00100000
01000000
00001000
00010000
00000010
00001000
00000001
,  // measure 27
00001000
00000100
00000010
00000100
00000010
00000100
00000010
00000100
,  // measure 28
00001000
00000001
00000100
00001000
00010000
01000000
10000000
00010000
,  // measure 29
10000000
01000000
00100000
01000000
00100000
01000000
00100000
01000000
,  // measure 30
10000000
00010000
01000000
00001000
00010000
01000000
00010000
00001000
,  // measure 31
00000100
00000001
00000010
00000100
00001000
00000100
00001000
00000100
,  // measure 32
00010000
00001000
00010000
00001000
00100000
01000000
00100000
01000000
,  // measure 33
10000000
01000000
00100000
00001000
00010000
00000100
00001000
00000001
,  // measure 34
00000100
10000000
00010000
01000000
,  // measure 35
01000000
00010000
00001000
00010000
,  // measure 36
00010000
00100000
10000000
01000000
,  // measure 37
01000000
00010000
00001000
00000100
,  // measure 38
00000100
00001001
00000000
00000000
,  // measure 39
00000000
00000100
00000000
00001000
,  // measure 40
00000000
00010000
01000000
10000000
,  // measure 41
00010000
00000000
10000000
01000000
00100000
00010000
10000000
10000000
,  // measure 42
10000000
00000000
10000000
00000000
01000000
00000000
00000000
00010000
00001000
00000000
00000000
00000000
00001000
00000000
00001000
00000000
,  // measure 43
00000100
00000000
00000000
00000000
00000001
00000000
00000000
00001000
00000100
00000000
00000000
00000000
00000001
00000000
00000001
00000000
,  // measure 44
00000100
00000000
00000000
00000000
00001000
00000000
00000000
00010000
00001000
00000000
00000000
00000000
00001000
00000000
00001000
00000000
,  // measure 45
00000100
00000000
00000000
00000000
00010000
00000000
00000000
00010000
01000000
00000000
00000000
00000000
00001000
00000000
00010000
00000000
,  // measure 46
01000000
00000000
10000000
00100000
01000000
00010000
10000000
01000000
,  // measure 47
00010000
00001000
00000100
00000001
00000100
00000001
00000100
00000001
,  // measure 48
00000100
00000001
00001000
00000100
00001000
00000100
00100000
00010000
,  // measure 49
00100000
00010000
10000000
00010000
10000000
00010000
10000000
00010000
,  // measure 50
01000000
00010000
10000000
00000000
01000000
00000000
00001000
00000000
,  // measure 51
00010000
01000000
00010000
00001000
,  // measure 52
00010000
00000000
01000000
00010000
00001000
00010000
01000000
00010000
,  // measure 53
00001000
00000100
00000010
00000010
00000010
00000010
00000100
00000100
,  // measure 54
00000100
00000100
00000001
00000000
00000100
00000000
00001000
00000000
,  // measure 55
00000100
00010000
00001000
00100000
,  // measure 56
01000000
00000000
10000000
00000000
,  // measure 57
10000000
00000000
10000000
00000000
,  // measure 58
00010000
00000000
00000000
00000000
;

//---------------dance-single - ----------------
#NOTES:
     dance-single:
     :
     Challenge:
     8:
     0.507,0.529,0.181,0.162,0.229:
0000
0000
0000
0000
,
0000
0000
0000
0000
,
0000
0000
0000
0000
,
0200
0000
0000
0000
,
0302
0023
0032
2003
,
3100
0010
0001
0100
0010
1000
0001
1000
,
0100
1000
0100
1000
0001
0100
0001
0100
,
0010
1000
0100
0001
0010
1000
0001
0010
,
0001
0000
0001
0000
0001
0000
0001
0000
1000
0001
1000
0100
1000
0100
1000
0100
,
0010
0000
0000
0000
0001
0000
0000
1000
0010
0000
0000
0000
0110
0000
0000
0000
,
0100
0000
0000
0000
0001
0000
0000
1000
0100
0000
0000
0000
0110
0000
0000
0000
,
0010
0000
0000
0000
0001
0000
0000
1000
0010
0000
0000
0000
0110
0000
0000
0000
,
0100
0000
0000
0000
0001
0000
0000
1000
0010
0000
0000
0000
0110
0000
0000
0010
,
0100
0001
0010
0100
1000
0001
0100
0001
,
1000
0010
1000
0010
0100
0001
0100
0001
,
0000
0010
0100
1000
0001
0100
0010
1000
,
0010
0010
0010
0010
1000
1000
0001
0001
,
0001
0000
0000
1000
0100
0000
0000
1000
0001
0000
0000
1000
0010
0000
0000
0100
,
0001
0000
0000
1000
0100
0000
0000
0010
0001
0000
0000
1000
0010
0000
0000
0100
,
0001
0000
0000
0100
0010
0000
0000
0100
1000
0000
0000
0100
0010
0000
0000
1000
,
0001
0000
0000
0010
0001
0000
0000
1000
0010
0000
0000
0100
0001
0000
0000
1000
,
0001
1000
0000
0000
0001
0010
0000
0000
0001
1000
0000
0000
0001
0100
0000
0000
,
0010
1000
0000
0000
0100
1000
0000
0000
0001
0010
0000
0000
0001
0100
0000
0000
,
0010
1000
0010
0100
0010
0001
0010
1000
,
0001
0000
0010
0000
0100
0000
1000
0000
0001
0000
0000
1000
0000
1000
0000
0000
,
0110
0010
1000
0100
0010
0001
1000
0010
,
0100
0001
0100
0001
1000
0100
1000
0100
,
0100
0010
0001
1000
0010
0100
0001
0010
,
0100
1000
0100
1000
0001
0100
0001
0100
,
2000
3000
2000
3000
,
2000
3000
2000
3000
,
0020
0030
0020
0030
,
0002
0003
0002
0003
,
0110
0000
1000
1000
1000
0100
0010
0001
,
0100
0010
0100
0100
0100
0001
0010
0100
,
0010
0000
0001
0000
0200
0000
0000
0000
0300
0000
0000
0000
1000
0000
0000
0001
,
0000
0000
0010
0000
0010
0000
0000
0000
0000
0000
1000
0000
0100
1000
0100
1000
,
0001
1000
0000
0000
1001
0000
0000
0000
0000
0000
0000
0000
0000
0000
0000
0000
,
0001
0101
0000
0000
,
0100
1000
0010
0000
0000
1000
0010
0000
,
0000
0000
0000
0010
0000
0000
0010
0000
0000
0000
0000
0000
0000
0000
0000
0000
0000
0000
0100
0000
0010
0000
0001
0000
,
1000
0000
0010
0000
1000
0000
0100
0000
0000
0010
0000
0000
0001
0000
0000
1000
0000
0000
0100
0000
0000
1000
0000
0000
,
0001
0000
0100
0000
0001
1000
0001
0000
0100
0000
0001
0000
1000
0000
0100
0000
,
1000
0001
0100
0010
1000
0001
0010
0001
,
1000
0000
0100
0000
1000
0001
1000
0000
0100
0000
1000
0000
0001
0000
0100
0000
,
0001
0101
0100
0010
1000
0001
0010
0100
,
1000
0100
1100
1000
0001
1000
0001
0100
,
0001
0100
0110
0000
1000
0000
0110
0000
,
0001
0000
1100
0000
1001
0000
0101
0101
,
0010
0000
0110
0000
1001
0000
0000
0000
0000
0000
1000
0100
1000
0000
0000
0000
,
0000
0000
0001
0000
0001
0000
0000
0000
0000
0000
0010
0100
1000
0000
0000
0000
,
0010
0010
1000
0001
,
1000
0000
0200
0000
0000
0000
0000
0300
,
0010
0110
0100
0000
0000
0001
0001
0000
,
0000
1000
1000
0000
0000
0010
0010
0000
,
0000
0000
0001
0000
0001
0000
0000
0000
0000
0000
1000
0100
0010
0000
0000
0000
,
0000
0001
0001
0000
0000
0010
0010
0000
,
0000
0002
2000
0000
0000
0000
0000
0000
,
0000
0000
0000
3003
0000
0000
0000
0000
;

//---------------dance-double - ----------------
#NOTES:
     dance-double:
     :
     Challenge:
     8:
     0.519,0.556,0.210,0.181,0.239: // measure 1
00000000
00000000
00000000
00000000
,  // measure 2
00000000
00000000
00000000
00000000
,  // measure 3
00000000
00000000
00000000
00000000
,  // measure 4
20000000
00000000
00000000
00000000
,  // measure 5
32000000
03200000
00320000
00032000
,  // measure 6
00003100
00000010
00000001
00000100
00000010
00010000
00000100
00010000
,  // measure 7
00000010
00010000
01000000
10000000
00010000
01000000
00010000
01000000
,  // measure 8
00100000
10000000
01000000
00010000
00000010
00001000
00100000
00001000
,  // measure 9
00000001
00000010
00000100
00010000
00010000
00001000
00000100
00000010
,  // measure 10
00000010
00000000
00000000
00000000
00000001
00000000
00000000
00001000
00000010
00000000
00000000
00000000
00000110
00000000
00000000
00000000
,  // measure 11
00000100
00000000
00000000
00000000
00001000
00000000
00000000
00010000
00001000
00000000
00000000
00000000
00101000
00000000
00000000
00000000
,  // measure 12
00100000
00000000
00000000
00000000
01000000
00000000
00000000
10000000
00100000
00000000
00000000
00000000
01100000
00000000
00000000
00000000
,  // measure 13
01000000
00000000
00000000
00000000
00100000
00000000
00000000
00010000
00001000
00000000
00000000
00000000
00011000
00000000
00000000
00001000
,  // measure 14
01000000
00100000
00010000
00001000
00000100
00010000
00001000
00010000
,  // measure 15
01000000
00100000
10000000
00100000
01000000
00001000
01000000
00010000
,  // measure 16
00000000
00100000
01000000
00010000
00000100
00001000
01000000
00100000
,  // measure 17
00001000
00001000
00001000
00001000
00000100
00000100
00000001
00000001
,  // measure 18
00000001
00000000
00000000
00000100
00000001
00000000
00000000
00000100
00001000
00000000
00000000
00001000
00010000
00000000
00000000
01000000
,  // measure 19
10000000
00000000
00000000
01000000
00010000
00000000
00000000
00010000
00001000
00000000
00000000
00000100
00000010
00000000
00000000
00001000
,  // measure 20
00000001
00000000
00000000
00000001
00001000
00000000
00000000
00001000
00010000
00000000
00000000
00010000
10000000
00000000
00000000
10000000
,  // measure 21
01000000
00000000
00000000
00100000
00001000
00000000
00000000
01000000
00100000
00000000
00000000
00010000
00001000
00000000
00000000
00001000
,  // measure 22
00000100
00001000
00000000
00000000
00000100
00000001
00000000
00000000
00000010
00001000
00000000
00000000
00010000
01000000
00000000
00000000
,  // measure 23
10000000
00100000
00000000
00000000
00010000
00001000
00000000
00000000
00000100
00000001
00000000
00000000
00000010
00001000
00000000
00000000
,  // measure 24
00100000
01000000
00000000
00000000
10000000
00010000
00000000
00000000
00000100
00000010
00000000
00000000
00010000
00001000
00000000
00000000
,  // measure 25
00100000
00010000
00000000
00000000
01000000
00001000
00000000
00000000
10010000
00000000
00000000
10000000
00000000
00010000
00000000
00000000
,  // measure 26
01100000
00100000
10000000
01000000
00100000
00010000
00001000
00000100
,  // measure 27
00000001
00000001
00000100
00001000
00000001
00000001
00000100
00001000
,  // measure 28
00000110
00000010
00000001
00000010
00000100
00001000
00010000
00100000
,  // measure 29
10000000
10000000
00010000
01000000
10000000
10000000
01000000
00010000
,  // measure 30
20000000
31000000
00020000
00031000
,  // measure 31
00000200
00000301
00000020
00001030
,  // measure 32
00020000
01030000
20000000
30100000
,  // measure 33
00020000
00031000
02000000
03100000
,  // measure 34
10010000
00000000
10000000
10000000
10000000
01000000
00010000
00001000
,  // measure 35
00000010
00000100
00000001
00000001
00000001
00000100
00010000
00001000
,  // measure 36
00100000
00000000
00010000
00000000
02000000
00000000
00000000
00000000
03000000
00000000
00000000
00000000
10000000
00000000
00000000
00010000
,  // measure 37
00000000
00000000
00100000
00000000
00100000
00000000
00000000
00000000
00000000
00000000
10000000
00000000
01000000
10000000
01000000
10000000
,  // measure 38
00010000
10000000
00000000
00000000
10010000
00000000
00000000
00000000
00000000
00000000
00000000
00000000
00000000
00000000
00000000
00000000
,  // measure 39
00010000
01010000
00000000
00000000
,  // measure 40
01000000
10000000
00100000
00000000
00000000
00001000
00100000
00000000
,  // measure 41
00000000
00000000
00000000
00100000
00000000
00000000
00100000
00000000
00000000
00000000
00000000
00000000
00000000
00000000
00000000
00000000
00000000
00000000
00100000
00000000
00010000
00000000
00001000
00000000
,  // measure 42
00000100
00000000
00000010
00000000
00000001
00000000
00000100
00000000
00000000
00000010
00000000
00000000
00001000
00000000
00000000
00000001
00000000
00000000
00000100
00000000
00000000
00000001
00000000
00000000
,  // measure 43
00001000
00000000
00000100
00000000
00010000
00001000
00010000
00000000
01000000
00000000
00010000
00000000
00001000
00000000
01000000
00000000
,  // measure 44
00100000
10000000
01000000
00100000
00010000
10000000
01000000
10000000
,  // measure 45
00010000
00000000
01000000
00000000
00001000
00010000
00001000
00000000
00000100
00000000
00001000
00000000
00010000
00000000
00000100
00000000
,  // measure 46
00000010
00000011
00000101
00000010
00001000
00000001
00000100
00001000
,  // measure 47
00010000
00100000
10100000
01000000
00010000
10000000
01000000
00010000
,  // measure 48
00001000
00010000
00021000
00000000
00030100
00000000
00012000
00000000
,  // measure 49
00103000
00000000
00011000
00000000
00001100
00000000
00000110
00001010
,  // measure 50
00000100
00000000
00000110
00000000
00001001
00000000
00000000
00000000
00000000
00000000
00000001
00000100
00000001
00000000
00000000
00000000
,  // measure 51
00000000
00000000
00000100
00000000
00000100
00000000
00000000
00000000
00000000
00000000
00001000
00010000
00001000
00000000
00000000
00000000
,  // measure 52
00100000
00100000
10000000
00010000
,  // measure 53
10000000
00000000
02000000
00000000
00000000
00000000
00000000
03000000
,  // measure 54
00100000
01100000
01000000
00000000
00000000
00010000
00010000
00000000
,  // measure 55
00000000
10000000
10000000
00000000
00000000
00100000
00100000
00000000
,  // measure 56
00000000
00000000
00010000
00000000
00010000
00000000
00000000
00000000
00000000
00000000
00000100
00001000
00000010
00000000
00000000
00000000
,  // measure 57
00000000
00001000
00001000
00000000
00000000
00000010
00000010
00000000
,  // measure 58
00000000
00020000
00002000
00000000
00000000
00000000
00000000
00000000
,  // measure 59
00000000
00033000
00000000
00000000
;

//---------------dance-double - ----------------
#NOTES:
     dance-double:
     :
     Beginner:
     1:
     0.154,0.190,0.105,0.000,0.000: // measure 1
00000000
00000000
00000000
00000000
,  // measure 2
00000000
00000000
00000000
00000000
,  // measure 3
00000000
00000000
00000000
00000000
,  // measure 4
00000000
00000000
00000000
00000000
,  // measure 5
00000000
00000000
00000000
00000000
,  // measure 6
00000001
00000000
00000100
00000000
,  // measure 7
00001000
00000000
00000100
00000000
,  // measure 8
00001000
00000000
00010000
00000000
,  // measure 9
01000000
00000000
10000000
00000000
,  // measure 10
10010000
00000000
01000000
00000000
,  // measure 11
00010000
00000000
00001000
00000000
,  // measure 12
00000100
00000000
00000001
00000000
,  // measure 13
00000010
00000000
00000100
00000000
,  // measure 14
00000001
00000000
00000100
00000000
,  // measure 15
00001000
00000000
00010000
00000000
,  // measure 16
01000000
00000000
10000000
00000000
,  // measure 17
00100000
00000000
10000000
00000000
,  // measure 18
10000000
00000000
00001000
00000000
,  // measure 19
00000001
00000000
00000001
00000000
,  // measure 20
00000001
00000000
00010000
00000000
,  // measure 21
10000000
00000000
10000000
00000000
,  // measure 22
10000000
00000000
01000000
00000000
,  // measure 23
00010000
00000000
00001000
00000000
,  // measure 24
00000001
00000000
00000100
00000000
,  // measure 25
00001000
00000000
00010000
00000000
,  // measure 26
10000000
00000000
10000000
00000000
,  // measure 27
00010000
00000000
00000010
00000000
,  // measure 28
00000001
00000000
00000001
00000000
,  // measure 29
00001000
00000000
00100000
00000000
,  // measure 30
10000000
00000000
00010000
00000000
,  // measure 31
00000010
00000000
00000001
00000000
,  // measure 32
00000001
00000000
00001000
00000000
,  // measure 33
00100000
00000000
10000000
00000000
,  // measure 34
10000000
00001000
00000000
00000001
,  // measure 35
00000000
00000100
00000000
00000100
,  // measure 36
00000000
00001000
00000000
00001000
,  // measure 37
00000000
00010000
00000000
00010000
,  // measure 38
00000000
00100000
00000000
00000000
,  // measure 39
00000000
10000000
00000000
00000000
,  // measure 40
00000000
01000000
00000000
00000000
,  // measure 41
00000000
00010000
00000000
00001000
,  // measure 42
00000000
00000110
00000000
00000001
,  // measure 43
00000000
00000110
00000000
00001000
,  // measure 44
00000000
00011000
00000000
00100000
,  // measure 45
00000000
01100000
00000000
10000000
,  // measure 46
00000000
01100000
00000000
00010000
,  // measure 47
00000000
00011000
00000000
00000100
,  // measure 48
00000000
00000110
00000000
00000110
,  // measure 49
00000000
00011000
00000000
00011000
,  // measure 50
00000000
00100000
00000000
10000000
,  // measure 51
00000000
01000000
00000000
00010000
,  // measure 52
00000000
00001000
00000000
00001000
,  // measure 53
00000000
00001000
00000000
00001000
,  // measure 54
00000000
00000001
00000000
00000000
,  // measure 55
00001000
00000000
00000100
00000000
,  // measure 56
00010000
00000000
00001000
00000000
,  // measure 57
00100000
00000000
00010000
00000000
,  // measure 58
10000000
00000000
00000000
00000000
;
