#TITLE:AM-3P;
#SUBTITLE:(AM EAST mix);
#ARTIST:KTz;
#TITLETRANSLIT:;
#SUBTITLETRANSLIT:;
#ARTISTTRANSLIT:;
#CREDIT:;
#BANNER:AM-3P (AM EAST mix).png;
#BACKGROUND:AM-3P (AM EAST mix)-bg.png;
#LYRICSPATH:;
#CDTITLE:Dance Dance Revolution Max 2.png;
#MUSIC:AM-3P (AM EAST mix).ogg;
#OFFSET:0.000;
#SAMPLESTART:49.711;
#SAMPLELENGTH:15.000;
#SELECTABLE:YES;
#DISPLAYBPM:140.000;
#BPMS:0.000=140.078,4.000=140.009;
#STOPS:;
#BGCHANGES:;

//---------------dance-single - ----------------
#NOTES:
     dance-single:
     :
     Challenge:
     7:
     0.441,0.494,0.092,0.041,0.302:
0000
0000
0000
0000
,
0000
0000
0000
0000
,
0000
0000
0000
0000
,
1000
0100
0010
0001
,
0001
0100
0010
1000
,
1000
0100
0010
0000
1000
0100
0010
0000
,
1000
0010
0100
0001
0010
0100
1000
0000
,
0001
0010
0100
0000
0001
0010
0100
0000
,
1000
0010
0001
0100
1000
0100
0010
0000
,
1000
0000
0000
0100
0000
0000
0001
0000
0000
0000
0000
0000
0100
0000
0000
0000
,
1000
0000
0000
0010
0000
0000
0100
0000
0000
0000
0000
0000
0001
0000
0000
0000
,
0010
0000
0000
0001
0000
0000
0100
0000
0001
0000
0000
0010
0000
0000
0100
0000
,
1000
0000
0000
0110
,
1000
1000
1000
0000
0001
0001
0001
0000
,
1000
0010
0100
0001
1000
0100
0010
0000
,
0001
1000
0100
0000
0001
1000
0100
0000
,
0010
0202
0000
0000
0303
0000
1001
0000
,
0010
0100
0001
0000
0010
0100
1000
0000
,
0001
0100
0010
0001
0010
1000
0100
0000
,
0001
0010
1000
0000
1000
0010
0001
0000
,
1001
1001
0010
0010
0110
0110
0001
0000
,
0010
0000
0000
1000
0000
0000
0100
0000
0000
1000
0000
0000
0010
0000
0100
0000
,
0001
0000
0000
1000
0000
0000
1000
0000
0000
0010
0000
0000
0100
0000
0001
0000
,
1000
0000
0000
0100
0000
0000
0010
0000
0000
0100
0000
0000
1000
0000
0010
0000
,
1000
0000
0000
0100
0000
0000
0000
0000
0000
0000
0000
0000
0000
0000
0000
0000
1000
0000
0000
0001
0000
0000
0000
0000
0000
0000
0000
0000
0000
0000
0000
0000
1000
0000
0000
0100
0000
0000
0000
0000
0000
0000
0000
0000
0000
0000
0000
0000
1000
0000
0000
0100
0000
0000
0000
0000
0000
0000
0000
0000
0000
0000
0000
0000
,
1001
0000
0000
0100
0000
0000
0010
0000
0000
0001
0100
0000
0010
0000
1000
0000
,
0100
0000
0000
0010
0000
0000
0001
0000
0000
1000
0100
0000
1000
0000
0001
0000
,
0010
0000
0000
0100
0000
0000
1000
0000
0000
0010
0100
0000
0001
0000
0010
0000
,
0100
0000
0000
1000
0000
0000
0000
0000
0000
0000
0000
0000
0000
0000
0000
0000
0001
0000
0000
1000
0000
0000
0000
0000
0000
0000
0000
0000
0000
0000
0000
0000
0100
0000
0000
1000
0000
0000
0000
0000
0000
0000
0000
0000
0000
0000
0000
0000
0100
0000
0000
1000
0000
0000
0000
0000
0000
0000
0000
0000
0000
0000
0000
0000
,
0010
0000
0000
0001
0000
0000
0100
0000
0000
0000
0010
0000
0100
0000
0000
0000
,
0001
0000
0000
1000
0000
0000
1000
0000
0000
0000
0100
0000
0010
0000
0000
0000
,
0100
0000
0000
0010
0000
0000
0001
0000
0000
0000
0001
0000
0100
0000
0000
0000
,
0100
0000
0000
1000
0000
0000
0100
0000
0000
0000
0001
0000
0010
0000
0000
0000
,
0010
0000
0000
1000
0000
0000
0100
0000
0000
0000
0100
0000
0001
0000
0000
0000
,
0001
0000
0000
1000
0000
0000
0100
0000
0000
0000
1000
0000
0010
0000
0000
0000
,
0010
0000
0000
0001
0000
0000
0100
0000
0000
0000
0100
0000
1000
0000
0000
0000
,
0100
0000
0000
0001
0000
0000
0010
0000
0000
0000
0010
0000
1000
0000
0000
0000
,
0002
0003
0010
0100
,
2000
3000
0001
0100
,
1000
0000
0000
0100
0000
0000
0010
0000
0001
0000
0000
0001
0000
0000
0100
0000
,
0100
0000
0000
1000
0000
0000
1000
0000
0000
0000
0000
0000
0000
0000
0000
0000
,
0010
0000
0000
0001
0000
0000
0100
0000
0000
1000
0000
0000
0010
0000
0100
0000
,
0001
0000
0000
1000
0000
0000
1000
0000
0000
0010
0000
0000
0100
0000
1000
0000
,
1000
0000
0000
0100
0000
0000
0010
0000
0000
0100
0000
0000
1000
0000
0010
0000
,
0001
0000
0000
0100
0000
0000
0000
0000
0000
0000
0000
0000
0000
0000
0000
0000
1000
0000
0000
0001
0000
0000
0000
0000
0000
0000
0000
0000
0000
0000
0000
0000
0010
0000
0000
0100
0000
0000
0000
0000
0000
0000
0000
0000
0000
0000
0000
0000
1000
0000
0000
0100
0000
0000
0000
0000
0000
0000
0000
0000
0000
0000
0000
0000
,
1001
0000
0000
0100
0000
0000
0010
0000
0000
1000
0100
0000
0010
0000
0001
0000
,
0100
0000
0000
0010
0000
0000
0001
0000
0000
0010
0100
0000
1000
0000
0001
0000
,
0010
0000
0000
0100
0000
0000
1000
0000
0000
0001
0010
0000
1000
0000
0010
0000
,
0100
0000
0000
1000
0000
0000
0000
0000
0000
0000
0000
0000
0000
0000
0000
0000
0001
0000
0000
0010
0000
0000
0000
0000
0000
0000
0000
0000
0000
0000
0000
0000
0100
0000
0000
1000
0000
0000
0000
0000
0000
0000
0000
0000
0000
0000
0000
0000
0100
0000
0000
0001
0000
0000
0000
0000
0000
0000
0000
0000
0000
0000
0000
0000
,
0010
0000
0000
0000
1000
0000
0000
0000
0100
1000
0100
0000
0000
0000
0000
0000
,
0010
0000
0000
0000
0001
0000
0000
0000
0100
0010
0100
0000
0000
0000
0000
0000
,
0001
0010
0100
1000
,
0100
0000
0010
0000
1000
0000
0100
0000
1000
0001
1000
0000
0000
0000
0000
0000
,
0001
0000
0000
0000
0010
0000
0000
0000
1000
0100
1000
0000
0000
0000
0000
0000
;

//---------------dance-double - ----------------
#NOTES:
     dance-double:
     :
     Challenge:
     7:
     0.436,0.466,0.051,0.041,0.302:
00000000
00000000
00000000
00000000
,
00000000
00000000
00000000
00000000
,
00000000
00000000
00000000
00000000
,
00001000
01000000
00100000
00010000
,
00000010
00000100
00010000
00000010
,
00000001
00000100
00000010
00000000
00010000
00001000
00100000
00000000
,
00100000
10000000
01000000
00010000
00001000
00010000
01000000
00000000
,
10000000
00100000
00010000
00000000
00010000
00001000
00000100
00000000
,
00000010
00010000
00001000
00000100
00001000
00010000
01000000
00000000
,
10000000
00000000
00000000
01000000
00000000
00000000
00010000
00000000
00000000
00000000
00000000
00000000
00000100
00000000
00000000
00000000
,
00000010
00000000
00000000
00000100
00000000
00000000
00001000
00000000
00000000
00000000
00000000
00000000
00010000
00000000
00000000
00000000
,
00100000
00000000
00000000
00010000
00000000
00000000
00001000
00000000
00010000
00000000
00000000
00000010
00000000
00000000
00000100
00000000
,
00000001
00000000
00000000
00000110
,
00001000
00001000
00001000
00000000
00010000
00010000
00010000
00000000
,
00100000
10000000
01000000
00010000
00100000
00010000
00001000
00000000
,
00010000
00000010
00000100
00000000
00001000
00100000
01000000
00000000
,
00010000
00022000
00000000
00000000
00033000
00000000
00010010
00000000
,
00000100
00000001
00000010
00000000
00001000
00010000
01000000
00000000
,
00010000
01000000
00100000
00010000
00001000
00000010
00000001
00000000
,
00000001
00000100
00001000
00000000
00010000
00100000
00010000
00000000
,
00100000
10000000
00100000
01000000
00001000
00010000
00000100
00000000
,
00000010
00000000
00000000
00000001
00000000
00000000
00000100
00000000
00000000
00001000
00000000
00000000
00010000
00000000
01000000
00000000
,
00010000
00000000
00000000
00001000
00000000
00000000
00000100
00000000
00000000
00000001
00000000
00000000
00000010
00000000
00001000
00000000
,
00010000
00000000
00000000
00100000
00000000
00000000
00010000
00000000
00000000
00001000
00000000
00000000
00000010
00000000
00000001
00000000
,
00000010
00000000
00000000
00000100
00000000
00000000
00000000
00000000
00000000
00000000
00000000
00000000
00000000
00000000
00000000
00000000
00001000
00000000
00000000
00000100
00000000
00000000
00000000
00000000
00000000
00000000
00000000
00000000
00000000
00000000
00000000
00000000
00010000
00000000
00000000
00001000
00000000
00000000
00000000
00000000
00000000
00000000
00000000
00000000
00000000
00000000
00000000
00000000
00010000
00000000
00000000
00001000
00000000
00000000
00000000
00000000
00000000
00000000
00000000
00000000
00000000
00000000
00000000
00000000
,
00011000
00000000
00000000
01000000
00000000
00000000
00100000
00000000
00000000
00010000
01000000
00000000
00100000
00000000
10000000
00000000
,
01000000
00000000
00000000
00010000
00000000
00000000
00001000
00000000
00000000
00001000
00000100
00000000
00000001
00000000
00000010
00000000
,
00000100
00000000
00000000
00010000
00000000
00000000
00001000
00000000
00000000
00010000
01000000
00000000
00100000
00000000
10000000
00000000
,
01000000
00000000
00000000
10000000
00000000
00000000
00000000
00000000
00000000
00000000
00000000
00000000
00000000
00000000
00000000
00000000
00010000
00000000
00000000
01000000
00000000
00000000
00000000
00000000
00000000
00000000
00000000
00000000
00000000
00000000
00000000
00000000
00010000
00000000
00000000
01000000
00000000
00000000
00000000
00000000
00000000
00000000
00000000
00000000
00000000
00000000
00000000
00000000
00001000
00000000
00000000
00010000
00000000
00000000
00000000
00000000
00000000
00000000
00000000
00000000
00000000
00000000
00000000
00000000
,
00100000
00000000
00000000
00010000
00000000
00000000
01000000
00000000
00000000
00000000
00001000
00000000
00010000
00000000
00000000
00000000
,
00010000
00000000
00000000
00001000
00000000
00000000
00000100
00000000
00000000
00000000
00000001
00000000
00001000
00000000
00000000
00000000
,
00000100
00000000
00000000
00000010
00000000
00000000
00001000
00000000
00000000
00000000
00000100
00000000
00010000
00000000
00000000
00000000
,
00100000
00000000
00000000
00010000
00000000
00000000
00001000
00000000
00000000
00000000
00010000
00000000
00100000
00000000
00000000
00000000
,
00001000
00000000
00000000
00010000
00000000
00000000
00000010
00000000
00000000
00000000
00000001
00000000
00000100
00000000
00000000
00000000
,
00001000
00000000
00000000
00000100
00000000
00000000
00001000
00000000
00000000
00000000
00010000
00000000
00100000
00000000
00000000
00000000
,
10000000
00000000
00000000
00010000
00000000
00000000
01000000
00000000
00000000
00000000
01000000
00000000
00010000
00000000
00000000
00000000
,
00001000
00000000
00000000
00000100
00000000
00000000
00000010
00000000
00000000
00000000
00001000
00000000
00000010
00000000
00000000
00000000
,
00000002
00000003
00000100
00001000
,
00020000
00030000
00001000
00000100
,
00000001
00000000
00000000
00000100
00000000
00000000
00001000
00000000
00010000
00000000
00000000
00010000
00000000
00000000
00000100
00000000
,
00000010
00000000
00000000
00001000
00000000
00000000
00010000
00000000
00000000
00000000
00000000
00000000
00000000
00000000
00000000
00000000
,
00000100
00000000
00000000
00000001
00000000
00000000
00000010
00000000
00000000
00001000
00000000
00000000
00010000
00000000
01000000
00000000
,
10000000
00000000
00000000
00100000
00000000
00000000
00010000
00000000
00000000
00001000
00000000
00000000
00000100
00000000
00000001
00000000
,
00000010
00000000
00000000
00000100
00000000
00000000
00000100
00000000
00000000
00001000
00000000
00000000
00010000
00000000
00100000
00000000
,
00010000
00000000
00000000
01000000
00000000
00000000
00000000
00000000
00000000
00000000
00000000
00000000
00000000
00000000
00000000
00000000
10000000
00000000
00000000
00010000
00000000
00000000
00000000
00000000
00000000
00000000
00000000
00000000
00000000
00000000
00000000
00000000
00100000
00000000
00000000
00010000
00000000
00000000
00000000
00000000
00000000
00000000
00000000
00000000
00000000
00000000
00000000
00000000
00010000
00000000
00000000
00001000
00000000
00000000
00000000
00000000
00000000
00000000
00000000
00000000
00000000
00000000
00000000
00000000
,
00011000
00000000
00000000
00000100
00000000
00000000
00000001
00000000
00000000
00000010
00000100
00000000
00010000
00000000
00001000
00000000
,
01000000
00000000
00000000
00100000
00000000
00000000
00010000
00000000
00000000
00100000
10000000
00000000
01000000
00000000
00010000
00000000
,
00001000
00000000
00000000
00000100
00000000
00000000
00010000
00000000
00000000
00001000
00010000
00000000
01000000
00000000
10000000
00000000
,
01000000
00000000
00000000
10000000
00000000
00000000
00000000
00000000
00000000
00000000
00000000
00000000
00000000
00000000
00000000
00000000
00010000
00000000
00000000
00100000
00000000
00000000
00000000
00000000
00000000
00000000
00000000
00000000
00000000
00000000
00000000
00000000
00001000
00000000
00000000
00010000
00000000
00000000
00000000
00000000
00000000
00000000
00000000
00000000
00000000
00000000
00000000
00000000
00000100
00000000
00000000
00001000
00000000
00000000
00000000
00000000
00000000
00000000
00000000
00000000
00000000
00000000
00000000
00000000
,
00000010
00000000
00000000
00000000
00000001
00000000
00000000
00000000
00000100
00001000
00000100
00000000
00000000
00000000
00000000
00000000
,
00100000
00000000
00000000
00000000
00010000
00000000
00000000
00000000
01000000
10000000
01000000
00000000
00000000
00000000
00000000
00000000
,
00100000
00001000
00010000
00000100
,
00000100
00000000
00000010
00000000
00000001
00000000
00000100
00000000
00001000
00010000
00001000
00000000
00000000
00000000
00000000
00000000
,
00000100
00000000
00000000
00000000
00010000
00000000
00000000
00000000
00100000
01000000
00100000
00000000
00000000
00000000
00000000
00000000
;

//---------------dance-single - ----------------
#NOTES:
     dance-single:
     :
     Edit:
     8:
     0.595,0.576,0.276,0.338,0.532: // measure 1
0000
0000
0000
0000
,  // measure 2
0000
0000
0000
0000
,  // measure 3
0000
0001
0000
0001
0000
0001
0000
0001
,  // measure 4
1001
0000
1000
1000
1000
0000
0001
0000
,  // measure 5
0010
0000
0000
0000
0100
0000
0000
0000
1000
0000
0001
0100
0001
0100
0001
0100
,  // measure 6
0001
0000
0001
0000
0000
0001
1000
0001
1000
0000
0100
0000
0000
1000
0001
1000
,  // measure 7
0001
0000
0001
0000
0000
0100
0010
0100
0010
0000
1000
0000
0000
0001
0010
0001
,  // measure 8
0010
0000
0100
0000
0000
1000
0001
1000
0001
0000
0100
0000
0000
0001
0100
0001
,  // measure 9
0100
0000
0010
0000
0000
1000
0100
1000
0100
0000
0010
0000
0001
0000
0100
0000
,  // measure 10
2000
0000
0000
3020
,  // measure 11
0032
0000
0000
0200
0003
0000
0000
0000
,  // measure 12
0310
0000
0000
1000
0000
0000
1000
0000
0000
0100
0000
0000
0010
0000
0001
0000
,  // measure 13
0001
1100
1001
1100
,  // measure 14
0001
0001
0001
0000
0100
0000
0010
0000
,  // measure 15
1010
1010
2002
3003
,  // measure 16
1000
1000
1000
0000
0001
0000
0100
0000
,  // measure 17
0010
0000
2000
0000
0001
0000
0000
0000
0000
0001
0000
0000
3001
0000
0000
0000
,  // measure 18
0100
0100
0100
0000
0010
0000
0001
0000
,  // measure 19
1100
1100
0220
0330
,  // measure 20
0001
0100
1000
0000
0001
0100
1000
0000
,  // measure 21
0001
0000
0100
0000
1000
0000
0100
0000
0001
0000
1000
0000
0100
0010
0100
0010
,  // measure 22
0100
0000
0000
1000
0000
0000
0001
0000
0000
1000
0100
0000
0010
0000
1000
0000
,  // measure 23
0010
0000
0000
0001
0000
0000
1000
0000
0000
0001
0100
0000
0010
0000
0001
0000
,  // measure 24
0010
0000
0000
1000
0000
0000
0001
0000
0000
0100
0001
0000
1000
0000
0100
0000
,  // measure 25
0010
0001
0000
1000
0010
0000
0100
0001
0000
1000
0100
0000
0000
0000
0000
0000
,  // measure 26
0010
0000
0000
0001
0000
0000
0100
0000
0000
0010
1000
0000
0100
0000
1000
0000
,  // measure 27
0001
0000
0000
0100
0000
0000
0010
0000
0000
1000
0001
0000
0010
0000
0001
0000
,  // measure 28
1000
0010
0001
0010
1000
0100
0010
1000
,  // measure 29
0110
0000
0000
0000
0011
0000
0000
0000
0000
0000
1001
0000
1000
0001
0100
0010
,  // measure 30
2000
0000
0000
3002
0000
0000
0023
0000
0000
0032
0000
0000
0103
0000
0000
0000
,  // measure 31
2000
0000
0000
3200
0000
0000
2300
0000
0000
3020
0000
0000
1030
0000
0000
0000
,  // measure 32
0200
0000
0000
0302
0000
0000
2003
0000
0000
3200
0000
0000
0301
0000
0000
0000
,  // measure 33
0200
0000
0000
0320
0000
0000
0032
0000
0000
2003
0000
0000
3010
0000
0000
0000
,  // measure 34
0100
0001
0010
0100
1000
0000
1001
0000
,  // measure 35
0002
0000
0000
2003
0000
0000
3002
0000
0000
2003
0000
0000
3010
0000
0000
0000
,  // measure 36
0100
0001
0010
0100
1000
0000
1001
0000
,  // measure 37
2000
0000
0000
3002
0000
0000
2003
0000
0000
3002
0000
0000
0013
0000
0000
0000
,  // measure 38
0100
1000
0000
0000
0000
0000
0001
0100
0000
0000
0000
0000
0001
1000
0000
0000
,  // measure 39
0001
0010
0001
0010
0100
1000
0000
0000
0000
0001
0010
0000
0000
0000
0000
0000
,  // measure 40
0001
0000
0000
0001
0000
0000
1000
0000
0000
1000
0000
0000
0100
0000
0100
0000
,  // measure 41
0100
0110
0110
0110
,  // measure 42
1000
0000
0000
0001
0000
0000
1000
0000
0000
0100
1000
0000
0010
0000
0100
0000
,  // measure 43
0001
0000
0000
0010
0000
0000
0100
0000
0000
1000
0001
0000
0100
0000
0010
0000
,  // measure 44
1000
0000
0000
0001
0000
0000
0010
0000
0000
0001
1000
0000
0100
0000
0010
0000
,  // measure 45
0001
0100
0000
0100
1000
0000
1000
0100
0000
0100
0001
0000
0000
0000
0000
0000
,  // measure 46
1001
0000
0000
1100
0000
0000
0110
0000
0000
0001
1000
0000
0100
0000
0010
0000
,  // measure 47
0011
0000
0000
0101
0000
0000
1001
0000
0000
1000
0100
0000
0010
0000
0001
0000
,  // measure 48
0101
0000
0000
1100
0000
0000
0110
0000
0000
1000
0100
0000
0010
0000
0001
0000
,  // measure 49
1000
0100
0000
0100
0001
0000
0001
0100
0000
0100
1000
0000
0000
0000
0000
0000
,  // measure 50
0000
0001
0100
0001
1000
0000
0000
0010
0100
0001
1000
0000
0000
0100
1000
0001
,  // measure 51
0000
0100
0010
0100
0010
1000
0001
0000
0000
0000
1000
0100
0000
0010
0000
0000
,  // measure 52
0000
0100
1000
0001
0100
0000
0000
0010
1000
0001
0010
0000
0000
0100
1000
0001
,  // measure 53
0100
0000
0001
0000
1000
0000
0001
0000
1000
0001
1000
0001
1000
0001
1000
0001
,  // measure 54
1000
0010
0100
0010
1000
0000
0000
0100
0001
0100
1000
0000
0000
0000
0000
0000
;

//---------------dance-double - ----------------
#NOTES:
     dance-double:
     :
     Edit:
     9:
     0.608,0.576,0.368,0.338,0.532:
00000000
00000000
00000000
00000000
,
00000000
00000000
00000000
00000000
,
00000000
00000001
00000000
00000001
00000000
00000001
00000000
00000001
,
00000100
00000000
00010000
00010000
00010000
00000000
00000100
00000000
,
00000010
00000000
00000000
00000000
00001000
00000000
00000000
00000000
00000100
00000000
00000010
00000001
00000010
00000001
00000010
00000001
,
00000010
00000000
00000010
00000000
00000000
00000001
00001000
00000001
00000100
00000000
00000100
00000000
00000000
00001000
00100000
00001000
,
00010000
00000000
00010000
00000000
00000000
00100000
10000000
00100000
01000000
00000000
01000000
00000000
00000000
00010000
10000000
00010000
,
00100000
00000000
00100000
00000000
00000000
01000000
10000000
01000000
00100000
00000000
00100000
00000000
00000000
00001000
01000000
00001000
,
00010000
00000000
00010000
00000000
00000000
00100000
01000000
00100000
10000000
00000000
10000000
00000000
00010000
00000000
00010000
00000000
,
20000000
00000000
00000000
30020000
,
00032000
00000000
00000000
00000020
00003000
00000000
00000000
00000000
,
00000031
00000000
00000000
00000010
00000000
00000000
00010000
00000000
00000000
00100000
00000000
00000000
10000000
00000000
00010000
00000000
,
00010000
11000000
10010000
11000000
,
00010000
01000000
10000000
00000000
00010000
00000000
01000000
00000000
,
11000000
10010000
20200000
30300000
,
10000000
00100000
00010000
00000000
00001000
00000000
00000100
00000000
,
00000010
00000000
00002000
00000000
00000001
00000000
00000000
00000000
00000000
00000001
00000000
00000000
00003001
00000000
00000000
00000000
,
00001000
00000100
00000001
00000000
00001000
00000000
00000100
00000000
,
00000101
00001001
00000022
00000033
,
00000001
00000010
00001000
00000000
00000001
00000010
00001000
00000000
,
00000001
00000000
00000010
00000000
00001000
00000000
00010000
00000000
00100000
00000000
10000000
00000000
00010000
00100000
00010000
00100000
,
00010000
00000000
00000000
10000000
00000000
00000000
00010000
00000000
00000000
10000000
01000000
00000000
00100000
00000000
10000000
00000000
,
00100000
00000000
00000000
01000000
00000000
00000000
00010000
00000000
00000000
00001000
00000100
00000000
00000010
00000000
00000001
00000000
,
00000010
00000000
00000000
00000100
00000000
00000000
00001000
00000000
00000000
00010000
00001000
00000000
00000100
00000000
00000010
00000000
,
00001000
00000001
00000000
00000001
00000100
00000000
00000100
00000010
00000000
00000010
00001000
00000000
00000000
00000000
00000000
00000000
,
00001001
00000000
00000000
00000001
00000000
00000000
00001000
00000000
00000000
00000001
00000010
00000000
00000100
00000000
00000001
00000000
,
00000100
00000000
00000000
00000010
00000000
00000000
00001000
00000000
00000000
00010000
00100000
00000000
01000000
00000000
10000000
00000000
,
01000000
00100000
00010000
00001000
00000100
00000010
00001000
00000001
,
00001001
00000000
00000000
00000000
00000110
00000000
00000000
00000000
00000000
00000000
00001001
00000000
00000001
00001000
00000100
00000010
,
00000002
00000000
00000000
00000023
00000000
00000000
00000230
00000000
00000000
00002300
00000000
00000000
00003001
00000000
00000000
00000000
,
00000200
00000000
00000000
00000302
00000000
00000000
00002003
00000000
00000000
00003200
00000000
00000000
00000310
00000000
00000000
00000000
,
00002000
00000000
00000000
00023000
00000000
00000000
02030000
00000000
00000000
03020000
00000000
00000000
00031000
00000000
00000000
00000000
,
00000200
00000000
00000000
00000320
00000000
00000000
00020030
00000000
00000000
00032000
00000000
00000000
00103000
00000000
00000000
00000000
,
00001000
00010000
00100000
10000000
00010000
00000000
10010000
00000000
,
02000000
00000000
00000000
03020000
00000000
00000000
00032000
00000000
00000000
00003200
00000000
00000000
00000310
00000000
00000000
00000000
,
00010000
00001000
00000010
00000001
00001000
00000000
00001001
00000000
,
00000200
00000000
00000000
00002300
00000000
00000000
00023000
00000000
00000000
02030000
00000000
00000000
03100000
00000000
00000000
00000000
,
00001000
00010000
00000000
00000000
00000000
00000000
00001000
00010000
00000000
00000000
00000000
00000000
00001000
00010000
00000000
00000000
,
00001000
00010000
00001000
00010000
00001000
00010000
00000000
00000000
00000000
00000010
00001000
00000000
00000000
00000000
00000000
00000000
,
00000001
00000000
00000000
00000010
00000000
00000000
00010000
00000000
00000000
00100000
00000000
00000000
00010000
00000000
10000000
00000000
,
10000000
00110000
10010000
00110000
,
11000000
00000000
00000000
01010000
00000000
00000000
11000000
00000000
00000000
00100000
10000000
00000000
00010000
00000000
00100000
00000000
,
00011000
00000000
00000000
00110000
00000000
00000000
00011000
00000000
00000000
00000010
00001000
00000000
00000100
00000000
00000010
00000000
,
00000011
00000000
00000000
00001010
00000000
00000000
00000011
00000000
00000000
00000100
00000010
00000000
00001000
00000000
00000001
00000000
,
00000010
00000100
00000000
00000010
00000001
00000000
00001000
00000010
00000000
00000100
00000010
00000000
00000000
00000000
00000000
00000000
,
00000101
00000000
00000000
00001100
00000000
00000000
00000101
00000000
00000000
00000010
00000001
00000000
00001000
00000000
00000010
00000000
,
00011000
00000000
00000000
00001010
00000000
00000000
00011000
00000000
00000000
00100000
00010000
00000000
01000000
00000000
00100000
00000000
,
10100000
00000000
00000000
00110000
00000000
00000000
10100000
00000000
00000000
01000000
00100000
00000000
00010000
00000000
10000000
00000000
,
00100000
01000000
00000000
00100000
10000000
00000000
00010000
10000000
00000000
01000000
00100000
00000000
00000000
00000000
00000000
00000000
,
00000000
00010000
00100000
00010000
10000000
00000000
00000000
00100000
01000000
00001000
01000000
00000000
00000000
00001000
00010000
00001000
,
00000000
00010000
00001000
00010000
00001000
00010000
00001000
00000000
00000000
00000000
00010000
00001000
00000000
00000100
00000000
00000000
,
00000000
00000010
00010000
00001000
00010000
00000000
00000000
00001000
00100000
00001000
00010000
00000000
00000000
00001000
00010000
00001000
,
01000000
00000000
01000000
00000000
01000000
00000000
01000000
00000000
01000000
00100000
01000000
00100000
01000000
00100000
01000000
00100000
,
01000000
00010000
00100000
00010000
10000000
00000000
00000000
01000000
00010000
01000000
10000000
00000000
00000000
00000000
00000000
00000000
;
