#TITLE:A;
#SUBTITLE:;
#ARTIST:D.J. Amuro;
#TITLETRANSLIT:;
#SUBTITLETRANSLIT:;
#ARTISTTRANSLIT:;
#CREDIT:;
#BANNER:A.png;
#BACKGROUND:A-bg.png;
#LYRICSPATH:;
#CDTITLE:./CDTITLES/beatmaniaIIDX.PNG;
#MUSIC:A.mp3;
#OFFSET:-0.077;
#SAMPLESTART:53.570;
#SAMPLELENGTH:15.000;
#SELECTABLE:YES;
#DISPLAYBPM:93.000:191.000;
#BPMS:0.000=93.000,80.000=191.000;
#STOPS:80.000=1.293
;
#BGCHANGES:;

//---------------dance-single - ----------------
#NOTES:
     dance-single:
     :
     Easy:
     4:
     0.217,0.236,0.057,0.067,0.000:
0000
0000
0000
0000
,
0000
0000
0000
0000
,
0100
0000
0100
0000
,
0010
0010
0000
1001
,
1000
1000
0010
0010
,
0001
0001
0000
1001
,
0001
0001
0100
0100
,
1000
1000
0000
1001
,
0010
0000
0100
0000
,
0010
0010
0000
1001
,
0001
0001
0100
1000
,
1000
1000
0100
0001
,
0010
0001
0010
0001
,
0100
0010
0000
1001
,
0010
1000
0010
1000
,
0100
0010
0000
1001
,
0010
0000
0010
0000
,
0002
0003
2000
3000
,
0100
0000
0100
0000
,
0020
0030
0200
0300
,
0000
0000
0000
0001
,
0000
0001
0000
1000
,
0000
1000
0000
0010
,
0000
0010
0000
0100
,
0000
0100
0000
0001
,
0000
0100
0000
1000
,
0000
0100
0000
0010
,
0000
0001
0000
0010
,
0000
1000
0010
0001
,
0000
0001
0010
1000
,
0000
1000
0010
0001
,
0000
0001
0100
1000
,
0000
1000
0001
0100
,
0000
1000
1000
0100
,
0000
0001
0010
0100
,
0000
0100
0020
0000
,
0030
0000
0001
0100
,
0001
0000
1000
0100
,
1000
0000
0001
1000
,
0001
0000
1000
0001
,
1000
0000
0010
1000
,
0010
0000
0100
0001
,
0100
0000
0010
0100
,
0010
0000
0100
0010
,
0100
0000
0001
0001
,
1000
0000
1000
1000
,
0001
0000
0001
0100
,
1000
0100
0020
0000
,
0030
0000
0100
0100
,
0100
0000
0001
0001
,
1000
1000
0010
0000
,
0001
0001
0010
0000
,
1000
1000
0100
0000
,
0001
0001
0100
0000
,
1000
1000
0002
0000
,
0000
0003
0000
0000
;

//---------------dance-single - ----------------
#NOTES:
     dance-single:
     :
     Medium:
     6:
     0.337,0.349,0.048,0.019,0.000:
0000
0000
0000
0000
,
0000
0000
0000
0000
,
0010
1000
0010
1000
0000
0001
0000
0100
,
0000
0010
0001
0010
0001
1000
0001
1000
,
0000
0001
0010
0001
0000
1000
0000
0100
,
0000
0010
1000
0010
0000
0001
1000
0001
,
0010
0100
0010
0100
0000
0010
0000
0100
,
0000
1000
0001
1000
0000
0001
0100
0001
,
1000
0100
1000
0100
0000
1000
0000
0001
,
0000
0010
0001
0010
0000
1000
0010
1000
,
0010
0100
0010
0100
0000
0001
0000
1000
,
0000
0001
0100
0001
0000
0100
0010
0100
,
0010
1000
0010
1000
0000
1000
0000
0001
,
0000
0010
0100
0010
0000
0100
1000
0100
,
1000
0010
1000
0010
0000
0001
0000
0010
,
0000
0100
0001
0100
0000
1000
0001
0000
,
0000
0010
0000
0100
0000
0010
0000
1001
,
0000
0100
0000
0010
0000
1000
0001
0000
,
0000
1000
0000
0001
0000
1000
0000
0110
,
0000
1000
0000
0001
0000
0110
0000
1001
,
0000
0000
0001
1000
,
0000
0010
1000
0000
0100
0000
1000
0000
,
0000
0001
0100
0000
0001
0000
0010
0000
,
0000
0100
0010
0000
0100
0000
1000
0000
,
0000
0010
1000
0000
0100
0000
0001
0000
,
0000
0010
0001
0000
1000
0000
0001
0000
,
0000
1000
0010
0000
0100
0000
0010
0000
,
0000
0100
0001
0000
1000
0000
0001
0000
,
0000
0010
0001
0000
0010
0000
0010
0000
,
1000
1000
0100
0100
,
0001
0001
0010
0010
,
0100
0100
0001
0001
,
0100
0100
1000
1000
,
0010
0010
0001
0001
,
1000
1000
0010
0010
,
0010
0100
0010
0000
0200
0000
0300
0000
,
1000
0100
0001
0000
,
0001
0100
0010
1000
,
0010
1000
0100
1000
,
0010
0100
0001
0010
,
0001
1000
0100
0000
1000
0000
0100
0000
,
0010
0001
1000
0010
,
0100
0001
0010
0001
,
0100
0001
1000
0010
,
1000
0100
1000
0000
1000
0000
0001
0000
,
1000
0001
0100
0010
,
0100
0010
1000
0001
,
0100
0010
0101
0000
,
1000
0001
1000
0100
,
1000
0010
0100
0001
,
0100
0001
1000
0000
0001
0000
0100
0000
,
0010
0100
0010
0000
1000
0000
0010
0000
,
0100
0010
0100
0000
0001
0000
1000
0000
,
0001
0010
0100
0000
0010
0000
0100
0000
,
1000
0100
1000
0000
0200
0000
0000
0000
,
0000
0000
0000
0000
,
0000
0000
0300
0000
;

//---------------dance-single - ----------------
#NOTES:
     dance-single:
     :
     Hard:
     8:
     0.465,0.457,0.076,0.048,0.019: // measure 1
0000
0000
0000
0000
,  // measure 2
0000
0000
0000
0000
,  // measure 3
0010
1000
0001
1000
0000
0010
0000
1001
,  // measure 4
0000
0100
0001
1000
0001
0010
0100
0010
,  // measure 5
0000
0001
1000
0010
0000
0100
0010
1000
,  // measure 6
0000
0010
1000
0100
0000
0010
0001
0100
,  // measure 7
0010
1000
0100
1000
0000
0010
0000
0101
,  // measure 8
0000
0100
0010
0001
0000
1000
0010
0100
,  // measure 9
0001
0000
1000
0001
0100
0000
0010
0000
0000
0000
1000
0000
0000
0000
0001
0000
,  // measure 10
0100
0001
0010
0100
0000
1000
0010
1000
,  // measure 11
0100
0000
0010
0001
0100
0000
1000
0000
0000
0000
0001
0000
0000
0000
1000
0000
,  // measure 12
0100
0010
0001
0100
0000
0010
1000
0100
,  // measure 13
0010
0000
0001
1000
0100
0000
0010
0000
0000
0000
0001
0000
0000
0000
1000
0000
,  // measure 14
0001
0100
0010
1000
0000
1000
0010
0100
,  // measure 15
0001
0000
1000
0010
0100
0000
0001
0000
0000
0000
1000
0000
0000
0000
0100
0000
,  // measure 16
0010
0001
0010
0100
0000
1000
0010
1000
,  // measure 17
0000
0010
0100
0001
0000
0010
0000
1001
,  // measure 18
0000
0010
0100
1000
0000
0001
1000
0000
,  // measure 19
0000
0001
1000
0010
0000
1000
0000
0101
,  // measure 20
0000
0001
0100
1000
0000
0110
0000
1001
,  // measure 21
0000
0000
0000
0000
0001
0001
1000
0000
,  // measure 22
0000
0010
1000
0000
1000
1000
0010
0000
,  // measure 23
0000
0100
0001
0000
0001
0001
0100
0000
,  // measure 24
0000
0010
1000
0000
0100
0100
0010
0000
,  // measure 25
0000
1000
0010
0100
0001
0001
0100
0000
,  // measure 26
0000
0001
1000
0000
0010
0010
0001
0000
,  // measure 27
0000
0100
0001
0000
0010
0010
1000
0000
,  // measure 28
0000
0100
1000
0000
1000
0000
0100
0000
,  // measure 29
0010
0000
0001
0000
0010
0001
0010
0000
,  // measure 30
0100
1000
0100
0000
1000
0001
1000
0000
,  // measure 31
0100
0010
0100
0000
0010
0001
0010
0000
,  // measure 32
0001
0100
0001
0000
1000
0100
1000
0000
,  // measure 33
0010
1000
0010
0000
0001
0100
0001
0000
,  // measure 34
1000
0010
1000
0000
0100
0010
0100
0000
,  // measure 35
1000
0001
1000
0000
0010
1000
0010
0000
,  // measure 36
0100
0001
0100
0000
2002
0000
0000
0000
,  // measure 37
0000
3003
0001
1000
,  // measure 38
0001
0100
0010
1000
0100
0010
0100
1000
,  // measure 39
0001
1000
0010
0000
1000
0001
0100
0010
,  // measure 40
1000
0001
1000
0100
0010
0100
0010
0001
,  // measure 41
1000
0010
1000
0000
0001
0100
0001
0100
,  // measure 42
0001
0010
0001
0010
0100
1000
0001
0100
,  // measure 43
0010
1000
0100
0000
1000
0100
1000
0001
,  // measure 44
0100
0010
0100
0001
0010
0100
1000
0100
,  // measure 45
0010
0001
1000
0000
0001
0010
0001
0010
,  // measure 46
0001
0010
0001
0010
0100
1000
0100
1000
,  // measure 47
0100
1000
0100
1000
0001
0010
0100
1000
,  // measure 48
0100
0010
0001
0010
0002
0000
0003
0000
,  // measure 49
1000
0100
0010
0001
1000
0010
0100
0010
,  // measure 50
0100
0001
1000
0100
0010
0001
0100
0010
,  // measure 51
1000
0100
1000
0000
0001
1000
0100
1000
,  // measure 52
0010
0100
0001
0100
0010
1000
0010
0100
,  // measure 53
0001
0100
0001
0000
1000
0100
1000
0100
,  // measure 54
0010
0001
0010
0001
1000
0100
0010
0100
,  // measure 55
1000
0100
1000
0000
2002
0000
0000
0000
,  // measure 56
0000
0000
0000
0000
,  // measure 57
0000
0000
3003
0000
;

//---------------dance-double - ----------------
#NOTES:
     dance-double:
     :
     Easy:
     4:
     0.215,0.263,0.086,0.029,0.000:
00000000
00000000
00000000
00000000
,
00000000
00000000
00000000
00000000
,
01000000
00000000
01000000
00000000
,
00001000
00010000
00000000
00011000
,
00000100
00000000
00000100
00000000
,
00000010
00000001
00000000
00001001
,
00000010
00000000
00000010
00000000
,
00010000
00001000
00000000
00011000
,
00100000
00000000
01000000
00000000
,
10000000
00010000
01000000
00001000
,
00010000
00000010
00001000
00000001
,
00000100
00000010
00001000
00001001
,
00000010
00000000
00000100
00000000
,
00000001
00001000
00000100
00010000
,
00001000
00100000
00010000
10000000
,
01000000
00100000
00010000
10010000
,
00100000
00000000
00001000
00000000
,
00010000
00010000
00000010
00000000
,
00000100
00000000
00010000
00000000
,
00001000
00001000
00000000
00011000
,
00000000
00000000
00000000
00001000
,
00000000
01000000
00000000
00100000
,
00000000
01000000
00000000
10000000
,
00000000
00100000
00000000
01000000
,
00000000
00001000
00000000
00010000
,
00000000
00000100
00000000
00000010
,
00000000
00000100
00000000
00000001
,
00000000
00000010
00000000
00010000
,
00000000
00011000
00000000
00100000
,
00010000
00010000
00000000
10000000
,
01000000
01000000
00000000
00100000
,
00010000
00010000
00000000
00001000
,
00010000
00010000
00000000
00000010
,
00001000
00001000
00000000
00000001
,
00000100
00000100
00000000
00000010
,
00001000
00001000
00022000
00000000
,
00033000
00000000
01000000
00010000
,
01000000
00000000
00100000
10000000
,
00100000
00000000
00010000
10000000
,
00010000
00000000
00100000
00001000
,
00010000
00000000
00000100
00001000
,
00000100
00000000
00000010
00000001
,
00000010
00000000
00001000
00000001
,
00001000
00000000
00000010
00010000
,
00001000
00000000
00100000
00100000
,
00001000
00000000
00000010
00000010
,
00010000
00000000
00001000
01000000
,
00100000
00000000
10010000
00000000
,
01000000
00001000
00010000
00000010
,
00001000
00000000
00000001
00001000
,
00000100
00000000
00000100
00000000
,
00010000
00001000
00100000
00000000
,
00010000
01000000
00001000
00000000
,
00010000
00000100
00000010
00000000
,
00000001
00001000
00000200
00000000
,
00000000
00000300
00000000
00000000
;

//---------------dance-double - ----------------
#NOTES:
     dance-double:
     :
     Medium:
     6:
     0.300,0.296,0.048,0.019,0.000:
00000000
00000000
00000000
00000000
,
00000000
00000000
00000000
00000000
,
00000000
00001000
00000000
00001000
00000000
00100000
00000000
01000000
,
00000000
10000000
00000000
00010000
00000000
10000000
00000000
01000000
,
00000000
00010000
00000000
00010000
00000000
00001000
00000000
00000100
,
00000000
00000001
00000000
00001000
00000000
00000001
00000100
00000100
,
00000000
00001000
00000000
00001000
00000000
00010000
00000000
00100000
,
00000000
01000000
00000000
01000000
00000000
00010000
00000000
10000000
,
00000000
00100000
01000000
00010000
00000000
00001000
00000000
00000010
,
00000000
00000001
00000100
00000001
00000000
00000001
00000100
00001000
,
00000000
00000010
00000100
00001000
00000000
00010000
00000000
00010000
,
00000000
00100000
01000000
00100000
00000000
10000000
00010000
01000000
,
00000000
10000000
00000000
10000000
00000000
00100000
00000000
01000000
,
00000000
00100000
01000000
00100000
00000000
10000000
01000000
00010000
,
00000000
01000000
00000000
00010000
00000000
00001000
00000000
00001000
,
00000000
00000100
00000001
00000010
00000000
00000001
00000100
00000000
,
00000000
00000001
00000000
00000010
00000000
00000100
00000000
00011000
,
00000000
00100000
00000000
00100000
00000000
00010000
10000000
00000000
,
00000000
00100000
00000000
10000000
00000000
00010000
00000000
01010000
,
00000000
00001000
00000000
00010000
00000000
00001100
00000000
00011000
,
00000000
00000000
00100000
01000000
,
00000000
10000000
00010000
00000000
01000000
00000000
00001000
00000000
,
00000000
00010000
00001000
00000000
00000100
00000000
00000010
00000000
,
00000000
00000001
00001000
00000000
00000010
00000000
00010000
00000000
,
00000000
00001000
00010000
00000000
01000000
00000000
00001000
00000000
,
00000000
00010000
00001000
00000000
00000010
00000000
00010000
00000000
,
00000000
00001000
00010000
00000000
00000010
00000000
00000100
00000000
,
00000000
00000001
00000010
00000000
00000001
00000000
00000100
00000000
,
00001000
00010000
00100000
00100000
,
10000000
10000000
01000000
01000000
,
00010000
00010000
00001000
00001000
,
00000010
00000010
00000001
00000001
,
00000100
00000100
00000001
00000100
,
00000001
00000100
00001000
00010000
,
00001000
00010000
00100000
10000000
,
00100000
10000000
02000000
00000000
,
00000000
03000000
00010000
00000000
,
00001000
00000010
00000100
00001000
,
00000001
00000100
00001000
00010000
,
01000000
10000000
01000000
00010000
,
00100000
01000000
10000000
01000000
,
10000000
00100000
01000000
00001000
,
00010000
00000010
00001000
00000001
,
00000100
00000001
00000010
00000001
,
00000100
00000001
00000100
00001000
,
00010000
00001000
00000100
00001000
,
00010000
00100000
00010000
00001000
,
00010000
00100000
01100000
00000000
,
00010000
10000000
00010000
00100000
,
00001000
01000000
00010000
10000000
,
01000000
10000000
01000000
00010000
,
00001000
00000010
00000001
00000100
,
00000010
00000001
00000001
00000010
,
00000100
00001000
00010000
00100000
,
01000000
10000000
02000000
00000000
,
00000000
00000000
00000000
00000000
,
00000000
00000000
03000000
00000000
;

//---------------dance-double - ----------------
#NOTES:
     dance-double:
     :
     Hard:
     8:
     0.444,0.457,0.048,0.038,0.000:
00000000
00000000
00000000
00000000
,
00000000
00000000
00000000
00000000
,
00010000
01000000
00010000
10000000
00000000
00100000
00000000
10100000
,
00000000
01000000
00100000
00010000
00001000
00000100
00000010
00000100
,
00000000
00000001
00001000
00000010
00000000
00000100
00000010
00001000
,
00000000
00000001
00000100
00001000
00000000
00010000
01000000
00100000
,
00010000
01000000
00010000
10000000
00000000
01000000
00000000
01010000
,
00000000
00100000
10000000
01000000
00000000
00010000
00001000
00000100
,
00000001
00001000
00000010
00000100
00000000
00000001
00000000
00000100
,
00000010
00000100
00001000
00010000
00000000
00100000
01000000
00100000
,
10000000
00100000
01000000
00010000
00000000
01000000
00000000
10000000
,
01000000
00100000
00001000
00010000
00000000
00001000
00100000
01000000
,
00010000
00001000
00000010
00000100
00000000
00001000
00000000
00000001
,
00000100
00000010
00001000
00000010
00000000
00000001
00000010
00000100
,
00001000
00010000
01000000
00010000
00000000
10000000
00000000
01000000
,
00100000
00010000
00100000
01000000
00000000
10000000
00010000
00100000
,
00000000
00100000
01000000
00010000
00000000
00001000
00000000
00000100
,
00000000
00000001
00000010
00000100
00000000
00001000
00010000
00000000
,
00000000
00001000
00000010
00000001
00000000
00000100
00000000
00001000
,
00000000
00010000
01000000
10000000
00000000
01100000
00000000
10010000
,
00000000
00000000
00010000
10000000
,
00000000
00100000
00100000
00000000
01000000
00000000
00010000
00000000
,
00000000
01000000
01000000
00000000
00001000
00000000
00010000
00000000
,
00000000
00001000
00001000
00000000
00000010
00000000
00000100
00000000
,
00000000
00001000
00001000
00000000
00000001
00000010
00000001
00000000
,
00000000
00000100
00000100
00000000
00000010
00001000
00000100
00000000
,
00000000
00010000
00010000
00000000
00001000
00010000
00100000
00000000
,
00000000
01000000
01000000
00000000
00100000
00000000
00010000
00000000
,
00001000
00000000
00000010
00000000
00000001
00000100
00000001
00000000
,
00001000
00000100
00001000
00000000
00000010
00001000
00000010
00000000
,
00010000
00001000
00010000
00000000
01000000
00010000
01000000
00000000
,
00010000
10000000
00010000
00000000
10000000
01000000
10000000
00000000
,
00100000
10000000
00100000
00000000
01000000
00010000
01000000
00000000
,
00001000
00010000
00001000
00000000
00000100
00001000
00000100
00000000
,
00000001
00000100
00000001
00000000
00001000
00000010
00001000
00000000
,
00000100
00001000
00000100
00000000
00022000
00000000
00000000
00000000
,
00000000
00033000
00001000
00010000
,
00100000
10000000
00100000
10000000
00010000
00100000
00010000
10000000
,
01000000
10000000
01000000
00000000
10000000
01000000
00100000
01000000
,
00010000
00001000
00000010
00000001
00000100
00000001
00000100
00000010
,
00001000
00000010
00001000
00000000
00000100
00000001
00000100
00000001
,
00001000
00000100
00001000
00000100
00010000
00001000
00010000
00001000
,
00100000
00010000
01000000
00000000
10000000
01000000
10000000
00010000
,
01000000
00100000
01000000
00100000
10000000
01000000
10000000
00100000
,
01000000
00010000
01000000
00000000
00100000
10000000
00100000
10000000
,
00010000
01000000
00010000
01000000
00001000
00010000
00001000
00010000
,
00000010
00001000
00000010
00001000
00000001
00000010
00000100
00001000
,
00000100
00000010
00000001
00000010
00000002
00000000
00000003
00000000
,
00000001
00000010
00000100
00010000
00001000
00100000
00010000
01000000
,
00100000
10000000
00100000
01000000
00010000
00100000
00010000
01000000
,
00100000
10000000
00010000
00000000
00100000
00010000
00100000
00010000
,
10000000
01000000
00010000
00000000
00001000
00000010
00000001
00000100
,
00000001
00000100
00000010
00000000
00000100
00001000
00000100
00001000
,
00000001
00000010
00000001
00000000
00000010
00000001
00000100
00001000
,
00010000
00100000
10000000
00000000
02000000
00000000
00000000
00000000
,
00000000
00000000
00000000
00000000
,
00000000
00000000
03000000
00000000
;

//---------------dance-single - ----------------
#NOTES:
     dance-single:
     :
     Beginner:
     2:
     0.152,0.155,0.076,0.000,0.000:
0000
0000
0000
0000
,
0000
0000
0000
0000
,
0100
0000
0100
0000
,
0010
0010
0000
1001
,
0000
1000
0000
0010
,
0000
0001
0000
1001
,
0000
0001
0000
0100
,
0000
1000
0000
1001
,
0000
0000
0100
0000
,
0010
0010
0000
1001
,
0000
0001
0000
1000
,
1000
1000
0000
0001
,
0000
0001
0000
0001
,
0000
0010
0000
1001
,
0000
1000
0000
1000
,
0000
0010
0000
1001
,
0000
0000
0010
0000
,
0001
0000
1000
0000
,
0100
0000
0100
0000
,
0010
0000
0100
0000
,
1001
0000
0000
0001
,
0000
0001
0000
1000
,
0000
1000
0000
0010
,
0000
0010
0000
0100
,
0000
0100
0000
0001
,
0000
0100
0000
1000
,
0000
0100
0000
0010
,
0000
0001
0000
0010
,
0000
1000
0000
0001
,
0000
0001
0000
1000
,
0000
1000
0000
0001
,
0000
0001
0000
1000
,
0000
1000
0000
0100
,
0000
1000
0000
1000
,
0000
0001
0000
0100
,
0000
0100
0000
0000
,
0001
0000
0001
0000
,
0001
0000
1000
0000
,
1000
0000
0001
0000
,
0001
0000
1000
0000
,
1000
0000
0010
0000
,
0010
0000
0100
0000
,
0100
0000
0010
0000
,
0010
0000
0100
0000
,
0100
0000
0001
0000
,
0001
0000
1000
0000
,
1000
0000
0001
0000
,
1000
0000
0010
0000
,
0000
0000
0100
0000
,
0100
0000
0001
0000
,
0001
0000
1000
0000
,
1000
0000
0001
0000
,
0001
0000
1000
0000
,
1000
0000
0100
0000
,
0000
0000
1001
0000
;

//---------------dance-single - ----------------
#NOTES:
     dance-single:
     :
     Challenge:
     9:
     0.554,0.510,0.732,0.048,0.010:
0000
0000
0000
0000
,
0000
0000
0000
0000
,
0010
1001
0001
1100
0000
0011
0000
1001
,
0000
0110
0001
1001
0100
0010
1000
0100
,
0000
0101
1000
0011
0000
1100
0000
1001
,
0000
0110
1000
1100
0000
0010
0001
0100
,
0001
0100
1000
0010
0000
0011
0000
0101
,
0000
1000
0001
0010
0000
1000
0010
0100
,
0001
0000
1000
0001
0100
0000
0010
0000
0000
0000
1100
0000
0000
0000
1001
0000
,
0000
0101
0010
1100
0000
1000
0010
0100
,
0001
0000
0010
1000
0100
0000
1000
0000
0000
0000
0101
0000
0000
0000
1001
0000
,
0000
1010
0001
0110
0000
0010
1000
0100
,
0010
0001
0100
0010
0000
0110
0000
1001
,
0000
0101
0010
1001
0000
1000
0010
0100
,
0001
0100
1000
0001
0000
1001
0000
0110
,
0000
0101
1000
0011
0000
1000
0010
1000
,
0000
0011
0000
0101
0000
0110
0000
1001
,
0000
1010
0000
1100
0000
0101
1100
0000
,
0000
1010
0000
1100
0000
0110
0000
1001
,
0000
0011
0110
1100
0000
0110
0000
1001
,
0000
0000
0001
1001
,
0000
0010
0110
0000
1000
0000
1010
0000
,
0000
0100
0101
0000
0001
0000
0101
0000
,
0000
0010
1010
0000
0100
0000
0110
0000
,
0000
1000
1010
0100
0001
0000
0101
0000
,
0000
0001
1001
0000
0010
0000
0011
0000
,
0000
0100
0101
0000
0010
0000
1010
0000
,
0000
0100
1100
0000
1000
0010
0100
0001
,
0100
0001
1000
0000
0010
0001
0101
0000
,
0010
1000
1100
0000
1000
0001
0011
0000
,
0100
1000
1001
0000
0100
0010
1010
0000
,
0001
1000
1100
0000
0010
0001
0101
0000
,
0010
1000
1001
0000
0100
0001
1010
0000
,
0001
1000
0110
0000
1000
0001
1010
0000
,
0100
1000
0101
0000
1000
0100
1001
0000
,
0001
0100
1001
0000
2002
0000
3003
0000
,
1000
0100
0010
0001
1000
0000
0100
0000
,
0001
0100
0010
1000
0010
0100
0001
0010
,
1000
0010
0001
0010
0100
1000
0010
0001
,
0010
1000
0010
0100
1000
0100
0001
1000
,
0010
1000
0001
0010
0001
0100
0001
0100
,
0010
0100
0010
0100
0010
1000
0010
1000
,
0100
1000
0100
1000
0001
0010
0001
0010
,
1000
0010
0001
1000
0010
0100
1000
0100
,
0001
0010
0100
1000
0001
0010
0001
0010
,
0001
0010
0001
0010
1000
0100
1000
0100
,
1000
0100
1000
0100
0001
0010
0001
0100
,
0010
1000
0100
0010
0002
0000
0003
0000
,
0001
0010
0100
1000
1000
0010
0100
0001
,
0010
1000
0001
0100
1000
0001
0100
0010
,
1000
0010
0001
0010
0001
0010
0100
0001
,
1000
0100
0010
0100
0001
1000
0010
0100
,
1000
0010
0100
0001
0001
0010
0100
1000
,
0001
0010
0100
1000
0001
0010
0100
1000
,
0001
0010
0100
1000
2200
0000
0000
0000
,
0000
0000
0000
0000
,
0000
0000
3300
0000
;

//---------------dance-double - ----------------
#NOTES:
     dance-double:
     :
     Challenge:
     9:
     0.507,0.457,0.428,0.038,0.000:
00000000
00000000
00000000
00000000
,
00000000
00000000
00000000
00000000
,
00010000
01000000
00010000
10000000
00000000
01010000
00000000
00011000
,
00000000
00000010
00000100
00000001
00001000
00000100
00000010
00000100
,
00000000
00000001
00001000
00000010
00000000
00001100
00000010
00000101
,
00000000
00001000
00010000
00100000
00000000
10000000
00010000
01000000
,
00010000
10000000
00100000
10000000
00000000
00110000
00000000
00011000
,
00000000
00000100
00001000
00000010
00000000
00000101
00001000
00000100
,
00000001
00001000
00000010
00000100
00000000
00000110
00000000
00000101
,
00000010
00000100
00001000
00010000
00000000
00100000
01000000
00010000
,
10000000
01000000
00010000
00001000
00000000
00000011
00000000
00001100
,
00000001
00000010
00001000
00000100
00000000
00000010
00000001
00000100
,
00000000
00001000
00010000
01000000
10000000
00110000
00000000
10100000
,
00010000
10000000
01000000
00010000
00000000
00001000
00000010
00001000
,
00010000
00001000
00000100
00000001
00000000
00001010
00000000
00001100
,
00000001
00000100
00001000
00010000
00000000
00100000
01000000
00100000
,
00000000
01100000
00000000
10100000
00000000
11000000
00000000
01010000
,
00000000
00110000
00000000
00011000
00000000
00001100
00000001
00000100
,
00000000
00001010
00000000
00000101
00000000
00001001
00000000
00000110
,
00000000
00011000
00000000
00110000
00000000
01100000
00000000
10010000
,
00000000
00000000
00010000
10010000
,
00000000
00100000
01100000
00000000
01000000
00000000
01010000
00000000
,
00000000
01000000
01100000
00000000
00001000
00000000
00011000
00000000
,
00000000
00000100
00001100
00000000
00000001
00000000
00000101
00000000
,
00000000
00001000
00001010
00000000
00000001
00000001
00000011
00000000
,
00000000
00000100
00000110
00000000
00001000
00001000
00001010
00000000
,
00000000
00000010
00000110
00000000
00010000
00010000
00011000
00000000
,
00000000
00100000
00110000
00000000
01000000
00000000
00010000
00000000
,
00001000
00000000
00000010
00000000
00000001
00000100
00001000
00000000
,
00001000
00000100
00000001
00000000
00000010
00000001
00001000
00000000
,
00000010
00000100
00001000
00000000
00010000
00001000
00000100
00000000
,
00001000
00010000
01000000
00000000
10000000
00100000
00010000
00000000
,
00100000
10000000
01000000
00000000
00100000
10000000
01000000
00010000
,
00001000
00000100
00000001
00000100
00000010
00001000
00000100
00000010
,
00000001
00000010
00001000
00000010
00000001
00001000
00000010
00000100
,
00000001
00000100
00001000
00000000
00022000
00000000
00000000
00000000
,
00000000
00033000
00001000
00010000
,
00100000
10000000
00010000
00100000
01000000
10000000
00010000
10000000
,
01000000
00100000
00010000
00100000
01000000
10000000
01000000
00010000
,
00001000
00010000
00001000
00000010
00000001
00000100
00001000
00010000
,
00001000
00000100
00000010
00000000
00000001
00000100
00000001
00000100
,
00001000
00000100
00001000
00010000
00100000
00010000
00001000
00010000
,
00100000
10000000
01000000
00010000
01000000
10000000
00100000
00010000
,
00100000
10000000
01000000
00010000
00001000
00010000
01000000
10000000
,
01000000
00010000
01000000
00000000
00100000
10000000
00010000
10000000
,
00010000
01000000
00001000
01000000
00001000
00010000
00000010
00010000
,
00000010
00001000
00000001
00001000
00000001
00000010
00000100
00001000
,
00000100
00000010
00000001
00000010
00000002
00000000
00000003
00000000
,
00000001
00000010
00000100
00000000
00000001
00000100
00001000
00010000
,
00100000
01000000
00100000
10000000
01000000
00010000
00001000
00000100
,
00000001
00000010
00001000
00000000
00000010
00000001
00000100
00001000
,
00010000
00100000
01000000
00010000
10000000
01000000
00010000
00001000
,
00010000
01000000
00010000
00001000
00000010
00000001
00001000
00000001
,
00000100
00000010
00000001
00000000
00000001
00000010
00000100
00001000
,
00010000
00100000
01000000
10000000
02000000
00000000
00000000
00000000
,
00000000
00000000
00000000
00000000
,
00000000
00000000
03000000
00000000
;

//---------------dance-double - ----------------
#NOTES:
     dance-double:
     :
     Beginner:
     1:
     0.102,0.128,0.057,0.000,0.000: // measure 1
00000000
00000000
00000000
00000000
,  // measure 2
00000000
00000000
00000000
00000000
,  // measure 3
01000000
00000000
01000000
00000000
,  // measure 4
00001000
00000000
00000000
00011000
,  // measure 5
00000000
00000000
00000100
00000000
,  // measure 6
00000010
00000000
00000000
00001001
,  // measure 7
00000000
00000000
00000010
00000000
,  // measure 8
00010000
00000000
00000000
00011000
,  // measure 9
00000000
00000000
01000000
00000000
,  // measure 10
10000000
00000000
01000000
00000000
,  // measure 11
00010000
00000000
00001000
00000000
,  // measure 12
00000100
00000000
00001000
00000000
,  // measure 13
00000010
00000000
00000100
00000000
,  // measure 14
00000001
00000000
00000100
00000000
,  // measure 15
00001000
00000000
00010000
00000000
,  // measure 16
01000000
00000000
00010000
00000000
,  // measure 17
00100000
00000000
00001000
00000000
,  // measure 18
00010000
00000000
00000010
00000000
,  // measure 19
00000100
00000000
00010000
00000000
,  // measure 20
00001000
00000000
00000000
00011000
,  // measure 21
00000000
00000000
00000000
00001000
,  // measure 22
00000000
00000000
00000000
00100000
,  // measure 23
00000000
00000000
00000000
10000000
,  // measure 24
00000000
00000000
00000000
01000000
,  // measure 25
00000000
00000000
00000000
00010000
,  // measure 26
00000000
00000000
00000000
00000010
,  // measure 27
00000000
00000000
00000000
00000001
,  // measure 28
00000000
00000000
00000000
00010000
,  // measure 29
00000000
00000000
00000000
00100000
,  // measure 30
00000000
00000000
00000000
10000000
,  // measure 31
00000000
00000000
00000000
00100000
,  // measure 32
00000000
00000000
00000000
00001000
,  // measure 33
00000000
00000000
00000000
00000010
,  // measure 34
00000000
00000000
00000000
00000001
,  // measure 35
00000000
00000000
00000000
00000010
,  // measure 36
00000000
00000000
00011000
00000000
,  // measure 37
00000000
00000000
01000000
00000000
,  // measure 38
00000000
00000000
00100000
00000000
,  // measure 39
00000000
00000000
00010000
00000000
,  // measure 40
00000000
00000000
00100000
00000000
,  // measure 41
00000000
00000000
00000100
00000000
,  // measure 42
00000000
00000000
00000010
00000000
,  // measure 43
00000000
00000000
00001000
00000000
,  // measure 44
00000000
00000000
00000010
00000000
,  // measure 45
00000000
00000000
00100000
00000000
,  // measure 46
00000000
00000000
00000010
00000000
,  // measure 47
00000000
00000000
00001000
00000000
,  // measure 48
00000000
00000000
10010000
00000000
,  // measure 49
00000000
00001000
00000000
00000000
,  // measure 50
00001000
00000000
00000000
00001000
,  // measure 51
00000000
00000000
00000100
00000000
,  // measure 52
00000000
00001000
00000000
00000000
,  // measure 53
00010000
00000000
00000000
00000000
,  // measure 54
00010000
00000000
00000000
00000000
,  // measure 55
00000001
00000000
00000000
00000000
;

//---------------dance-single - ----------------
#NOTES:
     dance-single:
     :
     Edit:
     10:
     0.587,0.685,0.304,0.161,0.304:
0000
0000
0000
0000
,
0000
0000
0001
0000
0100
0000
0001
0000
0000
0000
0010
0000
0100
0000
1000
0001
,
0010
0100
1000
0100
0000
0110
0000
0011
,
0010
1000
0001
0100
0000
0110
1010
0000
,
0000
0001
0100
0001
0000
0110
0000
1001
,
0000
1000
0100
1000
0000
0011
0101
0001
,
0010
0001
1000
0100
0000
0110
0000
1100
,
0000
0001
0100
0001
0000
1010
0101
1000
,
0010
0000
0100
0000
0001
0000
0100
0000
0000
0000
0010
0000
0000
0000
1000
1000
,
1000
0000
0100
0100
0100
0000
0010
0010
0010
0000
0001
0001
0001
0000
0100
0100
,
0100
0000
0001
0001
0001
0000
1000
0000
0000
0000
0010
0000
0000
0000
1000
1000
,
0000
0010
0100
0001
0000
0110
1100
0000
,
0000
0101
0001
1000
0100
0001
0100
0110
,
0000
0010
0001
0010
0000
1100
1001
0000
,
0000
0010
1000
0010
0000
0110
0000
1001
,
0000
1000
0100
0001
0000
0011
0101
0000
,
0000
0010
1000
0100
0000
0110
0000
1001
,
0000
0100
0001
0010
0000
0110
1001
0000
,
0000
1000
0010
0001
0000
0110
0000
1100
,
0000
0001
0010
1000
0000
0011
0000
0201
,
0001
0300
0000
0000
0000
0000
0000
0000
0000
0000
1000
0000
0000
0000
1000
0000
,
0000
0010
0000
0100
0000
1000
0000
1000
,
0000
0010
0100
0000
0000
0001
0000
0001
,
0000
1000
0000
0100
0000
0010
0000
0001
,
0000
0100
0010
0000
0000
0100
0000
0100
,
0000
1000
0000
0010
0000
0001
0000
0100
,
0000
0010
0001
0000
0000
1000
0000
1000
,
0000
0001
0000
0100
0010
0100
0001
0010
,
0100
1000
0001
0100
0010
0000
0200
0000
,
0300
0000
0001
0000
0010
0200
0000
2300
,
0000
3001
0100
0010
0100
0000
0002
0000
,
0003
0000
0010
0000
0100
2000
0000
3002
,
0000
0103
0010
0100
0001
0000
0020
0000
,
0030
0000
0100
0000
1000
0002
0000
0203
,
0000
0310
0100
0001
0010
0000
0200
0000
,
0300
1000
0001
0100
0220
0000
0330
0000
,
1000
0100
0010
0001
1000
0100
0010
0001
1000
0000
0000
0000
0100
0000
0000
0000
,
1000
0100
1000
0100
1000
0100
1000
0100
1000
0000
0001
0000
0100
0000
0010
0000
,
1000
0010
0100
0001
0010
1000
0010
0001
,
0010
0000
0100
0000
1000
0000
0010
0000
1000
0001
1000
0001
1000
0001
1000
0001
,
1000
0000
0100
0000
0100
0000
0000
0000
0010
0001
0010
0001
0010
0001
0010
0001
,
0010
0100
0010
0001
0100
1000
0100
0001
,
0010
0000
0100
0000
1000
0000
0100
0000
0010
0100
0010
0100
0010
0100
0010
0100
,
0010
0000
0001
0000
0100
0000
0010
0000
1000
0010
1000
0010
1000
0000
0001
0000
,
0100
0001
0100
0001
0100
0000
0010
0000
2000
0000
0000
0000
3001
0100
0001
0100
,
0001
0000
1000
0000
0100
1000
0100
1000
0100
0000
0010
0000
0001
0010
0001
0010
,
0001
0000
1000
0000
0010
1000
0010
1000
0010
0000
1000
0000
0001
1000
0001
1000
,
0001
0000
0100
0000
0001
0100
0010
1000
0002
0000
0000
0000
0003
0000
0000
0000
,
0100
0010
0100
0010
0100
0010
0100
0010
0100
0000
0001
0000
0010
0000
1000
0000
,
0010
0100
1000
0001
1000
0100
0010
0100
,
1000
0000
0001
0000
0100
0000
0010
0000
1000
0010
1000
0010
1000
0010
1000
0010
,
1000
0000
0100
0000
0010
0000
0001
0000
0010
0100
0010
0100
0010
0100
0010
0100
,
0010
0000
0100
0000
1000
0000
0001
0000
0010
0100
0010
0100
0010
0100
0010
0100
,
0010
0000
0100
0000
1000
0000
0001
0000
0010
0100
0010
0100
0010
0100
0010
0100
,
0010
0100
1000
0001
2002
0000
0000
0000
,
0000
0000
0000
0000
,
0000
0000
0000
0000
,
0000
0000
0000
3003
;
