#TITLE:.59;
#SUBTITLE:;
#ARTIST:dj TAKA;
#TITLETRANSLIT:;
#SUBTITLETRANSLIT:;
#ARTISTTRANSLIT:;
#CREDIT:;
#BANNER:.59.png;
#BACKGROUND:.59-bg.png;
#LYRICSPATH:;
#CDTITLE:Dance Dance Revolution 4th Mix.png;
#MUSIC:.59.ogg;
#OFFSET:0.000;
#SAMPLESTART:74.670;
#SAMPLELENGTH:15.000;
#SELECTABLE:YES;
#DISPLAYBPM:110.000:135.000;
#BPMS:0.000=135.169,12.000=134.994,227.000=126.761,229.000=121.622,230.000=110.092;
#STOPS:;
#BGCHANGES:;

//---------------dance-single - ----------------
#NOTES:
     dance-single:
     :
     Beginner:
     1:
     0.121,0.159,0.009,0.000,0.000:
0000
0000
0000
0000
,
0000
0000
0000
0000
,
0000
0000
0000
0000
,
0000
0000
0000
0000
,
0000
0000
0000
0000
,
0000
0000
0000
0000
,
0000
0000
0000
0000
,
1000
0000
0000
0000
,
0001
0000
0000
0000
,
0010
0000
1000
0000
,
0100
0000
1000
0000
,
0010
0000
0010
0000
,
0001
0000
0001
0000
,
0001
0000
0100
0000
,
0001
0000
0010
0000
,
1000
0000
1000
0000
,
0100
0000
0100
0000
,
0001
0000
1000
0000
,
0010
0000
1000
0000
,
0100
0000
0100
0000
,
0010
0000
0010
0000
,
0001
0000
1000
0000
,
0100
0000
1000
0000
,
0100
0000
0100
0000
,
0001
0000
1000
0000
,
0001
0000
0000
0000
,
1000
0000
0000
0000
,
0000
0000
0000
0000
,
0001
0000
0000
0000
,
0100
0100
0100
0100
,
0100
0000
0000
0000
,
0000
0000
0000
0000
,
0001
0000
0000
0000
,
1000
1000
1000
1000
,
1000
0000
0001
0000
,
0010
0000
1000
0000
,
0100
0000
0100
0000
,
0010
0000
0010
0000
,
0001
0000
0001
0000
,
1000
0000
0100
0000
,
1000
0000
0001
0000
,
1000
1000
1000
0000
,
0010
0000
1000
0000
,
0100
0000
0001
0000
,
0010
0000
0010
0000
,
0100
0000
0100
0000
,
0000
0110
0000
0100
,
0000
0100
0000
0100
,
0100
0000
0010
0000
,
1000
0000
0001
0000
,
0010
0000
1000
0000
,
0001
0000
0100
0000
,
0010
0000
0000
0000
,
0010
0000
0000
0000
,
1000
0000
0000
0000
,
0001
0000
0000
0000
,
0100
0000
0000
0000
,
0010
0000
0000
0000
;

//---------------dance-single - ----------------
#NOTES:
     dance-single:
     :
     Easy:
     4:
     0.213,0.241,0.037,0.000,0.000:
0000
0000
0000
0000
,
0000
0000
0000
0000
,
0000
0000
0000
0000
,
0000
0000
0000
0000
,
0000
0000
0000
0000
,
0100
0000
0000
0000
,
0001
0000
0000
0000
,
1000
0000
0000
0000
,
0010
0100
0001
1000
,
0010
0100
1000
0100
,
0010
0100
1000
0100
,
0010
0000
0010
0000
,
0001
0000
0001
1000
,
0001
0100
1000
0100
,
0001
0100
1000
0100
,
0010
1000
0001
0010
,
0001
1000
0010
0100
,
0001
0010
0001
0100
,
0001
0010
0001
0100
,
0010
1000
0010
0100
,
0010
1000
0010
0100
,
0001
0100
1000
0010
,
0100
0001
1000
0010
,
0100
0100
0010
0100
,
0001
0001
1000
0001
,
0100
0000
0000
1001
,
1000
0000
0000
0000
,
0000
0000
0000
0000
0000
0000
0000
0001
,
1000
0000
0000
0000
,
0010
1000
0001
0100
,
0001
0000
0000
0000
,
0000
0000
0000
0000
0000
0000
0000
1000
,
0001
0000
0000
0000
,
0100
0100
0010
0100
,
1001
0000
0001
0100
,
0010
0000
1000
0001
,
0100
0000
0100
0000
,
0010
0000
0000
1001
,
0100
0000
0000
0000
,
0001
0000
0100
0010
,
1000
0000
0000
0000
,
1000
0001
1000
0001
1000
0000
0100
0000
,
0010
0100
0001
0100
,
0010
0100
0001
0100
,
0010
0000
0010
0000
,
1000
0000
0001
1000
,
0000
0110
0000
0100
,
0001
0100
1000
0100
,
0010
1000
0001
0010
,
0001
0001
0001
0001
,
1000
0010
1000
0100
,
1000
0010
0100
0001
,
1000
0000
0000
0000
,
0010
0000
0100
0010
,
1000
0000
1000
1000
,
0001
0000
0001
0001
,
0100
0100
0001
1000
,
0010
0000
0100
0001
;

//---------------dance-single - ----------------
#NOTES:
     dance-single:
     :
     Medium:
     6:
     0.341,0.400,0.213,0.000,0.000:
0000
0000
0000
0000
,
0000
0000
0000
0000
,
0000
0000
0000
0000
,
0000
0000
0000
0000
,
0001
0000
0000
1000
0000
0000
0000
0000
,
0010
0000
0000
0100
0000
0000
0000
0000
,
0001
0000
0000
0100
0000
0000
0000
0000
,
0010
0000
1000
0000
,
0100
0010
1000
0001
,
1000
0000
1001
0000
0100
0010
1000
0001
,
0100
0100
0010
1000
,
0001
0101
1000
1100
,
0010
0100
0001
1000
0010
0000
0010
0000
,
0100
0000
0110
0000
1000
0010
0100
0001
,
1000
1000
0010
0100
,
0010
0011
0010
1010
,
0100
0001
1000
0010
0100
0000
0100
0000
,
0001
1000
0010
0000
0010
0000
1001
0000
,
0100
0010
1000
0000
1000
0000
0001
0000
,
0100
0101
0100
1100
,
0010
0100
0010
0100
0001
1000
0001
1000
,
0010
0000
1010
0000
0100
0000
0001
1000
,
0100
0000
0100
1001
,
0100
0010
0100
0000
0001
1000
0001
0000
,
0010
0001
0010
0000
0100
1000
0100
1000
,
0001
0000
0000
0000
0100
0100
0100
0000
,
0010
0000
0010
1000
,
0001
0000
0000
0000
0001
0000
0000
1000
,
0010
0000
0000
0000
,
0100
0000
0010
0000
1000
0010
0100
0001
,
1000
0000
0000
1000
,
0010
0000
0000
0000
0100
0000
0000
0001
,
1000
0000
0010
0000
,
1000
0000
0010
0000
1000
0010
0100
0001
,
1000
0000
0100
0000
0001
0000
0100
0100
,
0010
0000
0100
0000
0001
0000
1000
1000
,
0010
0000
0100
0101
,
1000
0000
1100
0000
0001
0100
0001
0100
,
0010
0000
0100
0000
0010
1000
0001
0000
,
1000
0000
0001
0000
0100
0010
1000
0000
,
0001
0100
1000
0100
,
0001
0100
0001
0100
0001
0000
0000
0000
,
0001
0000
0101
0000
0010
0100
0001
1000
,
0010
1010
0001
0100
,
1000
1010
0001
0011
,
0100
0010
1000
0001
0100
0000
0100
0000
,
0000
0000
1001
0000
0001
0100
0010
1000
,
0001
1001
0100
0110
,
0100
0001
0100
1000
,
0010
1000
0001
0100
0010
0000
0000
0000
,
1001
0100
0001
1000
,
0010
0100
0001
0000
0001
1000
0100
0000
,
0010
1010
0010
0011
,
0100
0010
0100
0010
1000
0001
1000
0001
,
0100
0000
0100
0001
,
1000
0000
0001
0010
,
0100
0000
0100
1000
,
0001
0000
0001
0000
;

//---------------dance-single - ----------------
#NOTES:
     dance-single:
     :
     Hard:
     7:
     0.386,0.483,0.148,0.000,0.093:
0000
0000
0000
0000
,
0000
0000
0000
0000
,
0000
0000
0000
0000
,
0000
0000
0000
0000
,
0000
0000
0000
0000
,
1000
0000
0000
0010
0000
0000
0000
0000
,
0100
0000
0000
0001
0000
0000
0000
0000
,
1000
0000
0000
0000
0010
0100
0001
1000
,
0010
1000
0001
0100
,
0010
1000
0000
0000
0001
0000
0000
0001
0100
0000
0100
0000
0001
0000
0001
0000
,
1000
1000
0010
0010
0100
0100
0001
0001
,
1000
0000
1000
0000
,
0010
0000
0100
0001
,
1000
0010
0000
0000
0100
0000
0000
0100
0001
0000
0001
0000
1000
0000
1000
0000
,
0010
0010
1000
1000
0001
0001
0100
0100
,
0010
0000
0010
0100
,
0001
0000
1000
0000
0001
1000
0001
1000
,
0010
0100
0000
0000
0001
1000
0000
0001
0000
0000
0000
0000
0110
0000
0000
0000
,
1000
0001
0000
0000
0101
0000
0100
0000
0010
0000
1000
0000
0001
0000
0100
0000
,
0001
0010
0100
1000
0001
0010
0100
1000
,
0001
0100
0010
1000
0001
0100
0010
1000
,
0001
0101
1000
1100
,
0010
0011
0010
1010
,
0100
0010
1000
0001
0100
0010
1000
0001
,
0010
0100
1000
0001
0010
0100
1000
0001
,
0100
0000
0000
0000
0001
1000
0001
1000
,
1001
0000
0000
0100
,
0010
0000
0000
0000
0000
0000
1000
0001
,
0100
0000
0100
0000
,
0010
1000
0001
0100
0010
1000
0001
0100
,
0010
0000
0000
0100
,
0010
0000
0000
0000
0000
0000
1000
0001
,
0100
0000
0010
0000
,
1000
0000
0001
0000
1000
0000
0001
0000
0100
0010
0100
0010
0100
0010
0100
0010
,
0000
0000
1000
1001
,
0100
0101
0100
1100
,
0010
0011
0100
1100
,
0010
0001
1000
0100
,
0001
0000
0001
0100
,
0010
0000
0010
1000
,
0001
0100
0010
1000
,
1000
0000
0001
0000
1000
0000
0001
0000
0100
0010
0100
0010
1000
0000
0000
0000
,
0010
1000
0000
0000
0001
0000
0000
0001
0100
0000
0010
0000
1000
0000
0001
0000
,
0100
0010
1000
0001
0100
0010
1000
0001
,
0100
0000
0100
0000
,
0010
0000
0100
0001
,
1000
0010
0000
0000
0100
0000
0000
0000
0000
0000
0000
0000
0001
0000
0001
0000
,
0010
0010
0001
0001
1000
1000
0100
0100
,
0010
0000
0010
0001
,
1000
0000
0001
0000
1000
0001
1000
0001
,
0100
0010
0000
0000
1000
0000
0000
1000
0001
0000
0000
0001
0100
0000
0000
0000
,
0100
0001
0010
0100
1000
0001
1000
0001
,
1000
0100
0010
0001
1000
0100
0010
0001
,
1000
0010
0100
0001
1000
0010
0100
0001
,
0000
1010
0000
1100
,
0000
0011
0000
0101
,
0010
1000
0001
0100
,
0010
1000
0001
0100
0010
1000
0010
1000
;

//---------------dance-double - ----------------
#NOTES:
     dance-double:
     :
     Easy:
     4:
     0.239,0.268,0.065,0.000,0.000: // measure 1
00000000
00000000
00000000
00000000
,  // measure 2
00000000
00000000
00000000
00000000
,  // measure 3
00000000
00000000
00000000
00000000
,  // measure 4
00000000
00000000
00000000
00000000
,  // measure 5
00000000
00000000
00000000
00000000
,  // measure 6
00010000
00000000
00000000
00000000
,  // measure 7
00000001
00000000
00000000
00000000
,  // measure 8
10000000
00000000
10000000
00000000
,  // measure 9
10000000
00100000
01000000
00001000
,  // measure 10
00010000
00000010
00001000
00000010
,  // measure 11
00001000
00001000
00000001
00000001
,  // measure 12
00000010
00000100
00010000
00001000
,  // measure 13
01000000
00100000
10000000
10000000
,  // measure 14
00100000
10000000
00010000
01000000
,  // measure 15
00001000
00001000
00010000
00010000
,  // measure 16
00000010
00001000
00000100
00010000
,  // measure 17
00001000
00100000
01000000
10000000
,  // measure 18
00100000
10010000
01000000
01000000
,  // measure 19
00010000
01100000
00001000
00010000
,  // measure 20
00000010
00000000
00000010
00000000
,  // measure 21
00001000
00000010
00000100
00000001
,  // measure 22
00000010
00000010
00001001
00000100
,  // measure 23
00010000
01000000
10000000
10010000
,  // measure 24
01000000
00000000
01000000
00010000
,  // measure 25
10000000
00100000
01000000
00010000
,  // measure 26
10010000
00000000
00000000
00000000
,  // measure 27
00001000
00000000
00000000
00000000
,  // measure 28
00000000
00000000
00000000
00000000
00000000
00000000
00000000
10000000
,  // measure 29
01000000
00000000
00000000
00000000
,  // measure 30
00001000
00100000
00010000
00000010
,  // measure 31
00000100
00000000
00000000
00000000
,  // measure 32
00000000
00000000
00000000
00000000
00000000
00000000
00000000
00000001
,  // measure 33
00000100
00000000
00000000
00000000
,  // measure 34
00000100
00010000
00001000
00100000
,  // measure 35
01000000
10000000
00100000
01000000
,  // measure 36
00001000
00010000
00000010
00000100
,  // measure 37
00000001
00001000
00000010
00010000
,  // measure 38
00001000
01000000
00100000
10000000
,  // measure 39
10000000
00100000
01000000
00001000
,  // measure 40
00001000
00010000
00000010
00000100
,  // measure 41
00000001
00000001
00001000
00000010
,  // measure 42
00010000
00010000
00001000
00011000
,  // measure 43
00001000
00100000
00010000
00100000
,  // measure 44
00010000
00010000
10000000
10000000
,  // measure 45
00100000
01000000
00001000
00010000
,  // measure 46
00000100
00000010
00000001
00000001
,  // measure 47
00000000
00001001
00000100
00000100
,  // measure 48
00010000
00010000
00001000
00001000
,  // measure 49
00100000
00010000
01000000
00001000
,  // measure 50
00010000
00000010
00000100
00000001
,  // measure 51
00000001
00001000
00000100
00000100
,  // measure 52
00001000
00000010
00010000
00001000
,  // measure 53
00100000
00000000
00100000
00000000
,  // measure 54
00010000
00100000
01000000
10000000
,  // measure 55
00100000
00000000
00100000
00000000
,  // measure 56
01000000
00000000
00001000
00010000
,  // measure 57
00000100
00000000
00000100
00000010
,  // measure 58
00000001
00000010
00000100
00001000
;

//---------------dance-double - ----------------
#NOTES:
     dance-double:
     :
     Medium:
     6:
     0.327,0.429,0.195,0.000,0.000: // measure 1
00000000
00000000
00000000
00000000
,  // measure 2
00000000
00000000
00000000
00000000
,  // measure 3
00000000
00000000
00000000
00000000
,  // measure 4
00000000
00000000
00000000
00000000
,  // measure 5
00000000
00000000
00000000
00000000
,  // measure 6
10000000
00000000
00000000
00000000
,  // measure 7
00000001
00000000
00000000
00000000
,  // measure 8
00010000
00000000
00000000
00001000
00010000
00000000
00001000
00000000
,  // measure 9
01000000
00100000
10000000
00010000
,  // measure 10
01000000
00011000
00000010
00011000
,  // measure 11
01000000
01001000
00010000
00010010
,  // measure 12
00000100
00000000
00000010
00000000
00010000
00001000
00010000
00001000
,  // measure 13
01000000
00100000
01000000
00100000
10000000
00000000
10000000
00000000
,  // measure 14
00100000
00011000
00000100
00011000
,  // measure 15
00100000
00101000
00010000
00010100
,  // measure 16
00000010
00000000
00000100
00000000
00000001
00001000
00000001
00001000
,  // measure 17
00000010
00010000
00000010
00010000
00001000
00000000
00011000
00000000
,  // measure 18
10000000
00010000
00001000
00000001
,  // measure 19
00000001
00001000
00010000
10000000
,  // measure 20
00100000
01000000
00100000
01000000
00100000
01000000
00100000
01000000
,  // measure 21
00001000
01000000
00001000
01000000
00001000
01000000
00001000
00000000
,  // measure 22
01000000
00011000
00000010
00011000
,  // measure 23
01000000
01001000
00010000
00010010
,  // measure 24
00000100
00000000
00000010
00000000
00010000
00001000
00010000
00001000
,  // measure 25
01000000
00100000
01000000
00100000
10000000
00000000
10000000
00000000
,  // measure 26
00010000
00000000
00000000
00100000
00001000
00000000
00010010
00000000
,  // measure 27
00000100
00000000
00000000
00000010
,  // measure 28
00000100
00000000
00000000
00000000
00000000
00000000
00000000
00010000
,  // measure 29
10000000
00000000
00000000
00000000
,  // measure 30
00010000
00000000
00000100
00000000
00001000
00000001
00001000
00000001
,  // measure 31
00000010
00000000
00000000
00010000
,  // measure 32
00001000
00000000
00000000
00000000
00000000
00000000
00000000
00100000
,  // measure 33
01000000
00000000
10000000
00000000
,  // measure 34
10000000
00000000
00100000
00000000
01000000
00010000
01000000
00001000
,  // measure 35
00010000
00000000
00000000
00000001
,  // measure 36
00000100
00000000
00000000
00100000
,  // measure 37
10000000
00100000
01000000
00010000
,  // measure 38
10000000
00000000
10000000
00000000
10000000
00010000
10000000
00010000
,  // measure 39
01000000
00000000
00001000
00000100
,  // measure 40
00000001
00000000
00000000
00000000
00000000
00000000
00010000
00001000
,  // measure 41
01000000
00100000
10000000
00010000
,  // measure 42
01000000
00001000
01000000
00001000
01000000
00000000
10010000
00000000
,  // measure 43
01000000
00011000
00000010
00011000
,  // measure 44
01000000
01001000
00010000
00010010
,  // measure 45
00000100
00000000
00000010
00000000
00010000
00001000
00010000
00001000
,  // measure 46
01000000
00100000
01000000
00100000
10000000
00000000
10000000
00000000
,  // measure 47
00000000
01001000
00000000
00010000
,  // measure 48
00100000
00001000
00000100
00000001
,  // measure 49
00000010
00000100
00001000
00001000
,  // measure 50
00000010
00000000
00010000
00000000
00001000
00010000
00001000
00010000
,  // measure 51
00000001
00001000
00010000
10000000
,  // measure 52
10000000
00010000
00001000
00000001
,  // measure 53
00000010
00000100
00000010
00000100
00000010
00000100
00000010
00000100
,  // measure 54
00010000
00000100
00010000
00000100
00010000
00000100
00010000
00000000
,  // measure 55
00001000
00101000
00000000
01000000
,  // measure 56
00010000
00010000
10000000
00100000
,  // measure 57
01000000
00001000
00100000
00001000
,  // measure 58
00000100
00000010
00000100
00000010
00001000
00000000
00001000
00000000
;

//---------------dance-double - ----------------
#NOTES:
     dance-double:
     :
     Hard:
     7:
     0.406,0.455,0.232,0.000,0.028: // measure 1
00000000
00000000
00000000
00000000
,  // measure 2
00000000
00000000
00000000
00000000
,  // measure 3
00000000
00000000
00000000
00000000
,  // measure 4
00000000
00000000
00000000
00000000
,  // measure 5
00000000
00000000
00000000
00000000
,  // measure 6
10000000
00000000
00000000
00010000
00000000
00000000
00000000
00000000
,  // measure 7
00001000
00000000
00000000
00000001
00000000
00000000
00000000
00000000
,  // measure 8
00000100
00000000
00000100
00000010
00001000
00000001
00000100
00000010
,  // measure 9
00010000
00010010
00001000
01001000
,  // measure 10
00100000
10100000
01000000
01010000
,  // measure 11
00001000
00101000
00010000
00010100
,  // measure 12
00000010
00000001
00000100
00000010
00001000
00000100
00010000
00001000
,  // measure 13
00100000
00010000
01000000
00100000
10000000
01000000
10000000
00010000
,  // measure 14
01000000
01010000
00100000
00101000
,  // measure 15
00010000
00010100
00001000
00001010
,  // measure 16
00000100
00000001
00001000
00000010
00010000
00000100
00100000
00001000
,  // measure 17
01000000
00010000
10000000
00100000
01000000
00010000
10000000
00100000
,  // measure 18
00000000
00000000
10010000
00000000
01000000
00001000
00010000
00000010
,  // measure 19
00001000
00000000
00001000
00000001
00000100
00000010
00001000
00000001
,  // measure 20
00000100
00000010
00000100
00000010
00010000
00000100
00010000
00000100
,  // measure 21
00100000
00001000
00100000
00001000
01000000
00010000
01000000
00010000
,  // measure 22
00100000
10100000
01000000
01010000
,  // measure 23
00001000
00101000
00010000
00010100
,  // measure 24
00000010
00000001
00000100
00000010
00001000
00000100
00010000
00001000
,  // measure 25
00100000
00010000
01000000
00100000
10000000
01000000
10000000
00010000
,  // measure 26
10000000
00010000
01000000
00100000
10000000
00010000
01000000
00100000
,  // measure 27
10000000
00000000
00000000
00000000
,  // measure 28
00000001
00000000
00001000
00000000
00000100
00000000
00000000
00010000
,  // measure 29
00001000
00000000
01000000
00000000
,  // measure 30
00010000
01000000
00100000
10000000
00010000
01000000
00100000
10000000
,  // measure 31
00010000
00000000
00000000
00000000
,  // measure 32
00000001
00000000
00001000
00000000
00000010
00000000
00000000
00010000
,  // measure 33
00001000
00000000
01000000
00000000
,  // measure 34
00100000
00000000
10000000
00000000
00010000
00000000
01000000
00000000
00010000
10000000
00010000
10000000
00010000
10000000
00010000
10000000
,  // measure 35
00000000
00000000
00010000
00010010
,  // measure 36
00000100
00000000
00000001
00000000
00001000
00000000
00000100
00000100
,  // measure 37
00010000
00000000
00100000
01000000
,  // measure 38
10000000
00000000
10000000
00000000
10000000
00010000
10000000
00010000
,  // measure 39
01000000
00000000
00000000
00000000
00001000
00000000
00010000
00000010
,  // measure 40
00000100
00000000
00000001
00000000
00001000
00000100
00010000
00001000
,  // measure 41
01000000
01000000
01000000
01000000
,  // measure 42
00010000
00000000
10000000
00000000
00010000
00000000
10000000
00000000
00010000
10000000
00010000
10000000
00010000
00000000
00000000
00000000
,  // measure 43
00100000
10100000
01000000
01010000
,  // measure 44
00001000
00101000
00010000
00010100
,  // measure 45
00000010
00000001
00000100
00000010
00001000
00000100
00010000
00001000
,  // measure 46
00100000
00010000
01000000
00100000
10000000
01000000
10000000
00010000
,  // measure 47
01000000
10010000
00000000
00110000
,  // measure 48
00001000
00010100
00001000
00001010
,  // measure 49
00000100
00000001
00001000
00000010
00010000
00000100
00100000
00001000
,  // measure 50
01000000
00010000
10000000
00100000
01000000
00010000
10000000
00100000
,  // measure 51
00000000
00000000
10010000
00000000
01000000
00001000
00010000
00000010
,  // measure 52
00001000
00000000
00001000
00000001
00000100
00000010
00001000
00000001
,  // measure 53
00000100
00000010
00000100
00000010
00010000
00000100
00010000
00000100
,  // measure 54
00100000
00001000
00100000
00001000
01000000
00010000
01000000
00010000
,  // measure 55
00100000
00000000
00100000
00000000
,  // measure 56
00001000
00000000
00001000
00000000
,  // measure 57
00000100
00000000
00000100
00000000
,  // measure 58
00001000
00000010
00000100
00000001
;

//---------------dance-couple - ----------------
#NOTES:
     dance-couple:
     :
     Challenge:
     4:
     0.384,0.854,0.575,0.000,0.074:
00000000
00000000
00000000
00000000
,
00000000
00000000
00000000
00000000
,
00000000
00000000
00000000
00000000
,
00000000
00000000
00000000
00000000
,
00000000
00000000
00000000
00000000
,
00000001
00000000
00000000
00001000
00000000
00000000
00000000
00000000
,
10000000
00000000
00000000
00010000
00000000
00000000
00000000
00000000
,
00100000
00000000
00000010
00000000
,
01000100
00100010
10001000
00010001
,
10000000
00000000
10010000
00000000
01000000
00100000
10000000
00010000
,
01000000
01000000
00100000
10000000
,
00000010
00000000
00000010
00000000
,
00000001
00000000
00000001
00001000
,
00001000
00000000
00001001
00000000
00000100
00000010
00001000
00000001
,
00000100
00000100
00000010
00001000
,
00100000
00000000
00100000
00000000
,
00010000
00000000
00010000
10000000
,
00000001
00000100
00000001
00001000
,
00010000
01000000
00010000
10000000
,
00010001
00100010
01000100
10001000
00010001
00100010
01000100
10001000
,
00010001
01000100
00100010
10001000
00010001
01000100
00100010
10001000
,
00000001
00000100
00001000
00000010
,
00000100
00000001
00001000
00000010
,
00010000
01000000
10000000
00100000
,
01000000
00010000
10000000
00100000
,
01000100
00000000
00000000
10011001
,
01000100
00000000
00100000
01000000
,
00100000
00000000
00000000
00000000
00000000
00000000
10000000
00010000
,
01000001
00000000
01000000
00000000
,
00100000
10000000
00010000
01000000
00100000
10000000
00010000
01000000
,
00100100
00000000
00000010
00000100
,
00000010
00000000
00000000
00000000
00000000
00000000
00001000
00000001
,
10000100
00000000
00000100
00000000
,
00000010
00001000
00000001
00000100
00000010
00001000
00000001
00000100
,
00000010
00000000
00000000
00000000
00010000
00000000
01000000
01000000
,
00100001
00000000
01000000
00000000
00010000
00000000
10000000
10000000
,
00100001
00000000
01000000
01010000
,
10000001
00000000
11000000
00000000
00010000
01000000
00010000
01000000
,
00010000
00000000
00000000
00000000
00000001
00000000
00000100
00000100
,
10000010
00000000
00000100
00000000
00000001
00000000
00001000
00001000
,
10000010
00000000
00000100
00000101
,
10001000
00000000
00001100
00000000
00000001
00000100
00000001
00000100
,
00100000
10000000
00000000
00000000
00010000
00000000
00000000
00010000
01000000
00000000
00000000
01000000
00010000
00000000
00000000
00010000
,
10000000
00000000
00000000
10000000
00100000
00000000
00000000
00100000
01000000
00000000
00000000
01000000
00010000
00000000
00000000
00010000
,
00000001
00000000
00000001
00000000
,
00000010
00000000
00000100
00001000
,
00000010
00001000
00000000
00000000
00000001
00000000
00000000
00000001
00000100
00000000
00000000
00000100
00000001
00000000
00000000
00000001
,
00001000
00000000
00000000
00001000
00000010
00000000
00000000
00000010
00000100
00000000
00000000
00000100
00000001
00000000
00000000
00000001
,
10000000
00000000
10000000
00000000
,
00100000
00000000
01000000
00010000
,
00001001
00000100
00000001
00001000
,
10010000
00100000
10000000
00010000
,
10001000
01000100
00100010
00010001
10001000
01000100
00100010
00010001
,
10001000
00100010
01000100
00010001
10001000
00100010
01000100
00010001
,
00000000
00000011
00000000
00000101
,
00000000
10100000
00000000
11000000
,
00000010
00001000
00010000
01000000
,
00010001
00000000
00010001
00000000
;

//---------------dance-solo - ----------------
#NOTES:
     dance-solo:
     :
     Easy:
     4:
     0.237,0.268,0.056,0.000,0.000:
000000
000000
000000
000000
,
000000
000000
000000
000000
,
000000
000000
000000
000000
,
000000
000000
000000
000000
,
000000
000000
000000
000000
,
000010
000000
000000
000000
,
000010
000000
000000
000000
,
001000
000000
001000
000000
,
001000
000010
100000
000100
,
001000
000001
010000
001000
,
100000
100000
000001
000001
,
001000
000010
001000
010000
,
000100
100000
000001
000001
,
001000
000100
100000
010000
,
100000
100000
000010
000010
,
001000
000100
100000
000100
,
010000
000001
100000
000100
,
001000
100001
001000
001000
,
000010
001000
000001
100000
,
000100
000000
000100
000000
,
100000
000100
001000
000001
,
010000
010000
100001
001000
,
100000
000010
001000
001100
,
000001
000000
000001
100000
,
000100
001000
000010
100000
,
100001
000000
000000
000000
,
001000
000000
000000
000000
,
000000
000000
000000
000000
000000
000000
000000
000010
,
001000
000000
000000
000000
,
100000
000100
001000
000010
,
000010
000000
000000
000000
,
000000
000000
000000
000000
000000
000000
000000
010000
,
001000
000000
000000
000000
,
100000
000100
001000
000001
,
010000
100000
000010
000001
,
001000
000100
100000
000001
,
001000
000100
100000
000010
,
001000
000100
010000
000001
,
000001
000100
001000
100000
,
100000
000100
001000
000001
,
010000
010000
000100
001000
,
000001
000001
100000
100001
,
001000
000100
001000
000010
,
010000
010000
000001
000001
,
001000
000100
100000
000010
,
001000
000100
100000
100000
,
000000
100001
000100
000100
,
001000
001000
000010
000010
,
100000
000100
001000
000001
,
010000
000100
001000
000010
,
100000
000001
001000
001000
,
000100
100000
000001
001000
,
000010
000000
000010
000000
,
100000
000100
001000
000001
,
010000
000000
010000
000000
,
000100
000000
100000
000001
,
001000
000000
001000
000100
,
100000
000010
001000
000001
;

//---------------dance-solo - ----------------
#NOTES:
     dance-solo:
     :
     Medium:
     6:
     0.327,0.429,0.195,0.000,0.000:
000000
000000
000000
000000
,
000000
000000
000000
000000
,
000000
000000
000000
000000
,
000000
000000
000000
000000
,
000000
000000
000000
000000
,
100000
000000
000000
000000
,
000010
000000
000000
000000
,
001000
000000
000000
000100
001000
000000
000100
000000
,
100000
000010
001000
000001
,
010000
001100
000010
001100
,
100000
100010
000001
010001
,
001000
000000
000100
000000
100000
010000
100000
010000
,
001000
000100
001000
000100
100000
000000
100000
000000
,
000010
001100
000001
001010
,
100000
101000
000100
100100
,
000001
000000
001000
000000
000100
100000
000100
100000
,
000010
001000
000010
001000
000001
000000
100001
000000
,
000100
010000
000001
000010
,
000001
100000
000100
001000
,
000001
010000
000001
010000
000001
010000
000001
010000
,
000010
100000
000010
100000
000010
100000
000010
000000
,
001000
001010
000001
001001
,
100000
100100
000100
010100
,
000001
000000
001000
000000
000010
001000
000010
001000
,
000001
010000
000001
010000
000100
000000
000100
000000
,
100000
000000
000000
000001
001000
000000
100100
000000
,
000001
000000
000000
001000
,
000100
000000
000000
000000
000000
000000
000000
100000
,
000001
000000
000000
000000
,
001000
000000
000100
000000
100000
000010
100000
000010
,
001000
000000
000000
000001
,
100000
000000
000000
000000
000000
000000
000000
000010
,
001000
000000
000001
000000
,
000001
000000
100000
000000
000100
001000
000100
010000
,
000010
000000
000000
100000
,
001000
000000
000000
000001
,
100000
000100
001000
000001
,
010000
000000
010000
000000
010000
001000
010000
001000
,
100000
000000
000001
001000
,
000100
000000
000000
000000
000000
000000
100000
000001
,
001000
000100
100000
000001
,
001000
000010
001000
000010
001000
000000
100001
000000
,
000100
100001
001000
100001
,
000010
001010
010000
011000
,
100000
000000
000100
000000
001000
000010
001000
000010
,
100000
000100
100000
000100
001000
000000
001000
000000
,
000000
001010
000000
100000
,
000100
001000
000001
010000
,
000100
100000
000001
000001
,
001000
000000
000010
000000
100000
010000
100000
010000
,
100000
000001
001000
000100
,
000100
100000
000001
001000
,
000010
001000
000010
001000
000010
001000
000010
001000
,
010000
001000
010000
001000
010000
001000
010000
000000
,
000100
100100
000000
000001
,
001000
001000
000010
100000
,
000001
010000
000100
100000
,
000010
001000
000010
001000
000001
000000
000001
000000
;

//---------------dance-solo - ----------------
#NOTES:
     dance-solo:
     :
     Hard:
     7:
     0.403,0.455,0.223,0.000,0.028:
000000
000000
000000
000000
,
000000
000000
000000
000000
,
000000
000000
000000
000000
,
000000
000000
000000
000000
,
000000
000000
000000
000000
,
010000
000000
000000
001000
000000
000000
000000
000000
,
000010
000000
000000
001000
000000
000000
000000
000000
,
000001
000000
000001
010000
001000
100000
000100
001000
,
000001
001001
100000
100000
,
000010
100010
010000
010001
,
000100
000101
001000
101000
,
010000
000100
100000
000010
001000
000001
100000
000010
,
010000
000100
010000
000001
100000
000010
001000
000100
,
001000
001010
001000
011000
,
000001
010001
100000
100010
,
010000
000100
100000
000010
001000
000001
100000
000010
,
010000
000100
010000
000001
100000
000010
001000
000100
,
000000
000000
100001
000000
001000
000100
001000
000010
,
100000
000000
100000
000001
001000
000100
100000
000001
,
010000
000001
010000
000001
000100
001000
000100
001000
,
100000
000010
100000
000010
001000
000001
001000
000001
,
100000
100100
000001
001001
,
000010
001010
010000
011000
,
000010
000100
000001
010000
001000
100000
000001
010000
,
000010
000100
000010
100000
000001
010000
001000
000100
,
000001
100000
000100
001000
000010
100000
000010
010000
,
000001
000000
000000
000000
,
000010
000000
001000
000000
000001
000000
000000
100000
,
001000
000000
100000
000000
,
000100
001000
000001
010000
000100
001000
000001
010000
,
000010
000000
000000
000000
,
100000
000000
000100
000000
001000
000000
000000
000010
,
001000
000000
000001
000000
,
001000
000000
000001
000000
100000
000000
000100
000000
100000
000001
100000
000001
100000
000001
100000
000001
,
000000
000000
001000
001001
,
000100
000000
100000
000000
000001
000000
001000
001000
,
000010
000000
100000
000100
,
001000
000000
001000
000000
001000
000100
001000
000100
,
100000
000000
000000
000000
000010
000000
001000
000001
,
001000
000000
000100
000000
100000
000010
100000
000001
,
001000
001000
001000
001000
,
000010
000000
100000
000000
000010
000000
100000
000000
000010
100000
000010
100000
000010
000000
000000
000000
,
001000
001001
000100
100100
,
000010
100010
010000
010001
,
000010
000100
000001
010000
001000
100000
000001
010000
,
000010
000100
000010
100000
000001
010000
001000
000100
,
100000
100001
000000
001001
,
000010
001010
010000
011000
,
000010
001000
000001
010000
000100
100000
000001
010000
,
000010
001000
000010
100000
000001
010000
000100
001000
,
000000
000000
100001
000000
001000
000100
001000
000000
,
000010
000000
000010
100000
000001
001000
000100
100000
,
000001
001000
000001
001000
000100
100000
000100
100000
,
000010
001000
000010
001000
000001
010000
000001
010000
,
000100
000000
000100
000000
,
100000
000000
100000
000000
,
000001
000000
000001
000000
,
001000
000001
100000
000100
;

//---------------dance-single - Edit by silenttype01----------------
#NOTES:
     dance-single:
     Edit by silenttype01:
     Challenge:
     8:
     0.431,0.513,0.334,0.176,0.209:
0000
0000
0000
0000
,
0000
0000
0000
0000
,
0000
0000
0000
0000
,
0000
0000
0000
0000
,
0000
0000
0000
0000
,
1000
0000
0000
0100
0000
0000
0000
0000
,
0001
0000
0000
0000
0000
0000
0100
0000
0000
0000
0000
0000
0000
0000
0000
0001
,
2000
0000
0000
3000
,
0000
0000
0000
0000
0000
0000
0000
0001
,
0001
0101
1000
1100
,
0010
0011
0001
1001
,
1000
1010
0010
0110
,
0100
0000
0000
0000
0101
0000
0000
0000
1000
0000
0000
1000
0000
0000
1000
0000
,
1000
0110
0001
0110
,
1000
0101
0010
1100
,
0001
1010
0100
0011
,
1000
0000
0000
0000
0110
0000
0000
0000
1001
0000
0000
0010
0100
0001
1000
0000
,
0100
0000
0010
0000
0000
0000
0001
0000
0000
1000
0100
0000
0000
0000
0010
0000
,
0000
0000
0001
0000
0000
0000
0100
0000
0000
0000
0010
0000
0000
1000
0100
0000
,
0000
0000
0001
0000
0000
0000
0010
0000
0000
0000
1000
0000
0000
0001
0100
0000
,
0000
0000
0010
0000
0000
0000
1000
0000
0001
0000
0000
0001
0000
0000
0001
0000
,
0001
0000
0010
0000
0000
0000
1000
0000
0000
0010
0001
0000
0000
0000
0100
0000
,
0000
0000
1000
0000
0000
0000
0100
0000
0000
0000
0010
0000
0000
1000
0001
0000
,
0000
0000
0010
0000
0000
0000
0100
0000
0000
0000
0001
0000
0000
0100
1000
0000
,
0000
0000
0001
0000
0000
0000
0100
0000
0110
0000
0000
1000
0101
0000
0101
0000
,
0020
0000
0000
0000
0000
0000
0000
0000
1030
0000
0001
0100
0010
0000
1000
0000
,
0200
0000
0320
0000
,
0032
0000
0000
0000
0203
0000
0000
0010
,
0320
0000
1030
0000
,
1001
0000
0000
0000
0100
0000
0010
1000
0000
0000
0000
0000
0000
0000
1000
0100
,
2000
0000
3002
0000
,
0023
0000
0000
0000
0230
0000
0000
1000
,
2300
0000
3001
0000
,
0110
0000
0000
0000
0110
0000
0000
0000
0001
0010
0100
1000
0001
0000
0001
1000
,
0001
0000
0000
0000
0001
0000
0100
0010
0000
0000
0000
0000
0110
0000
0000
0000
,
1010
0000
0000
0000
0100
0000
0010
0001
0000
0000
0000
0000
0110
0000
0000
0000
,
0110
0000
0000
0000
0001
0000
0000
0000
1000
0000
0010
0100
0001
0000
0000
0000
,
1001
0000
1001
0000
1001
1001
0001
1000
,
1001
0000
0000
0000
1000
0000
0100
0001
0000
0000
0000
0000
0110
0000
0000
0000
,
1000
0000
0000
0000
0001
0000
0100
1000
0000
0000
0000
0000
0110
0000
0000
0000
,
0100
0001
1000
0100
,
0100
0000
0100
0000
0100
0000
0100
0000
0100
1000
0100
1000
0002
0000
0000
0000
,
1003
0100
0000
0000
1000
0000
0000
1000
0000
1000
0001
0000
0100
0000
0001
0000
,
1000
0000
0100
0000
1000
0000
0010
0100
0000
0100
0001
0000
0010
0000
0100
0000
,
1000
0010
0100
1000
0100
0010
1000
0001
,
1000
0010
0100
0001
1000
0010
1000
0010
,
0100
0001
0000
0000
1000
0000
0000
1000
0000
1000
0010
0000
0100
0000
0100
0000
,
0001
0000
0010
0000
0001
0000
1000
0010
0000
0010
1000
0000
0001
0000
0100
0000
,
0001
1100
1001
0010
0001
1100
1001
0010
,
0100
0000
0000
0000
0100
0000
0000
0000
0100
0000
0000
0001
1000
0000
1000
0000
,
0100
0010
0000
0000
0001
0000
0000
0001
0000
0001
1000
0000
0100
0000
0100
0000
,
0010
0000
0010
0000
0010
0000
0001
1000
0000
1000
0100
0000
0001
0000
0100
0000
,
0010
0001
0100
0010
1000
0100
0010
0001
,
0000
0000
0010
0001
1000
0100
1000
0100
0010
0001
0010
0000
0000
0000
0000
0000
,
0020
0000
0000
0000
,
0032
0000
0000
2003
,
0200
3000
0000
0000
,
0302
0000
0023
0000
,
0000
0030
0000
0000
;

//---------------dance-double - ----------------
#NOTES:
     dance-double:
     :
     Challenge:
     8:
     0.474,0.617,0.659,0.083,0.139: // measure 1
00000000
00000000
00000000
00000000
,  // measure 2
00000000
00000000
00000000
00000000
,  // measure 3
00000000
00000000
00000000
00000000
,  // measure 4
00000000
00000000
00000000
00000000
,  // measure 5
00000000
00000000
00000000
00000000
,  // measure 6
00000010
00000000
00000000
00000001
00000000
00000000
00000000
00000000
,  // measure 7
00001000
00000000
00000000
00000000
00000000
00000000
00000100
00000000
00000000
00000000
00000000
00000000
00000000
00000000
00000000
00100000
,  // measure 8
00020000
00000000
00000000
00000000
,  // measure 9
00030000
00000000
20000000
00000000
30200000
00000000
00320000
00001000
,  // measure 10
00031000
00011000
00000010
00000011
,  // measure 11
00000001
00000101
00000100
00001100
,  // measure 12
00001000
00010000
00100000
01000000
00010000
00100000
01000000
00010000
,  // measure 13
00001000
00000000
00000010
00000000
00000001
00000000
00000100
00000000
00001000
00000000
00000000
00000100
00000000
00000000
00001000
00000000
,  // measure 14
00001000
00011000
00010000
01010000
,  // measure 15
01000000
11000000
10000000
10100000
,  // measure 16
00100000
00010000
00001000
00000100
00000010
00001000
00000100
00000010
,  // measure 17
00001000
00000000
00010000
00000000
01000000
00000000
00100000
00000000
00010000
00000000
00000000
10000000
00000000
10000000
00000000
00000000
,  // measure 18
00010000
00000000
00100000
00000000
11000000
00000000
00000000
01000000
00010000
00000000
00000000
00000000
01010000
00000000
00000000
00010000
,  // measure 19
00001000
00000000
00000000
00000000
00011000
00000000
00000000
00001000
00000010
00000000
00000000
00000000
00001010
00000000
00000000
00001000
,  // measure 20
00000010
00000001
00000100
00001000
00010000
00100000
10000000
01000000
,  // measure 21
00000000
00000000
10000000
00000000
00100000
00000000
00010000
00000000
00001000
00000000
00000000
00000100
00000000
00000000
00000001
00000000
,  // measure 22
00000001
00000100
00001100
00000000
00000100
00000001
00000101
00000000
,  // measure 23
00000001
00000010
00000011
00000000
00000010
00001000
00001010
00000000
,  // measure 24
00001000
00010000
01000000
10000000
00100000
00010000
00001000
00000100
,  // measure 25
00000001
00000000
00000010
00000000
00001000
00000000
00000001
00000000
00000100
00000000
00000000
00001000
00000000
00000000
00000001
00000000
,  // measure 26
00001001
00000000
00000000
00000000
,  // measure 27
00002001
00000000
00000000
00000000
,  // measure 28
00000000
00000000
00000000
00000000
00000000
00000000
00000000
00010000
,  // measure 29
00023000
00000000
00000000
00030000
,  // measure 30
01100000
00000000
00000000
00000000
00010000
00000000
00001000
00010000
00000000
00000000
01010000
00000000
00000000
00000000
00100000
01000000
,  // measure 31
00200000
00000000
00000000
00000000
,  // measure 32
00000000
00000000
00000000
00000000
00000000
00000000
00000000
00010000
,  // measure 33
00320000
00000000
00000000
00030000
,  // measure 34
00000110
00000000
00000000
00000000
00001000
00000000
00000000
00000000
00010000
00000000
00010000
00001000
00010000
00000000
00100000
01000000
,  // measure 35
00100000
00000000
00000000
00000000
01000000
00000000
00100000
10000000
00000000
00000000
00000000
00000000
11000000
00000000
00000000
00000000
,  // measure 36
01010000
00000000
00000000
00000000
00010000
00000000
00001000
00010000
00000000
00000000
00000000
00000000
00001100
00000000
00000000
00000000
,  // measure 37
00000110
00000000
00000000
00000000
00000000
00000000
00000000
00000000
00000100
00000000
00000001
00000010
00000001
00000000
00000000
00000000
,  // measure 38
00000011
00000000
00001001
00000000
00000110
00000110
00000100
00000100
,  // measure 39
00000110
00000000
00000000
00000000
00000100
00000000
00001000
00010000
00000000
00000000
00000000
00000000
00011000
00000000
00000000
00000000
,  // measure 40
00011000
00000000
00000000
00000000
00010000
00000000
01000000
00100000
00000000
00000000
00000000
00000000
01100000
00000000
00000000
00000000
,  // measure 41
10010000
00011000
10010000
01100000
,  // measure 42
10010000
00000000
10000000
00000000
00010000
00000000
10000000
00000000
00010000
10000000
00010000
10000000
02000000
00000000
00000000
00000000
,  // measure 43
03100000
00010000
00000000
00000000
11000000
00000000
00000000
00000000
01000000
00000000
00010000
00000000
01010000
00000000
00000000
00000000
,  // measure 44
00011000
00000000
00000000
00000000
00001000
00000000
00000100
00000010
00000000
00000100
00000010
00000000
00001010
00000000
00000000
00000000
,  // measure 45
00001001
00000000
00000101
00000000
00000100
00000001
00000011
00000000
,  // measure 46
00000100
00000000
00001001
00001001
00000010
00000000
00001100
00001100
,  // measure 47
00010000
00000000
00011000
00000000
00001000
01000000
01010000
00000000
,  // measure 48
01100000
00000000
10100000
00000000
10000000
01000000
11000000
00000000
,  // measure 49
00100000
10010000
10010000
00100000
01000000
10010000
10010000
00100000
,  // measure 50
01100000
00000000
00000000
00000000
01010000
00000000
00000000
00000000
00011000
00000000
00000000
00010000
00001000
00000000
00010000
00000000
,  // measure 51
00011000
00000000
00001100
00000000
00000100
00000001
00000010
00000000
,  // measure 52
00000010
00001000
00001010
00000000
00000100
00000000
00001001
00001001
,  // measure 53
00000101
00001100
00001000
00011000
,  // measure 54
00110000
00000000
00000000
00000000
01100000
00000000
00000000
00000000
10000000
00000000
00000000
01000000
00100000
00000000
00010000
00000000
,  // measure 55
01000000
00000000
00100000
00000000
10000000
00000000
00000000
01000000
00000000
01000000
00010000
00000000
00010000
00000000
00010000
00000000
,  // measure 56
00001000
00000000
00001000
00000000
00001000
00000000
00000100
00000010
00000000
00000010
00001000
00000000
00000100
00000000
00000100
00000000
,  // measure 57
00000010
00000001
00000100
00001000
00010000
00100000
10000000
01000000
,  // measure 58
00010000
00000010
00001000
00000100
00010000
00000100
00001000
00000010
;
