#TITLE:20,November;
#SUBTITLE:(CLUB 2P VER.);
#ARTIST:DJ nagureo;
#TITLETRANSLIT:;
#SUBTITLETRANSLIT:;
#ARTISTTRANSLIT:;
#CREDIT:;
#BANNER:20,November (CLUB 2P VER.).png;
#BACKGROUND:20,November (CLUB 2P VER.)-bg.png;
#LYRICSPATH:;
#CDTITLE:./CDTITLES/Dance Dance Revolution CLUB VERSION.png;
#MUSIC:20,November (CLUB 2P VER.).mp3;
#OFFSET:-0.101;
#SAMPLESTART:22.240;
#SAMPLELENGTH:12.000;
#SELECTABLE:YES;
#DISPLAYBPM:130.000;
#BPMS:0.000=130.000;
#STOPS:;
#BGCHANGES:;

//---------------dance-single - ----------------
#NOTES:
     dance-single:
     :
     Easy:
     3:
     0.213,0.255,0.078,0.000,0.000:
0000
0000
0000
0000
,
0000
0000
0000
0000
,
0000
0000
0000
0000
,
0000
0000
0000
0000
,
1001
0100
0001
0100
,
1001
0100
1000
0100
,
1001
0100
0001
0100
,
0100
0100
0010
0100
,
0001
0001
1000
1000
,
0100
0100
0010
0010
,
0001
0001
1000
1000
,
0010
0010
1100
1100
,
0001
0001
0001
0100
,
1000
1000
0001
0001
,
1000
1000
1000
0100
,
0010
0010
0001
0001
,
1000
1000
1000
0100
,
0001
0001
1000
1000
,
0001
0001
0001
0100
,
1000
0010
0001
0100
,
0100
0100
0000
0000
,
0000
0000
0100
0000
,
0000
0000
1001
0100
,
1000
0100
0001
1000
,
1000
0100
1000
0001
,
0100
0100
0001
1000
,
0100
0100
1000
0001
,
0010
0010
1000
0001
,
0010
0010
1000
0100
,
0001
0001
1000
1000
,
1000
1000
0001
0001
,
0001
0001
1000
1000
,
0010
0010
0100
0000
;

//---------------dance-single - ----------------
#NOTES:
     dance-single:
     :
     Medium:
     4:
     0.235,0.255,0.118,0.000,0.000:
0000
0000
0000
0000
,
0000
0000
0000
0000
,
0000
0000
0000
0000
,
0000
0000
0000
0000
,
1001
0100
0001
0100
,
1001
0100
1000
0100
,
1001
0100
0001
0100
,
0100
0100
0010
1001
,
0001
0001
1000
1000
,
0100
0100
1001
1001
,
0001
0001
1000
1000
,
0010
0010
1100
1100
,
0001
0000
0001
0000
0001
0100
1000
0000
,
1000
1000
0001
0001
,
1000
0000
1000
0000
1000
0100
0001
0000
,
0010
0010
0001
0001
,
1000
0000
1000
0000
1000
0100
0001
0000
,
0001
0001
1000
1000
,
0001
0000
0001
0000
0001
0100
1000
0000
,
1000
0010
0001
0100
,
0100
0100
0000
0000
,
0000
0000
0100
0000
,
0000
0000
1001
0100
,
1000
0000
0100
0000
0001
0100
1000
0000
,
1000
0100
1000
0001
,
0100
0100
0001
1000
,
0100
0100
1000
0001
,
0010
0010
1000
0001
,
0010
0010
1000
0100
,
0001
0000
0001
0100
1000
0000
1000
0000
,
1000
0000
1000
0100
0001
0000
0001
0000
,
0001
0000
0001
0100
1000
0000
1000
0000
,
0010
0000
0010
1000
0100
0000
0000
0000
;

//---------------dance-single - ----------------
#NOTES:
     dance-single:
     :
     Hard:
     7:
     0.424,0.501,0.418,0.000,0.052:
0000
0000
0000
0000
,
0000
0000
0000
0000
,
0000
0000
0000
0000
,
0000
0000
0000
0000
,
1001
0000
1000
0000
0001
0000
1000
0001
,
1001
0000
1000
0000
0001
0000
1000
0001
,
1001
0000
0001
0000
1000
0000
0001
1000
,
1001
0000
1000
0000
1000
0000
1000
1000
,
1001
1001
1000
1000
,
0001
0000
0001
0000
1010
0001
0100
0000
,
1001
1001
0001
0001
,
1000
0000
1000
0000
0011
1000
0100
0000
,
1000
0001
1000
0001
1000
0001
1000
0001
,
1000
0010
1000
0010
1000
0100
1000
1100
,
0001
1000
0001
1000
0001
1000
0001
1000
,
0001
1001
0001
1001
0001
1001
0010
1001
,
1000
0001
1000
0001
1000
0001
1000
0001
,
1000
0010
1000
0100
1000
0010
1000
1001
,
0001
0010
0001
0100
0001
0010
0001
0100
,
1001
0001
1000
0001
1001
0001
1000
0001
,
0000
0000
0000
0000
0000
0000
0000
0000
1000
0000
0000
1000
0000
0000
1000
0000
,
0000
1000
0000
0000
0100
0000
0010
0000
0001
0000
0000
0001
0000
0000
0001
0000
,
0000
0001
0000
0000
0100
0000
0010
0000
1000
0000
0000
1000
0000
0000
1000
0000
,
0000
1000
0000
0000
0100
0000
0010
0000
0001
0000
0000
0001
0000
0000
0001
0000
,
0000
0001
0000
0000
0100
0000
0010
0000
1000
0000
0100
0000
1000
0000
0100
0000
,
1000
0100
1000
0100
1000
0001
1000
0001
,
1000
0010
1000
0010
1000
0100
1000
0100
,
1000
0010
1000
0100
1000
0000
0001
0000
,
1000
0001
1000
1000
,
0001
0000
0011
1000
0100
0000
1000
0000
,
0001
0000
1010
0001
0100
0000
0001
0000
,
1000
0000
0011
1000
0101
0000
0010
0000
,
1000
0000
1100
0001
0101
0000
0010
0000
,
1000
0000
0101
0010
1100
0000
0001
0000
,
0100
0000
1010
0001
1100
0000
0001
0000
,
0100
0000
0011
0100
1001
0000
0100
0000
,
0100
0000
1001
0010
1100
0000
0000
0000
;

//---------------dance-double - ----------------
#NOTES:
     dance-double:
     :
     Easy:
     4:
     0.230,0.255,0.078,0.000,0.000:
00000000
00000000
00000000
00000000
,
00000000
00000000
00000000
00000000
,
00000000
00000000
00000000
00000000
,
00000000
00000000
00000000
00000000
,
10010000
01000000
00010000
01000000
,
00011000
00010000
00001000
00000100
,
00001001
00001000
00000001
00001000
,
00000110
00001000
00010000
01100000
,
10000000
10000000
01000000
01000000
,
00010000
00010000
00000100
00000100
,
00001000
00001000
01000000
01000000
,
00010000
00010000
00000100
00000100
,
00001000
00000000
00001000
00000000
00000010
00000001
00000100
00000000
,
00001000
00001000
00010000
00010000
,
00100000
00000000
00100000
00000000
10000000
01000000
00010000
00000000
,
00001000
00001000
00000010
00000010
,
00000001
00000000
00000001
00000000
00000100
00001000
00010000
00000000
,
00100000
00100000
10000000
10000000
,
01000000
00000000
01000000
00000000
00010000
00001000
00010000
00000000
,
00000001
00001000
00000100
00000100
,
00000100
00000100
00000000
00000000
,
00000000
00000000
00000010
00000000
,
00000000
00000000
00001001
00000100
,
00010000
00000000
01000000
00000000
10000000
01000000
00010000
00000000
,
00001000
00000100
00000001
00000001
,
00001000
00001000
00100000
00100000
,
10000000
10000000
01000000
01000000
,
00010000
00010000
00000010
00000010
,
00000001
00000001
00001000
00000100
,
00000001
00000000
00000001
00000100
00001000
00000000
00010000
00000000
,
00010000
00000000
00010000
01000000
10000000
00000000
10000000
00000000
,
10000000
00000000
10000000
01000000
00010000
00000000
00010000
00000000
,
00001000
00000000
00001000
00000001
00000100
00000000
00000000
00000000
;

//---------------dance-double - ----------------
#NOTES:
     dance-double:
     :
     Medium:
     7:
     0.340,0.403,0.327,0.000,0.000:
00000000
00000000
00000000
00000000
,
00000000
00000000
00000000
00000000
,
00000000
00000000
00000000
00000000
,
00000000
00000000
00000000
00000000
,
10010000
00000000
01000000
00000000
00010000
00000000
01000000
00010000
,
00011000
00000000
00010000
00000000
00001000
00000000
00000100
00000001
,
00001001
00000000
00001000
00000000
00000001
00000000
00001000
00000010
,
00000110
00000000
00001001
00000000
00010000
00000000
01100000
00010000
,
10010000
10010000
01000000
01000000
,
00010000
00000000
00010000
00000000
00000100
00001000
00000100
00000000
,
00001001
00001001
00000100
00000100
,
00010000
00000000
00010000
00000000
00000100
00000010
00000100
00000000
,
00000100
00000001
00000100
00000001
00000100
00000001
00000100
00000001
,
00000100
00000010
00000100
00000010
00001000
00000010
00001000
00000010
,
00001000
00010000
00001000
00010000
01000000
00010000
01000000
00010000
,
01000000
00100000
01000000
00100000
10000000
00100000
10000000
00100000
,
10000000
01000000
10000000
01000000
00100000
01000000
00100000
01000000
,
00100000
00010000
00100000
00010000
00001000
00010000
00001000
00010000
,
00001000
00000100
00001000
00000100
00001000
00000100
00001000
00000100
,
00001001
00000001
00001000
00000001
00001001
00000100
00001000
00010000
,
00001000
00010000
00001000
00010000
00000000
00000000
00000000
00000000
,
00000000
00000000
00000100
00000000
,
00000000
00000000
00001001
00000001
,
00000100
00000000
00000100
00000000
00010000
00100000
00100000
00000000
,
10000000
01000000
01000000
00000000
00010000
00000000
00001000
00000000
,
00000100
00000010
00000001
00000001
,
00000100
00000000
00001100
00010000
00001000
00000000
00010000
00000000
,
00010000
00000000
10100000
01000000
10000000
00000000
10000000
00000000
,
10000000
00000000
00110000
00001000
00011000
00000000
00000100
00000000
,
00000100
00000000
00000101
00001000
00001010
00000000
00001000
00000000
,
00010000
00000000
00011000
00010000
01010000
00000000
01000000
00000000
,
01000000
00000000
11000000
00010000
00011000
00000000
00000100
00000000
,
00000100
00000000
00000101
00001000
00011000
00000000
00000000
00000000
;

//---------------dance-double - ----------------
#NOTES:
     dance-double:
     :
     Hard:
     9:
     0.483,0.596,0.183,0.052,0.405: // measure 1
00000000
00000000
00000000
00000000
,  // measure 2
00000000
00000000
00000000
00000000
,  // measure 3
00000000
00000000
00000000
00000000
,  // measure 4
00000000
00000000
00000000
00000000
,  // measure 5
01000000
00010000
00001000
00000100
,  // measure 6
00000001
00000100
00001000
00010000
01000000
10000000
01000000
00010000
,  // measure 7
00001000
00000100
00000000
00000001
00000001
00000100
00000000
00001000
,  // measure 8
00001000
00000000
00000000
00010000
00000000
00000000
00000000
00000000
00000000
01000000
00000000
00000000
01000000
00000000
00000000
10000000
00000000
00000000
01000000
00000000
00100000
00000000
00010000
00000000
,  // measure 9
01000000
01100000
00000000
10000000
00000000
01000000
00000000
00010000
,  // measure 10
00000000
01000000
00000000
00001000
00000000
00010000
00000000
00000010
,  // measure 11
00000000
00001000
00000000
00010000
00000000
00000010
00000000
00001000
,  // measure 12
00000001
00000000
00000100
00000000
00001000
00010000
00000000
00010000
00001000
00000000
00000010
00001000
00000010
00000000
00001000
00000000
,  // measure 13
01000000
00010000
01000000
00100000
01000000
00001000
01000000
00010000
,  // measure 14
00100000
00000000
00000000
01000000
00000000
00000000
00010000
00000000
00001000
00000000
00000000
00000100
00000000
00000000
00000001
00000000
,  // measure 15
00001000
00000100
00000001
00000100
00001000
00000100
00000001
00000100
,  // measure 16
00000010
00000100
00000010
00000100
00000010
00000100
00000010
00000100
00000010
00000100
00000010
00000000
00000110
00000000
00000011
00000000
,  // measure 17
00001001
00000001
00000010
00001000
00000010
00000001
00000010
00001000
,  // measure 18
00000010
00010000
00001000
00100000
00010000
00100000
00110000
01100000
,  // measure 19
00100000
00010000
00100000
10000000
00100000
00010000
00100000
10000000
,  // measure 20
00010000
00000000
10010000
00000000
10000000
00000000
10010000
00000000
00010000
00000000
10000000
01000000
10000000
00000000
01000000
00010000
,  // measure 21
01000000
00000000
00100000
00001000
00100000
00000000
00001000
00010000
00001000
00000000
00000000
00000000
00000000
00000000
00000000
00000000
,  // measure 22
00000000
00000000
00022000
00000000
,  // measure 23
00000000
00000000
00000000
00000000
00033000
00000000
00100000
00000000
00001000
00000000
00010000
00000000
00100000
00010000
00000000
00010000
,  // measure 24
00001000
00000000
00000100
00000001
00000000
00000001
00001000
00000000
00000010
00000000
00000001
00000000
00000010
00000100
00000000
00000100
,  // measure 25
00001000
00000000
00010000
01000000
00000000
01000000
00100000
00000000
10000000
00100000
00000000
00000000
00010000
00000000
10000000
01000000
,  // measure 26
00000000
00010000
00000000
01000000
00100000
01000000
00010000
00000000
00010000
00001000
00000000
00000000
00000100
00000000
00000010
00010000
,  // measure 27
00000000
00001000
00000000
00000100
00000010
00000100
00001000
00000000
00001000
00010000
00000000
00000000
00100000
00000000
01000000
00010000
,  // measure 28
00000000
10000000
00000000
01000000
00100000
01000000
00010000
00000000
00001000
00000000
00000100
00000000
00000001
00000000
00001000
00000000
,  // measure 29
00000020
00000000
00000000
00000200
00000030
00000000
00000300
00000000
00001000
00010000
00000000
00000000
01000000
00000000
10000000
00100000
,  // measure 30
00000000
00010000
00000000
00100000
01000000
00001000
00010000
00000000
00000100
00001000
00000000
00000000
00000010
00000000
00000100
00001000
,  // measure 31
00000000
00010000
00000000
00001000
00000100
00000010
00001000
00000000
00000001
00000100
00000000
00000000
00001000
00000000
00010000
00001000
,  // measure 32
00000000
00100000
00000000
01000000
00010000
00001000
00010000
00000000
01000000
00010000
00000000
00000000
01000000
00000000
10000000
00100000
,  // measure 33
00000000
00010000
00000000
00100000
10000000
01000000
00010000
00000000
00011000
00000000
00000000
00000000
00000010
00000000
00000000
00000000
,  // measure 34
00000100
00001010
00001001
00000100
,  // measure 35
00010000
00000000
00001000
00000000
01000000
01000000
00100000
00000000
,  // measure 36
00000000
10010000
00000000
01000000
,  // measure 37
00100000
00000000
00000000
00000000
00000000
00000000
00000000
00000000
00000000
00000000
00000000
00000000
00000000
00000000
00000000
00000000
00100000
00000000
00000000
00000000
00000000
00100000
00000000
00000000
00000000
00000000
00100000
00000000
00000000
00000000
00000000
00000000
10010000
00000000
00000000
00000000
00000000
00000000
00000000
00000000
00000000
00000000
00000000
00000000
00000000
00000000
00000000
00000000
00000000
00000000
00000000
00000000
00000000
00000000
00000000
00000000
00000000
00000000
00000000
00000000
00000000
00000000
00000000
00000000
;

//---------------dance-single - ----------------
#NOTES:
     dance-single:
     :
     Beginner:
     1:
     0.131,0.168,0.105,0.000,0.000:
0000
0000
0000
0000
,
0000
0000
0000
0000
,
0000
0000
0000
0000
,
0000
0000
0000
0000
,
1001
0000
0000
0000
,
1001
0000
0000
0000
,
1001
0000
0000
0000
,
0010
0000
0100
0000
,
1000
0000
1000
0000
,
0100
0000
0100
0000
,
0001
0000
0001
0000
,
0010
0000
0010
0000
,
1000
1000
0000
0000
,
1000
1000
0000
0000
,
1000
1000
0000
0000
,
1000
1000
0000
0000
,
0001
0001
0000
0000
,
0001
0001
0000
0000
,
0001
0001
0000
0000
,
0001
0001
0000
0001
,
0000
0001
0001
0000
,
0010
0010
0010
0000
,
1000
1000
1000
0000
,
0100
0100
0100
0000
,
0001
0001
0001
0000
,
0000
0000
1000
0000
,
0000
0000
0001
0000
,
0000
0000
1000
1000
,
1000
0000
1001
0000
,
0000
0000
1000
0000
,
0001
0000
1001
0000
,
0000
0000
1000
0000
,
0001
0000
0110
0000
,
0000
0000
0010
0000
,
0010
0000
0110
0000
,
0000
0000
0100
0000
,
0100
0000
1001
0000
;
