#TITLE:(Mucho Mambo) Sway;
#SUBTITLE:;
#ARTIST:Shaft;
#TITLETRANSLIT:;
#SUBTITLETRANSLIT:;
#ARTISTTRANSLIT:;
#CREDIT:;
#BANNER:(Mucho Mambo) Sway.png;
#BACKGROUND:(Mucho Mambo) Sway-bg.png;
#LYRICSPATH:;
#CDTITLE:;
#MUSIC:(Mucho Mambo) Sway.ogg;
#OFFSET:0.000;
#SAMPLESTART:52.986;
#SAMPLELENGTH:15.000;
#SELECTABLE:YES;
#DISPLAYBPM:128.000;
#BPMS:0.000=127.980;
#STOPS:;
#BGCHANGES:;

//---------------dance-single - ----------------
#NOTES:
     dance-single:
     :
     Beginner:
     1:
     :
0000
0000
0000
0000
,
0000
0000
0000
0000
,
0000
0000
0000
0000
,
0000
0000
0000
0000
,
0000
0000
0000
0000
,
0010
0000
0000
0000
,
0100
0000
0000
0000
,
0010
0000
0000
0000
,
0100
0000
0000
0000
,
0000
0010
0000
0010
,
0000
0010
0000
0000
,
0000
0100
0000
0100
,
0000
0100
0000
0000
,
0000
1000
0000
1000
,
0000
1000
0000
0000
,
0000
0001
0000
0001
,
0000
0001
0000
0000
,
0010
0000
0000
0000
,
0010
0000
0000
0000
,
0010
0000
0000
0000
,
0010
0000
0000
0000
,
1000
0000
0001
0000
,
1000
0000
0001
0000
,
1000
0000
0001
0000
,
0000
0000
0000
0000
,
1000
0000
0100
0000
,
1000
0000
0100
0000
,
1000
0000
0000
0000
,
0000
0000
0000
0000
,
0001
0000
1000
0000
,
0001
0000
1000
0000
,
0001
0000
1000
0000
,
0000
0000
0000
0000
,
0001
0000
0100
0000
,
0001
0000
0100
0000
,
0001
0000
0000
0000
,
0000
0000
0000
0000
,
1000
0000
0001
0000
,
1000
0000
0001
0000
,
1000
0000
0001
0000
,
0000
0000
0000
0000
,
1000
0000
0010
0000
,
1000
0000
0010
0000
,
1000
0000
0000
0000
,
0000
0000
0000
0000
,
0001
0000
0010
0000
,
0001
0000
0010
0000
,
0001
0000
1000
0000
,
0100
0000
0000
0000
,
1000
0000
0001
0000
,
1000
0000
0001
0000
,
0100
0000
0100
0000
,
0100
0000
0100
0000
;

//---------------dance-single - ----------------
#NOTES:
     dance-single:
     :
     Easy:
     3:
     :
0000
0000
0000
0000
,
0000
0000
0000
0000
,
0000
0000
0000
0000
,
0000
0000
0000
0000
,
0000
0000
0000
0000
,
0010
0000
1000
0001
,
0100
0000
0001
1000
,
0010
0000
1000
0001
,
0100
0000
0001
1000
,
0000
0100
0000
0100
,
0000
0010
0000
0010
,
0000
0100
0000
0100
,
0000
0010
0000
0010
,
0000
1000
0000
0001
,
0000
0010
0000
0100
,
0000
1000
0000
0100
,
0000
0001
0000
0100
,
0010
0000
0000
0000
,
0100
0000
0000
0000
,
0010
0000
0000
0000
,
0100
0000
0000
0000
,
1000
0001
0100
0000
,
0010
1000
0100
0000
,
0001
0100
0010
0000
,
1000
0010
0100
0000
,
0001
1000
0100
0000
,
0010
0001
0100
0000
,
1001
0000
0000
0000
,
0000
0000
0000
0000
,
0010
0100
1000
0000
,
0001
0100
0010
0000
,
0001
1000
0100
0000
,
0010
0001
1000
0000
,
0010
0100
0001
0000
,
1000
0100
0010
0000
,
1001
0000
0000
0000
,
0000
0000
0000
0000
,
0100
0010
0001
0000
,
0100
0010
1000
0000
,
0100
0001
0010
0000
,
0100
1000
0001
0000
,
0100
0010
1000
0000
,
0100
0010
0001
0000
,
1001
0000
0000
0000
,
0000
0000
0000
0000
,
1001
0000
1001
0000
,
0110
0000
0110
0000
,
1001
0000
0110
0000
,
1001
0000
0000
0000
,
1001
0000
0110
0000
,
1001
0000
0110
0110
,
1000
0000
1000
0000
,
1000
0000
1000
0000
;

//---------------dance-single - ----------------
#NOTES:
     dance-single:
     :
     Medium:
     5:
     :
0000
0000
0000
0000
,
0000
0000
0000
0000
,
0000
0000
0000
0000
,
0000
0000
0000
0000
,
0000
0000
0000
0000
,
0010
0000
0000
0001
1000
0010
0000
0000
,
0100
0000
0000
0001
1000
0100
0000
0000
,
0010
0000
0000
0001
1000
0010
0000
0000
,
0100
0000
0000
0001
1000
0100
0000
0000
,
0010
0000
0001
0001
0000
0000
1000
1000
,
0000
0000
0010
0010
0000
0000
0100
0000
,
0010
0000
0100
0100
0000
0000
0001
0001
,
0000
0000
1000
1000
0000
0000
0100
0000
,
1000
0000
0100
0100
0000
0000
0010
0010
,
0000
0000
0001
0001
0000
0000
0100
0000
,
0010
0000
1000
1000
0000
0000
0100
0100
,
0000
0000
0010
0010
0000
0000
0001
0000
,
0100
0000
0000
0000
0000
0000
0000
0010
,
0100
0000
0000
0000
0000
0000
0000
0001
,
1000
0000
0000
0001
1000
0000
0000
0001
,
1000
0000
0000
0000
,
0010
0100
0000
0000
0001
1000
0000
0000
,
0010
0100
0100
0100
0001
1000
0001
1000
,
0010
0100
0000
0000
0001
0010
0000
0000
,
0100
1000
0000
0000
0000
0000
0000
0000
,
0001
1000
0000
0000
0100
0010
0000
0000
,
0001
1000
0000
0000
0010
0100
0010
0100
,
0000
0000
0000
0000
0000
0001
0001
0001
,
0000
0000
0000
0000
,
0010
1000
0000
0000
0100
0001
0000
0000
,
0010
0100
0000
0000
1000
0001
1000
0001
,
0100
0010
0000
0000
1000
0100
0000
0000
,
0010
0001
0000
0000
0000
0000
0000
0000
,
1000
0010
0000
0000
0100
0001
0000
0000
,
1000
0100
0000
0000
0010
0001
0010
0001
,
0000
0000
0000
0000
0000
1000
1000
1000
,
0000
0000
0000
0000
,
0010
0100
0000
0000
0001
1000
0000
0000
,
0100
0010
0000
0000
0001
0100
0001
0100
,
0010
1000
0000
0000
0100
0010
0000
0000
,
0001
0100
0000
0000
0000
0000
0000
0000
,
0010
0100
0000
0000
0001
0010
0000
0000
,
0100
1000
0000
0000
0010
0100
0010
0100
,
0000
0000
0000
0000
0000
0001
0001
0001
,
0000
0000
0000
0000
,
1000
0000
0000
0000
0010
0100
0001
0000
,
1000
0000
0000
0000
0100
0010
0001
0000
,
1000
0000
0000
0000
0010
0100
0001
0000
,
0010
0000
0000
0000
,
1000
0000
0000
0000
0010
0100
0001
0000
,
0010
0000
0000
0000
0100
1000
0001
0000
,
0100
0000
0000
0000
0010
1000
0100
0000
,
0010
0000
0000
0000
;

//---------------dance-single - ----------------
#NOTES:
     dance-single:
     :
     Hard:
     7:
     :
0000
0000
0000
0000
,
0000
0000
0000
0000
,
0000
0000
0000
0000
,
0000
0000
0000
0000
,
0000
0000
0000
0000
,
0010
0001
1000
0100
0100
0100
0000
0000
,
0010
0001
1000
0100
0100
0100
0000
0000
,
1000
0001
0100
0010
0010
0010
0000
0000
,
1000
0001
0100
0010
0010
0010
0000
0000
,
1000
0100
1000
0000
0001
0100
0001
0000
,
1000
0010
0100
0000
0001
0010
0001
0010
,
0100
1000
0100
0000
0010
0001
0010
0000
,
0100
1000
0001
0000
0100
0010
0100
0010
,
1000
0100
1000
0000
0010
0001
0010
0000
,
0100
1000
0010
0000
0100
0001
0100
0001
,
0010
0100
0010
0000
1000
0001
1000
0000
,
0100
0010
1000
0000
0100
0010
0100
0010
,
0000
0000
0001
0001
0000
0000
1000
1000
,
0000
0000
0100
0100
0000
0000
0010
0010
,
0000
0000
0001
0001
0000
0000
1000
1000
,
0000
0000
0100
0100
0010
0001
0100
0010
,
1000
0000
0000
1000
0100
0010
0001
0100
,
0010
0000
0000
0010
1000
0100
0010
0001
,
1000
0000
0000
1000
0010
0100
0001
0010
,
0100
0000
0000
0100
1000
0001
0100
0010
,
1000
0000
0000
1000
0100
0010
0001
0100
,
0010
0000
0000
0010
1000
0100
0010
0001
,
1000
0000
0000
0000
0000
0010
0010
0010
,
0000
0000
0000
0000
,
1000
0000
0000
1000
0100
0010
0001
0100
,
0010
0000
0000
0010
1000
0100
0010
0001
,
0100
0000
0000
0100
0010
1000
0001
0100
,
0010
0000
0000
0010
1000
0100
0010
0001
,
1000
0000
0000
1000
0010
0100
0001
1000
,
0100
0000
0000
0100
0010
0001
1000
0100
,
0010
0000
0000
0000
0000
0001
0001
0001
,
0000
0000
0000
0000
,
0010
0000
0000
0010
0100
1000
0010
0100
,
0001
0000
0000
0001
0010
0100
1000
0001
,
0100
0000
0000
0100
0010
1000
0001
0100
,
0010
0000
0000
0010
1000
0100
0010
0001
,
1000
0000
0000
1000
0100
0010
0001
1000
,
0100
0000
0000
0100
0010
0001
0100
0010
,
1000
0000
0000
0000
0000
0100
0100
0100
,
0000
0000
0000
0000
,
0010
0000
0001
0000
0000
0000
0000
0000
0100
0001
0000
0100
0000
0000
0000
0000
,
0010
0000
1000
0000
0000
0000
0000
0000
0010
1000
0000
0001
0000
0100
0000
0000
,
0010
0000
1000
0000
0000
0000
0000
0000
0001
1000
0000
0001
0000
0000
0000
0000
,
0100
0010
0000
0000
0000
0000
0000
0000
,
1000
0000
0001
0000
0000
0000
0000
0000
0100
0010
0000
1000
0000
0000
0000
0000
,
0100
0000
0010
0000
0000
0000
0000
0000
0001
0100
0000
0010
0000
1000
0000
0000
,
0100
0000
0010
0000
0000
0000
0000
0000
0001
0100
0000
0010
0000
0000
0000
0000
,
1000
0100
0000
0000
0010
0000
0000
0000
;

//---------------dance-double - ----------------
#NOTES:
     dance-double:
     :
     Easy:
     3:
     :
00000000
00000000
00000000
00000000
,
00000000
00000000
00000000
00000000
,
00000000
00000000
00000000
00000000
,
00000000
00000000
00000000
00000000
,
00000000
00000000
00000000
00000000
,
00010000
00000000
00000000
00000000
,
00000000
00000000
00000001
00000000
,
00000100
00000000
00000000
00000000
,
00000000
00000000
00000000
00000000
,
00010000
00000000
00001000
00000000
,
00100000
00000000
01000000
01000000
,
10000000
00000000
00010000
00000000
,
01000000
00000000
00001000
00001000
,
00010000
00000000
00000100
00000000
,
00000010
00000000
00000001
00000001
,
00001000
00000000
00000010
00000000
,
00010000
00000000
00001000
00000000
,
00100000
00000000
00000000
00000000
,
01000000
00000000
00000000
00000000
,
00100000
00000000
00001000
00000000
,
00010000
00000000
00000000
00000000
,
00000100
00000000
00000010
00000010
,
00000001
00000000
00001000
00001000
,
00000100
00000000
00010000
00010000
,
00001000
00000000
00000000
00000000
,
00100000
00000000
01000000
01000000
,
10000000
00000000
00100000
00100000
,
01000000
00000000
00000000
00000000
,
00011000
00000000
00000000
00000000
,
00000100
00000000
00000010
00000010
,
00000001
00000000
00001000
00001000
,
00000100
00000000
00010000
00010000
,
00001000
00000000
00000000
00000000
,
00100000
00000000
01000000
01000000
,
00010000
00000000
00001000
00001000
,
01000000
00000000
00000000
00000000
,
10010000
00000000
00000000
00000000
,
01000000
00000000
00100000
00100000
,
00001000
00000000
00010000
00010000
,
00000100
00000000
00000010
00000010
,
00000001
00000000
00000000
00000000
,
00001000
00000000
00000100
00000100
,
00010000
00000000
00001000
00001000
,
00100000
00000000
00000000
00000000
,
10010000
00000000
00000000
00000000
,
00100000
00001000
00010000
00001010
,
00010000
00000100
00001000
00011000
,
00100000
01000000
10000000
00110000
,
00001000
00010000
00001000
00000000
,
00100000
00010000
01000000
00011000
,
00000010
00001000
00000100
00011000
,
00100000
01000000
00010000
00011000
,
00000010
00000100
00000001
00000000
;

//---------------dance-double - ----------------
#NOTES:
     dance-double:
     :
     Medium:
     5:
     :
00000000
00000000
00000000
00000000
,
00000000
00000000
00000000
00000000
,
00000000
00000000
00000000
00000000
,
00000000
00000000
00000000
00000000
,
00000000
00000000
00000000
00000000
,
00001000
00000000
01000000
01000000
00000000
00000000
00010000
00010000
,
00000000
00000000
00100000
00100000
00001000
00000000
00010000
00000000
,
00000000
00000000
00000100
00000100
00000000
00000000
00000010
00000010
,
00000000
00000000
00000001
00000001
00001000
00000000
00000100
00000000
,
00010000
00011000
00100000
10010000
,
01000000
00011000
00000100
00000010
,
00001000
00011000
01000000
10010000
,
00100000
00011000
01000000
00100000
,
10000000
01010000
00001000
00010010
,
00000100
00011000
00100000
01000000
,
10000000
00110000
01000000
00011000
,
00000010
00001001
00000100
00011000
,
00000000
00100000
00000000
00100000
,
00000000
00000100
00000000
00000100
,
00000000
01000000
00000000
01000000
,
00000000
00000010
00001000
00000100
,
00010000
00000000
00001000
00001000
00000000
00000000
00110000
00000000
,
10000000
00000000
01000000
01000000
00000000
00000000
00110000
00000000
,
00001000
00000000
00010000
00010000
00000000
00000000
00000000
00000000
,
00000000
00000000
00000000
00001001
,
00000010
00000000
00000100
00000100
00000000
00000000
00011000
00000000
,
00100000
00000000
01000000
01000000
00000000
00000000
10010000
00000000
,
01000000
00000000
00001000
00001000
00000000
00000000
00010010
00000000
,
00001001
00000000
00000000
00000000
,
00000010
00000000
00000100
00000100
00000000
00000000
00011000
00000000
,
00100000
00000000
00010000
00010000
00000000
00000000
11000000
00000000
,
00100000
00000000
00001000
00001000
00000000
00000000
00000000
00000000
,
00000000
00000000
00000000
00000011
,
00001000
00000000
00000100
00000100
00000000
00000000
00011000
00000000
,
00100000
00000000
01000000
01000000
00000000
00000000
00011000
00000000
,
01000000
00000000
00100000
00100000
00000000
00000000
10010000
00000000
,
00011000
00000000
00000000
00000000
,
00000010
00000000
00001000
00001000
00000000
00000000
00000101
00000000
,
00010000
00000000
00001000
00001000
00000000
00000000
10010000
00000000
,
00100000
00000000
01000000
01000000
00000000
00000000
00000000
00000000
,
00000000
00000000
00000000
00010010
,
00000100
00000000
00000001
00000001
00000000
00000000
00001100
00000000
,
00010000
00000000
00001000
00001000
00000000
00000000
10010000
00000000
,
01000000
00000000
00100000
00100000
00000000
00000000
00011000
00000000
,
00001001
00000000
00000000
00000000
,
00000010
00000100
00000000
00000000
00010000
00001000
00000000
00000000
,
00100000
00010000
00000000
00000000
10000000
01000000
00000000
00000000
,
00100000
00010000
00000000
00000000
01000000
00001000
00000000
00000000
,
00010000
00000010
00000000
00000000
00000000
00000000
00000000
00000000
,
00001000
00000001
00000000
00000000
00000010
00000100
00000000
00000000
,
00010000
00001000
00000000
00000000
00100000
01000000
00000000
00000000
,
10000000
00010000
00000000
00000000
01000000
00001000
00000000
00000000
,
00010000
00000010
00000000
00000000
00001000
00000001
00000000
00000000
;

//---------------dance-double - ----------------
#NOTES:
     dance-double:
     :
     Hard:
     7:
     :
00000000
00000000
00000000
00000000
,
00000000
00000000
00000000
00000000
,
00000000
00000000
00000000
00000000
,
00000000
00000000
00000000
00000000
,
00000000
00000000
00000000
00000000
,
00100000
00000000
00000000
00010000
10000000
00000000
00010000
00000000
01000000
00000000
00001000
00000000
00000000
00000000
00000000
00000000
,
00010000
00000000
00000000
00000010
00001000
00000000
00000010
00000000
00000100
00000000
00000001
00000000
00000000
00000000
00000000
00000000
,
00001000
00000000
00000000
00000100
00010000
00000000
00000100
00000000
00001000
00000000
00000001
00000000
00000000
00000000
00000000
00000000
,
00000010
00000000
00000000
00000100
00001000
00000000
00000100
00000000
00010000
00000000
00001000
00000000
00000000
00000000
00000000
00000000
,
00100000
01000000
10000000
00010000
01000000
00001000
00000000
00000000
,
00010000
00000100
00000010
00000000
00000001
00000100
00000010
00000000
,
00010000
00001000
00100000
00010000
10000000
01000000
00000000
00000000
,
00100000
00001000
00010000
00000100
00000010
00000001
00000100
00000000
,
00000010
00001000
00000100
00010000
00001000
00100000
00000000
00000000
,
00010000
01000000
00100000
10000000
01000000
00100000
00001000
00000000
,
00010000
00000010
00000100
00000001
00001000
00000100
00000000
00000000
,
00010000
00001000
00100000
00010000
01000000
00001000
00010000
00000000
,
10010000
00000000
00000000
00000000
00000000
00000000
00000000
00100000
,
00011000
00000000
00000000
00000000
00000000
00000000
00000000
00000010
,
00001001
00000000
00000000
00000010
00011000
00000000
00000000
00100000
,
10010000
00000000
00000000
00000000
,
00100000
00000000
00001000
00001000
00000000
00010000
00000010
00001000
,
00000001
00000000
00000100
00000010
00000000
00010000
00001000
00100000
,
00010000
00000000
10000000
10000000
00000000
00100000
01000000
00001000
,
00010000
00000000
00000000
00000000
,
00000001
00000000
00000100
00000100
00000000
00001000
00000100
00010000
,
00001000
00000000
00100000
01000000
00000000
10000000
00100000
01000000
,
00001000
00000000
00010000
00010000
00000000
00000100
00000100
00000100
,
00000000
00000000
00000000
00000000
,
00000010
00000000
00000001
00000001
00000000
00001000
00000100
00010000
,
00001000
00000000
00100000
01000000
00000000
10000000
00100000
01000000
,
00001000
00000000
00010000
00010000
00000000
00000100
00000010
00000001
,
00000100
00000000
00000000
00000000
,
00000010
00000000
00010000
00001000
00000000
00100000
00010000
10000000
,
01000000
00000000
00100000
00001000
00000000
00010000
00000100
00001000
,
00000001
00000000
00000100
00000100
00000000
00000010
00000010
00000010
,
00000000
00000000
00000000
00000000
,
00010000
00000000
00001000
00001000
00000000
00100000
00010000
01000000
,
00100000
00000000
10000000
01000000
00000000
00100000
00001000
00010000
,
00000100
00000000
00001000
00001000
00000000
00000010
00000100
00000001
,
00001000
00000000
00000000
00000000
,
00010000
00000000
00001000
00001000
00000000
00100000
00010000
10000000
,
01000000
00000000
00100000
00010000
00000000
01000000
00001000
00010000
,
00000010
00000100
00000010
00000100
,
00000010
00000000
00000000
00000000
,
00001000
00000100
00010000
00000000
00001000
00100000
00010000
00000000
,
10000000
01000000
00100000
00000000
00001000
00010000
00000010
00000100
,
00000100
00010000
00001000
00000000
00100000
00010000
01000000
00000000
,
00100000
10000000
01000000
00000000
00000000
00000000
00000000
00000000
,
00100000
00010000
01000000
00000000
00001000
00010000
00000100
00000000
,
00000010
00000001
00000100
00000000
00000010
00001000
00000100
00010000
,
00001000
00010000
00000010
00000000
00000100
00000001
00000010
00000000
,
00000100
00010000
00001000
00100000
;

//---------------dance-double - Edit by silenttype01----------------
#NOTES:
     dance-double:
     Edit by silenttype01:
     Challenge:
     7:
     0.329,0.469,0.100,0.140,0.050: // measure 1
00000000
00000000
00000000
00000000
,  // measure 2
00000000
00000000
00000000
00000000
,  // measure 3
00000000
00000000
00000000
00000000
,  // measure 4
00000000
00000000
00000000
00000000
,  // measure 5
00000000
00000000
00000000
00000000
,  // measure 6
00000000
00000000
00000000
00000000
,  // measure 7
00000000
00000000
00000000
00000000
,  // measure 8
00000000
00000000
00000000
00000000
,  // measure 9
00000000
00000000
00000000
00000000
,  // measure 10
20000000
00100000
00000000
00010000
,  // measure 11
00000000
00100000
30020000
00100000
,  // measure 12
00230000
00001000
00000000
01000000
,  // measure 13
00000000
00010000
00302000
00000100
,  // measure 14
00003020
00000000
00000001
00000001
00000000
00000000
00001000
00001000
,  // measure 15
00000000
00000000
00000100
00000100
00000032
00000000
00000100
00000100
,  // measure 16
00002003
00000000
00000001
00000001
00000000
00000000
00000010
00000010
,  // measure 17
00000000
00000000
00000100
00000100
00000000
00000000
00013000
00010000
,  // measure 18
00011000
00000000
00000000
00000000
00000000
00000000
00000000
00001000
,  // measure 19
00011000
00000000
00000000
00000000
00000000
00000000
00000000
00010000
,  // measure 20
00011000
00000000
00000000
00001000
00011000
00000000
00000000
00010000
,  // measure 21
00011000
00000000
00000000
00000000
,  // measure 22
00010000
00001000
00200000
00010000
,  // measure 23
00301000
00010000
00000020
00001000
,  // measure 24
00010030
00001000
00200000
00010000
,  // measure 25
00301000
00010000
00000020
00001000
,  // measure 26
00010030
00001000
00200000
00010000
,  // measure 27
00301000
00010000
00000020
00001000
,  // measure 28
00010030
00000000
00001000
00000000
00100000
00010000
00010000
00010000
,  // measure 29
00000000
00000000
00000000
00000000
,  // measure 30
00000010
00000001
00000010
00000001
00000100
00000001
00000100
00000001
,  // measure 31
00001000
00000010
00001000
00000010
00000100
00000010
00000100
00000010
,  // measure 32
00010000
00001000
00010000
00001000
00100000
01000000
00100000
01000000
,  // measure 33
10000000
01000000
10000000
01000000
00100000
00010000
00100000
00010000
,  // measure 34
10000000
00100000
10000000
00100000
10000000
01000000
10000000
01000000
,  // measure 35
00100000
00010000
00100000
00010000
01000000
00010000
01000000
00010000
,  // measure 36
10000000
10000000
00100000
00100000
01000000
00010000
00010000
00010000
,  // measure 37
10010000
00000000
00000000
10000000
00000000
00000000
00100000
00000000
00000000
01000000
00000000
00000000
00010000
00000000
00000000
00000000
,  // measure 38
10000000
00000000
00000000
10000000
01000000
00000000
00000000
00000000
10000000
00000000
01000000
00000000
00100000
00000000
00000000
00000000
,  // measure 39
00010000
00000000
00000000
00010000
01000000
00000000
00000000
00000000
00010000
00000000
01000000
00000000
00100000
00000000
00000000
00000000
,  // measure 40
00010000
00000000
00000000
00010000
00001000
00000000
00000000
00000000
00010000
00000000
01000000
00000000
00100000
00000000
00000000
00000000
,  // measure 41
00001000
00000000
00000000
00001000
00010000
00000000
00000000
00000000
00001000
00000000
00000100
00000000
00000010
00000000
00000000
00000000
,  // measure 42
00001000
00000000
00000000
00001000
00000100
00000000
00000000
00000000
00001000
00000000
00000010
00000000
00000100
00000000
00000000
00000000
,  // measure 43
00000001
00000000
00000000
00000001
00000100
00000000
00000000
00000000
00000001
00000000
00000010
00000000
00000100
00000000
00000000
00000000
,  // measure 44
00001001
00000000
00000000
00000000
00000000
00000110
00000110
00000110
,  // measure 45
00000000
00000000
00000001
00000000
00000000
00000010
00000000
00000000
00000100
00000000
00000000
00001000
00000000
00000000
00000001
00000000
,  // measure 46
00000100
00001000
00000000
00000000
00000001
00000010
00000000
00001000
,  // measure 47
00000100
00000010
00000000
00000000
00001000
00000010
00000001
00000010
,  // measure 48
00000100
00001000
00000000
00000000
00000100
00010000
00000000
00000010
,  // measure 49
00000100
00001000
00000000
00000000
00000000
00000000
00000000
00000000
,  // measure 50
00010000
00100000
00000000
00000000
10000000
00010000
00000000
01000000
,  // measure 51
10000000
00010000
00000000
00000000
00100000
10000000
01000000
00010000
,  // measure 52
02000000
00000000
00000000
00000000
,  // measure 53
03000000
00000000
00000000
00000000
;
