#TITLE:666;
#SUBTITLE:;
#ARTIST:Roughsketch;
#TITLETRANSLIT:;
#SUBTITLETRANSLIT:;
#ARTISTTRANSLIT:;
#GENRE:;
#CREDIT:;
#BANNER:666.png;
#BACKGROUND:666-bg.png;
#LYRICSPATH:;
#CDTITLE:;
#MUSIC:SDVX_RoughSketch_666_NOFX_(getmp3.pro).mp3;
#OFFSET:-1.332226;
#SAMPLESTART:98.305206;
#SAMPLELENGTH:12.000000;
#SELECTABLE:YES;
#BPMS:0.000000=333.000000
,61.000000=666.000000
,205.000000=166.500000
,209.000000=333.000000
,241.000000=1332.000000
,253.000000=333.000000
,282.000000=166.500000
,284.000000=333.000000
,292.000000=1332.000000
,308.000000=333.000000
,324.000000=1332.000000
,340.000000=333.000000
,348.000000=666.000000
,364.000000=333.000000
,376.000000=166.500000
,400.000000=1332.000000
,416.000000=166.500000
,430.000000=333.000000
,486.000000=166.500000
,490.000000=666.000000
,554.000000=333.000000
,578.000000=2664.000000
,642.000000=333.000000
,650.000000=666.000000
,770.000000=2664.000000
,806.000000=666.000000
,880.000000=333.000000
,882.000000=666.000000
,894.000000=1332.000000
,906.000000=666.000000
,928.000000=1332.000000
,978.000000=666.000000
,986.000000=1332.000000
,1018.000000=666.000000
;
#STOPS:928.000000=0.720000
;
#BGCHANGES:;
#KEYSOUNDS:;
#ATTACKS:;

//---------------dance-single - ----------------
#NOTES:
     dance-single:
     :
     Challenge:
     21:
     1.310235,4.291169,1.037517,0.000000,0.485558,1105.000000,980.000000,125.000000,0.000000,244.000000,0.000000,1.310235,4.291169,1.037517,0.000000,0.485558,1105.000000,980.000000,125.000000,0.000000,244.000000,0.000000:
// measure 0
0000
0000
0000
0000
,  // measure 1
0000
0000
0000
0000
,  // measure 2
0000
0000
0000
0000
,  // measure 3
0000
0000
0000
0000
,  // measure 4
0000
0000
0000
0000
,  // measure 5
0000
0000
0000
0000
,  // measure 6
0000
0000
0000
0000
,  // measure 7
0000
1000
0100
0010
,  // measure 8
0001
0100
0010
0001
,  // measure 9
1000
0001
0010
0100
,  // measure 10
1000
0010
0100
1000
,  // measure 11
0001
0000
1000
0100
1000
0100
1000
0100
,  // measure 12
0010
0100
0010
0100
0001
0100
0001
0100
,  // measure 13
0010
0100
0010
1000
0100
0001
0100
1000
,  // measure 14
0100
0001
0010
1000
0010
0001
0010
1000
,  // measure 15
0010
0001
1100
0000
0000
0000
0011
0000
,  // measure 16
0000
0000
0000
1000
0000
0010
0000
0001
0000
0000
0000
0000
,  // measure 17
0100
0000
0000
1000
0000
0010
0000
0001
0000
0000
0000
0000
,  // measure 18
0100
0000
0000
1000
0000
0010
0000
0001
0000
0000
0000
0000
,  // measure 19
0100
0011
0000
0101
,  // measure 20
0000
0000
0000
1000
0000
0010
0000
0001
0000
0000
0000
0000
,  // measure 21
0100
0110
0000
0000
,  // measure 22
0000
0000
0100
0000
0100
0000
0100
0100
,  // measure 23
0100
0100
0100
0000
0000
0000
1000
0000
,  // measure 24
0100
0001
0100
1000
,  // measure 25
0100
0001
0100
1000
,  // measure 26
0100
0001
0100
1000
,  // measure 27
0100
0001
0100
1000
,  // measure 28
0100
0001
0100
1000
,  // measure 29
0100
0110
0000
0011
,  // measure 30
0000
0110
0000
1100
,  // measure 31
0000
0110
0000
1000
,  // measure 32
0010
0001
0010
1000
,  // measure 33
0010
0001
0010
1000
,  // measure 34
0010
0000
0100
0100
0100
0000
0010
0000
,  // measure 35
1000
0000
0100
0100
0100
0000
0001
0000
,  // measure 36
0100
0100
0100
0000
1000
0000
0100
0100
,  // measure 37
0100
1001
0000
1001
,  // measure 38
0000
1001
0000
1100
,  // measure 39
0000
0011
0000
1000
,  // measure 40
0100
0001
1000
0100
,  // measure 41
0001
0000
0100
0100
0100
0000
1000
0000
,  // measure 42
0001
0100
1000
0001
,  // measure 43
0100
1000
0001
0100
,  // measure 44
1000
0000
0001
0000
1000
0000
0100
0100
,  // measure 45
0100
0000
0110
0000
0110
0000
0000
0011
,  // measure 46
0000
0000
0110
0000
0000
0110
0000
0000
,  // measure 47
1100
0000
0000
0110
0000
0000
0100
0000
,  // measure 48
1000
0000
0100
0100
0100
0000
0001
0000
,  // measure 49
0010
1000
0100
0001
,  // measure 50
0010
0100
0100
0100
0000
1000
0000
0000
,  // measure 51
0001
0010
0000
0100
,  // measure 52
0100
0000
0100
0000
0100
0100
0100
0000
0011
0000
0000
0000
0000
0000
0000
0000
0011
0000
0000
0000
0000
0000
0000
0000
0011
0000
0000
0000
0000
0000
0000
0000
,  // measure 53
0011
0000
0110
0000
0110
0000
0110
0110
,  // measure 54
0110
0000
1001
0000
1001
0000
1001
1001
,  // measure 55
1001
0000
1100
0000
1100
0000
1100
1100
,  // measure 56
1100
1001
1001
1001
,  // measure 57
1001
0000
0000
0011
0000
0000
0011
0000
0000
0011
0000
0011
,  // measure 58
0000
0000
0000
0000
0011
0000
0000
0000
0000
0000
0000
0000
0001
0000
0000
0000
0000
0000
0000
0000
0000
0000
0000
0000
0100
0000
0000
0100
0000
0000
0100
0000
0000
0100
0000
0000
0100
0000
0000
0000
0000
0000
1000
0000
0000
0000
0000
0000
,  // measure 59
0000
0001
0100
0000
0000
0100
0000
0010
,  // measure 60
0100
0010
0000
0000
0000
0000
0000
0000
,  // measure 61
0000
0100
1000
0100
,  // measure 62
0010
0001
0000
0000
,  // measure 63
0000
0011
0011
1001
,  // measure 64
1001
0000
1001
1001
0110
0000
0110
0000
,  // measure 65
0110
0000
0110
0000
1100
1100
1100
1100
,  // measure 66
0000
1100
0000
1100
0000
0000
1001
0000
,  // measure 67
1001
1001
0000
0011
,  // measure 68
0011
0000
0011
0000
1001
0000
1000
0011
,  // measure 69
0000
0010
1100
0000
0000
0000
1001
0000
,  // measure 70
0000
0000
0011
1100
,  // measure 71
1000
0100
0010
0001
0010
0100
1000
0100
,  // measure 72
0010
0001
0010
0100
1000
0100
0010
0001
,  // measure 73
0000
0000
0000
0000
,  // measure 74
0000
0000
0000
0000
,  // measure 75
0011
0000
0000
0000
,  // measure 76
1100
0000
0000
0000
,  // measure 77
1001
0000
0000
0000
0100
0001
0010
0001
,  // measure 78
1000
0001
0100
0001
0010
0001
1000
0001
,  // measure 79
0100
0001
0010
0001
1000
0001
0100
0001
,  // measure 80
0010
0001
0100
0001
1000
0001
0010
0001
,  // measure 81
0110
0000
0000
0000
,  // measure 82
0000
0000
0000
0000
,  // measure 83
1001
0000
0000
0000
,  // measure 84
0000
0000
0000
0000
,  // measure 85
1000
0010
1000
0100
1000
0010
1000
0100
,  // measure 86
1000
0010
0100
0000
1000
0000
0010
0000
1000
0000
0100
0000
1000
0000
0010
0000
,  // measure 87
1001
0000
0110
0000
,  // measure 88
1001
0000
1100
0000
,  // measure 89
1001
0000
0000
0011
,  // measure 90
0000
0000
1001
0000
,  // measure 91
0100
0001
0100
0000
1000
0000
0100
0000
0001
0000
0100
0000
0001
0000
0100
0000
,  // measure 92
1000
0100
0010
0100
0001
0000
0100
0000
0001
0000
0100
1000
0100
1000
0100
0000
,  // measure 93
0010
1000
0010
0100
0010
0001
0010
0100
,  // measure 94
0010
0000
0001
0010
1000
0010
0100
0010
0001
0000
0010
0000
1000
0000
0010
0000
,  // measure 95
0001
0000
0010
0100
0010
0100
0010
0100
0010
0000
0001
0000
0010
0000
0000
0000
,  // measure 96
1000
0100
0010
0001
0010
0001
0010
0100
1000
0100
0010
0001
0010
0001
0010
0100
,  // measure 97
1000
0100
0010
0001
0010
0001
0010
0100
1000
0100
0010
0001
0010
0001
0010
0100
,  // measure 98
1000
0100
0010
0001
0010
0001
0010
0100
1000
0100
0010
0001
0010
0001
0010
0100
,  // measure 99
1000
0100
0010
0001
0010
0001
0010
0100
1000
0100
0010
0001
0010
0001
0010
0100
,  // measure 100
0110
0000
0000
0000
,  // measure 101
1001
0000
0000
0000
,  // measure 102
0110
0000
0000
0000
,  // measure 103
0000
0000
0000
0000
,  // measure 104
0001
0010
0100
1000
0100
1000
0100
0010
0001
0010
0100
1000
0100
1000
0100
0010
,  // measure 105
0001
0010
0100
1000
0100
1000
0100
0010
0001
0010
0100
1000
0100
1000
0100
0010
,  // measure 106
0001
0010
0100
1000
0100
1000
0100
0010
0001
0010
0100
1000
0100
1000
0100
0010
,  // measure 107
0001
0010
0100
1000
0100
1000
0100
1000
0100
1000
0100
0010
0001
0010
0001
0000
0100
0000
0000
0000
0000
0000
0000
0000
1000
0000
0000
0000
0100
0000
0000
0000
,  // measure 108
1000
0100
0010
0100
0001
0000
1000
0000
,  // measure 109
0100
0000
0001
0000
0100
0000
0100
1000
,  // measure 110
0100
0010
0100
0001
1000
0000
0001
0000
,  // measure 111
0010
0000
1000
0000
0100
0000
1000
0001
,  // measure 112
0010
0100
0010
0001
0010
0000
0001
0000
,  // measure 113
1000
0001
0100
1000
,  // measure 114
0001
0010
0100
0010
,  // measure 115
1000
0000
0010
0000
0001
0000
1000
0100
,  // measure 116
0001
0100
0010
0100
0001
0000
1000
0000
,  // measure 117
0001
0000
0010
0000
0100
0000
0001
0100
,  // measure 118
1000
0100
0010
0100
0001
0000
0010
0000
,  // measure 119
1000
0000
0010
0000
1000
0100
0010
0001
,  // measure 120
0010
0100
1000
0100
0010
0001
0010
0100
,  // measure 121
1000
0100
0010
0001
1000
0001
0100
0001
,  // measure 122
1000
0000
1100
0000
,  // measure 123
1100
0000
0000
0000
0000
0000
1000
0000
0010
0000
0001
0000
,  // measure 124
0000
0100
1001
0000
,  // measure 125
1001
0000
0000
0000
0000
0000
1000
0000
0010
0000
0001
0000
,  // measure 126
0000
0100
0110
0000
,  // measure 127
0110
0000
0000
0000
0000
0000
1000
0000
0010
0000
0001
0000
,  // measure 128
0000
0100
0011
0000
,  // measure 129
0011
0000
1001
0000
,  // measure 130
0000
0000
1100
0000
,  // measure 131
1100
0000
0000
0000
0000
0000
1000
0000
0010
0000
0001
0000
,  // measure 132
0000
0100
1001
0000
,  // measure 133
1001
0000
0000
0000
0000
0000
1000
0000
0010
0000
0001
0000
,  // measure 134
0000
0100
0110
0000
,  // measure 135
0110
0000
0000
0000
0000
0000
1000
0000
0010
0000
0001
0000
,  // measure 136
0000
0100
1010
0000
,  // measure 137
1010
0000
1001
0000
,  // measure 138
0000
0000
0000
0000
0100
0000
1000
0100
,  // measure 139
0001
0100
1000
0100
0001
0000
0010
0000
,  // measure 140
1000
0000
0010
0000
0100
0000
1000
0010
,  // measure 141
0001
0010
1000
0010
0001
0000
1000
0000
,  // measure 142
0001
0000
0010
0000
1000
0100
0010
0001
,  // measure 143
0010
0100
1000
0100
0010
0001
0010
0100
,  // measure 144
1000
0100
0010
0001
0000
0000
MMMM
0000
,  // measure 145
MMMM
MMMM
MMMM
MMMM
,  // measure 146
MMMM
MMMM
MMMM
MMMM
,  // measure 147
MMMM
MMMM
MMMM
MMMM
,  // measure 148
MMMM
MMMM
MMMM
MMMM
,  // measure 149
MMMM
MMMM
MMMM
MMMM
,  // measure 150
MMMM
MMMM
MMMM
MMMM
,  // measure 151
MMMM
MMMM
MMMM
MMMM
,  // measure 152
MMMM
MMMM
MMMM
MMMM
,  // measure 153
MMMM
MMMM
MMMM
MMMM
,  // measure 154
MMMM
MMMM
MMMM
MMMM
,  // measure 155
MMMM
MMMM
MMMM
MMMM
,  // measure 156
MMMM
MMMM
MMMM
MMMM
,  // measure 157
MMMM
MMMM
MMMM
MMMM
,  // measure 158
MMMM
MMMM
MMMM
MMMM
,  // measure 159
MMMM
MMMM
MMMM
MMMM
,  // measure 160
0000
0000
0001
0010
,  // measure 161
0100
0001
1000
0010
,  // measure 162
0100
0000
0100
0000
0100
0100
0100
0000
0100
0000
0000
0000
0000
0000
0000
0000
,  // measure 163
1000
0100
0001
0100
,  // measure 164
1000
0100
0001
0000
,  // measure 165
0010
0000
0001
0000
,  // measure 166
0010
0000
0100
0000
,  // measure 167
0010
0001
0010
1000
,  // measure 168
0010
0001
0010
0000
,  // measure 169
1000
0000
0100
0000
,  // measure 170
1100
1100
1001
0000
,  // measure 171
1000
0010
0001
1000
,  // measure 172
0010
1000
0010
0000
,  // measure 173
0001
0000
1000
0000
,  // measure 174
0001
0000
0010
0000
,  // measure 175
0101
0101
1100
1100
,  // measure 176
1010
0000
0001
0000
,  // measure 177
0010
0000
0100
0000
,  // measure 178
1000
0000
0000
0000
,  // measure 179
1000
0100
0010
0001
,  // measure 180
0010
0100
1000
0000
,  // measure 181
0100
0000
1000
0000
,  // measure 182
0100
0000
0001
0010
,  // measure 183
0100
1000
0100
0010
,  // measure 184
0001
0000
0000
0000
0000
0000
1000
0000
0000
0000
0100
0000
,  // measure 185
0000
0000
0001
0000
0000
0000
0010
0000
0000
0000
0100
0000
,  // measure 186
0000
0000
1000
0000
0000
0000
1000
0000
0000
0100
0000
0000
,  // measure 187
0001
0100
1000
0000
,  // measure 188
0100
0000
0010
0000
,  // measure 189
0001
0000
0010
0000
,  // measure 190
0100
0100
0100
0100
0100
0000
0000
0000
,  // measure 191
1000
0000
0010
0000
,  // measure 192
0001
0000
0010
0000
,  // measure 193
0000
0000
0000
0000
,  // measure 194
0000
0000
0000
0000
,  // measure 195
0000
0000
0000
0000
,  // measure 196
0000
0000
0001
0000
,  // measure 197
0000
0000
0010
0000
,  // measure 198
0000
0000
0010
0000
,  // measure 199
0010
0000
0010
0000
,  // measure 200
0010
0000
0010
0000
,  // measure 201
0000
0000
0000
0000
0010
0001
0010
0000
,  // measure 202
1000
0100
0001
0010
,  // measure 203
0100
1000
0001
0010
,  // measure 204
0001
0100
0010
0001
,  // measure 205
1000
0000
0010
0001
0010
0000
1000
0000
,  // measure 206
0001
0010
0001
0100
,  // measure 207
1000
0000
0100
1000
0100
1000
0100
1000
,  // measure 208
0010
0001
0010
0001
0010
0001
0010
0001
,  // measure 209
0010
0001
0100
0010
,  // measure 210
1000
0001
0100
1000
,  // measure 211
0001
0010
0100
1000
,  // measure 212
0100
0010
0001
1000
,  // measure 213
0010
0001
0100
0010
,  // measure 214
0001
1000
0001
0010
,  // measure 215
0100
0000
1000
0010
1000
0010
1000
0010
,  // measure 216
1000
0010
1000
0010
0100
0001
0100
0001
,  // measure 217
0100
0001
0100
0001
1000
0000
0001
0000
,  // measure 218
0010
0001
1000
0001
,  // measure 219
0010
0100
1000
0100
,  // measure 220
0100
1000
0100
0001
0100
1000
0100
0000
,  // measure 221
0001
1000
0100
1000
,  // measure 222
0001
1000
0001
1000
,  // measure 223
0001
0100
0010
0000
,  // measure 224
0000
0000
0000
0000
,  // measure 225
0000
0000
0000
0000
,  // measure 226
1000
0001
1000
0001
,  // measure 227
0100
1000
0010
0100
,  // measure 228
1000
0001
0010
1000
,  // measure 229
0001
0010
0100
1000
,  // measure 230
0100
0000
0001
0010
0001
0000
0001
0000
,  // measure 231
0100
0010
0001
1000
,  // measure 232
0001
0000
1000
0000
,  // measure 233
0001
0000
1000
0000
,  // measure 234
0001
0000
1000
0000
,  // measure 235
0001
0000
1000
0000
,  // measure 236
0001
0000
1000
0000
,  // measure 237
0001
0000
1000
0000
,  // measure 238
0001
0000
1000
0000
,  // measure 239
0001
0000
1000
0000
,  // measure 240
0001
0000
1000
0000
,  // measure 241
0001
0000
1000
0000
,  // measure 242
0001
0000
1000
0000
,  // measure 243
0001
0000
1000
0000
,  // measure 244
0001
0000
1100
0000
,  // measure 245
1010
0000
1001
0000
,  // measure 246
0101
0000
1001
0000
,  // measure 247
1000
0000
0001
0000
,  // measure 248
1000
0000
0001
0000
,  // measure 249
1000
0000
0001
0000
,  // measure 250
1000
0000
0001
0000
,  // measure 251
1000
0000
0001
0000
,  // measure 252
1000
0000
0001
0000
,  // measure 253
1000
0000
0001
0000
,  // measure 254
1000
0000
0001
1000
,  // measure 255
0000
0000
0000
0100
0000
0000
1000
0000
0010
0000
0001
0000
,  // measure 256
0000
0000
0000
0100
0000
0000
1000
0000
0010
0000
0001
0000
,  // measure 257
0000
0000
0000
0100
0000
0000
1000
0000
0010
0000
0001
0000
,  // measure 258
0000
0100
1001
0000
;
