#TITLE:Paint a Picture;
#SUBTITLE:;
#ARTIST:slayr;
#TITLETRANSLIT:;
#SUBTITLETRANSLIT:;
#ARTISTTRANSLIT:;
#GENRE:;
#CREDIT:;
#MUSIC:papsong.ogg;
#BANNER:papbanner.png;
#BACKGROUND:still-bg.png;
#CDTITLE:baby-madmhex-cd-title.png;
#SAMPLESTART:0.000000;
#SAMPLELENGTH:0.000000;
#SELECTABLE:YES;
#OFFSET:-0.039909;
#BPMS:0.000000=186.000000;
#STOPS:;
#BGCHANGES:;
#FGCHANGES:;

//--------------- dance-single - madmhex ----------------
#NOTES:
     dance-single:
     madmhex:
     Medium:
     1:
     0,0,0,0,0:
0000
0000
0000
0000
,
0000
0000
0000
0000
,
0020
0000
0000
0000
,
0000
0000
0000
0000
,
2000
0000
0000
0000
,
0000
0000
0000
0000
0000
0000
0000
3030
,
0002
0000
0000
0000
,
0000
0000
0000
0003
,
0100
0000
0100
0000
,
0100
0000
0001
0000
,
0010
0000
0001
0000
,
1000
0000
0100
0000
,
1000
0000
0100
0000
,
0001
0000
0001
0000
,
0010
0000
0010
0000
,
0200
0000
0000
0300
,
2000
0000
0000
0000
0000
0000
0000
3000
,
0002
0000
0000
0000
0000
0000
0000
0003
,
0020
0000
0000
0030
,
0200
0000
0000
0300
,
0002
0000
0000
0000
0000
0000
0000
0003
,
2000
0000
0000
3000
,
0020
0000
0000
0030
2000
0000
3000
0000
,
0010
0100
0010
0100
,
0010
0000
0001
0000
,
0001
1000
0001
0000
,
0100
0000
0010
0100
0010
0000
0000
0000
,
1000
0000
0001
1000
0001
0000
0000
0000
,
0100
0000
0010
0000
,
0010
0100
0010
0100
0010
0000
0000
0000
,
1000
0000
0001
0000
,
1000
0001
1000
0001
1000
0000
1000
0000
,
1000
0000
0001
0000
,
0100
0010
1000
0000
,
1000
0001
0100
0001
0000
0100
0010
0000
,
1000
0000
1000
0000
,
0001
0100
0001
0100
,
0001
0010
1000
0100
,
0001
0010
1000
0100
,
0001
0000
0010
0000
0100
0010
0100
0010
,
0100
0000
2002
3003
,
0220
0000
0000
0000
0000
0330
0000
0000
,
2002
0000
0000
3003
,
2200
3300
0022
0033
,
0100
0000
0010
0000
,
0100
0010
0100
0000
,
1000
0001
0100
0010
,
0001
0000
0000
0000
0100
0010
0100
0000
,
0000
0000
0000
0000
,
0100
0000
0100
0000
,
0100
0010
0100
0000
,
1000
0001
1000
0000
0001
0100
0000
0000
,
0202
0000
0000
0000
,
0000
0000
0000
0000
0000
0303
0000
0000
,
0020
0000
0000
0000
,
2000
0000
3030
0000
1000
0010
0000
0000
,
1001
0000
1000
0001
,
0001
0010
0100
0001
,
0100
0010
0001
1000
,
0100
0010
0001
0010
,
1000
0000
1000
0000
1000
0000
0010
0100
,
0010
1000
0001
0001
,
1000
0000
0010
0000
0100
0000
0001
1000
,
0000
0000
0100
0000
0010
0100
0010
0100
,
0000
0000
1000
0001
,
0100
0001
0010
0001
,
0100
0001
0010
0001
,
0000
0000
1000
0001
,
0100
0010
1000
0001
,
0100
0010
1000
0001
,
0100
0010
0001
1000
,
0010
0001
0100
0001
,
1000
0010
0100
0001
,
0001
1000
0001
0001
,
0100
0010
1000
0001
,
0100
0010
0001
1000
,
0010
0100
0001
1000
,
0010
0001
0100
0010
,
1000
0000
1000
0001
1000
0000
0100
0000
,
0000
0000
0010
0000
1000
0001
1000
0002
,
0000
0000
0000
0000
,
0000
0000
0000
0000
,
0000
0000
0000
0000
,
0000
0000
0000
0000
,
0000
0000
0000
0000
,
0000
0000
0000
0000
,
0000
0000
0000
0000
,
0000
0000
0000
0000
0000
0003
0000
0000
,
0200
0000
0000
0000
,
0000
0000
0000
0000
,
0000
0000
0000
0000
,
0000
0000
0000
0000
,
0000
0000
0000
0000
0000
0000
0000
0300
,
2000
0000
0000
0000
,
0000
0000
0000
0000
,
0000
0000
0000
0000
0000
3000
0002
0000
,
0000
0000
0000
0000
0000
0000
0000
0000
0000
0000
0000
0000
0000
0000
0000
0000
0000
0000
0000
0000
0000
0000
0000
0000
0000
0000
0000
0000
0000
0000
0000
0000
0000
0000
0000
0000
0000
0000
0000
0000
0000
0000
0000
0000
0000
0000
0000
0000
0000
0000
0000
0000
0000
0000
0000
0000
0000
0000
0000
0000
0000
0000
0000
0000
0000
0000
0000
0000
0000
0000
0000
0000
0000
0000
0000
0000
0000
0000
0000
0000
0000
0000
0000
0000
0000
0000
0000
0000
0000
0000
0000
0003
0000
0000
0000
0000
,
0200
0000
0000
0000
,
0320
0000
0000
0000
,
0000
0000
0000
0000
,
0000
0000
0000
0000
,
0000
0000
0000
0000
,
0000
0000
0000
0000
0000
0000
0000
0000
0000
0000
0000
0000
0000
0000
0000
0000
0000
0000
0000
0000
0000
0000
0000
0000
0000
0000
0000
0000
0000
0000
0000
0000
0000
0000
0000
0000
0000
0000
0000
0000
0000
0000
0000
0000
0000
0000
0000
0000
0000
0000
0000
0000
0000
0000
0000
0000
0000
0000
0000
0030
0000
0000
0000
0000
0000
0000
0000
0000
0000
0000
0000
0000
0000
0000
0000
0000
0000
0000
0000
0000
0000
0000
0000
0000
0000
0000
0000
0000
0000
0000
0000
0000
0000
0000
0000
0000
,
2000
0000
0000
0000
,
0000
0000
0000
0000
,
0000
0000
0000
0000
,
0000
0000
0000
0000
,
0000
0000
0000
0000
0000
0000
0000
0000
0000
0000
0000
0000
0000
0000
0000
0000
0000
0000
0000
0000
0000
0000
0000
0000
0000
0000
0000
0000
0000
0000
0000
0000
0000
0000
0000
0000
0000
0000
0000
0000
0000
0000
0000
0000
0000
0000
0000
0000
0000
0000
0000
0000
0000
0000
0000
3000
0000
0000
0000
0000
0000
0000
0000
0000
0000
0000
0000
0000
0000
0000
0000
0000
0000
0000
0000
0000
0000
0000
0000
0000
0000
0000
0000
0000
0000
0000
0000
0000
0000
0000
0000
0000
0000
0000
0000
0000
;
