#VERSION:0.83;
#TITLE:DTW;
#SUBTITLE:;
#ARTIST:olivia offseason;
#TITLETRANSLIT:;
#SUBTITLETRANSLIT:;
#ARTISTTRANSLIT:;
#GENRE:;
#CREDIT:madmhex;
#MUSIC:dtw.ogg;
#BANNER:dtw.png;
#BACKGROUND:still-bg.png;
#CDTITLE:baby-madmhex-cd-title.png;
#SAMPLESTART:38.000000;
#SAMPLELENGTH:12.000000;
#SELECTABLE:YES;
#OFFSET:-0.100159;
#BPMS:0.000000=76.535925
,1.000000=153.071850
,15.000000=306.143700
,19.000000=153.071850
;
#STOPS:;
#PREVIEWVID:;
#SONGTYPE:ARCADE;
#BGCHANGES:-10000.000000=till-bg.png=1.000000=1=0=1===CrossFade==,
-0.300000=olivia-offseason-DTW.mp4=1.000000=1=0=0=StretchNoLoop==CrossFade==,
99999.000000=-nosongbg-=1.000000=0=0=0=StretchNoLoop====
;
#FGCHANGES:;

//--------------- dance-single - madmhex ----------------
#NOTEDATA:;
#STEPSTYPE:dance-single;
#DESCRIPTION:madmhex;
#DIFFICULTY:Medium;
#METER:6;
#RADARVALUES:0,0,0,0,0;
#NOTES:
0000
0000
1000
0001
1000
0001
1000
0001
,
1000
0001
1000
0001
1000
0001
1000
0001
,
0100
0001
1000
0001
0100
0001
1000
0001
,
0010
0001
0000
0000
0000
0000
1000
0001
,
1000
0001
1000
0000
0100
0000
0010
0000
,
0002
0003
2000
3000
0020
0030
0000
0000
,
0200
0300
0002
0003
2000
3000
0000
0000
,
0020
0000
0030
0200
0000
0300
0020
0000
0000
2000
0000
0000
,
0000
0000
3030
2002
,
0000
0000
0000
3000
,
0100
0013
0000
1000
,
0010
0000
0100
0000
0001
0000
0001
1000
,
0000
0001
0010
0000
0000
0000
0110
0000
,
0000
0000
0000
0000
0000
0000
0002
0000
0000
0000
0000
0000
0100
0000
0000
0000
0000
0003
1000
0000
0000
0001
0000
0000
,
1000
0000
1001
0000
0000
0000
0010
0100
,
0010
1000
0001
0100
,
0010
1000
0010
0000
0000
0000
0220
0030
,
0310
0000
0100
0000
0001
1000
0001
1000
,
0001
0000
0100
0000
0010
0000
0000
0000
0000
0000
0000
0000
0020
0030
0000
0000
,
2000
3000
0000
0000
0200
0300
0000
0000
0020
0030
0000
0000
0200
0300
0000
0000
,
1000
0000
0011
0000
0000
0000
0010
0100
,
0010
0100
0001
0010
,
0010
0100
0010
0000
0000
0000
0001
1000
,
0010
0100
0001
0100
,
0010
0100
0010
0000
0000
0000
2001
0000
,
0100
0001
0010
0100
,
3100
1000
0100
0000
0000
0000
1002
0000
,
0010
1000
0010
0100
,
0003
1000
0100
0000
0000
0000
0010
0001
,
0100
1000
0010
1000
,
0001
0100
0001
0000
0000
0000
0110
0000
,
1001
0000
0100
0000
0010
0000
0100
0010
,
0100
0110
0000
1100
,
0002
0000
0100
0000
1000
0003
0100
0000
,
0001
0010
0001
0000
0000
0000
0001
1000
,
0010
0000
0100
0000
0001
0000
1000
0100
,
1000
0100
0010
0000
1000
0000
1000
0000
,
0200
0300
0020
0030
0002
0003
0200
0300
,
0001
1000
0001
0000
0000
0000
1000
0100
,
0010
1000
0001
0100
,
0010
0000
0100
0000
0010
0000
0000
0000
0000
0000
0000
0000
2002
0000
0000
3003
,
0000
0000
2200
0300
3001
0000
1000
0010
,
0100
0010
0100
0000
0000
0000
0001
0000
,
0100
0000
0001
1000
0001
0000
1000
0001
,
1000
0010
0100
0000
0000
0000
2000
3000
,
0020
0030
0200
0300
0002
0003
2000
3000
,
0200
0300
0010
0000
0100
0000
1100
0000
,
1000
0000
0100
0000
0020
0000
0030
0100
,
0010
0001
0010
0000
0000
0000
1001
0000
,
0010
0000
1000
0001
1000
0001
1000
0001
,
1000
0100
0010
0000
0000
0000
0000
0100
,
0010
0000
1000
0100
1000
0000
0001
0100
,
0001
0000
0011
0000
0000
0000
0200
0300
,
2000
3000
0002
0003
0020
0030
1000
0001
,
1000
0100
0010
0000
0000
0000
0001
0100
,
0010
0000
0000
0200
0300
0000
0002
0003
0000
2000
3000
0000
,
0001
0110
0000
2002
,
0000
0000
0000
3000
0000
0100
0000
0100
,
0000
1003
0000
0000
1000
0000
1000
0000
,
0001
0000
0010
0100
1000
0001
1000
0010
,
1000
0100
0010
0000
0000
0000
2002
0000
,
0000
0000
0000
0000
,
0000
0000
0000
3003
0000
0000
0001
1000
,
0100
0000
0010
0000
1000
0001
1000
0001
,
0010
0100
0000
0000
0000
0000
0000
0000
;
