#VERSION:0.81;
#TITLE:Simplex;
#SUBTITLE:;
#ARTIST:Xyqph;
#TITLETRANSLIT:;
#SUBTITLETRANSLIT:;
#ARTISTTRANSLIT:;
#GENRE:;
#ORIGIN:;
#CREDIT:;
#BANNER:;
#BACKGROUND:;
#PREVIEWVID:;
#JACKET:;
#CDIMAGE:;
#DISCIMAGE:;
#LYRICSPATH:;
#CDTITLE:;
#MUSIC:Simplex.mp3;
#OFFSET:-0.150;
#BPMS:0.000=228.600
,176.000=228.200
,344.000=230.000
,621.000=232.000
,653.000=236.000
,685.000=240.000
,701.000=243.000
,717.000=247.000
,756.667=11.905
,757.000=250.000
;
#STOPS:465.000=0.130
,482.500=0.130
,498.500=0.130
;
#DELAYS:464.000=0.391
;
#WARPS:64.000=16.000
,482.500=16.000
,498.500=16.000
;
#TIMESIGNATURES:0.000=4=4
,464.000=2=4
,466.000=4=4
,514.000=3=4
,517.000=4=4
;
#TICKCOUNTS:0.000=4
;
#COMBOS:0.000=1
,332.000=2=1
,336.000=1
;
#SPEEDS:0.000=1.000=0.000=0
,304.000=0.250=4.000=0
,312.000=1.000=8.000=0
,560.000=1.500=0.250=0
,563.000=1.000=0.250=0
,633.000=1.333=0.667=0
,633.667=1.000=0.333=0
,634.333=1.667=0.667=0
,635.000=1.000=0.333=0
,635.667=2.000=0.667=0
,636.333=1.000=0.333=0
,993.000=1.250=0.167=0
,993.667=1.500=0.167=0
,994.333=1.750=0.167=0
,995.000=2.000=0.167=0
,995.667=1.000=0.167=0
,1115.000=1.250=0.000=0
,1115.250=1.500=0.000=0
,1115.500=1.750=0.000=0
,1115.750=2.000=0.000=0
,1116.000=2.500=0.000=0
,1116.250=3.000=0.000=0
,1116.500=4.000=0.000=0
;
#SCROLLS:0.000=0.500
,1.000=1.000
,2.500=0.500
,3.500=2.000
,4.000=1.000
,6.000=0.333
,7.500=2.000
,8.000=1.000
,9.500=0.200
,12.000=0.500
,14.000=1.000
,16.500=2.000
,17.000=1.000
,17.500=0.500
,18.500=1.000
,19.500=2.000
,20.000=1.000
,22.500=0.333
,24.000=0.500
,25.000=2.000
,25.500=0.250
,27.500=0.333
,29.000=0.500
,30.000=0.250
,32.000=0.500
,33.000=1.000
,34.500=0.500
,35.500=2.000
,36.000=1.000
,38.000=0.333
,39.500=2.000
,40.000=1.000
,40.500=0.500
,42.500=0.333
,44.000=0.500
,46.000=1.000
,48.500=2.000
,49.000=1.000
,49.500=0.500
,50.500=1.000
,51.500=2.000
,52.000=1.000
,54.500=0.333
,56.000=0.500
,57.000=2.000
,57.500=0.250
,59.500=0.333
,61.000=0.500
,62.000=0.250
,62.500=0.500
,62.750=0.750
,63.000=1.000
,63.250=1.250
,63.500=1.500
,63.750=1.750
,64.000=2.000
,169.500=4.000
,169.750=2.000
,304.000=0.000
,308.500=0.333
,309.000=0.667
,309.500=1.000
,310.000=1.333
,310.500=1.667
,311.000=2.000
,312.000=0.000
,316.500=0.333
,317.000=0.667
,317.500=1.000
,318.000=1.333
,318.500=1.667
,319.000=2.000
,328.000=2.125
,329.000=2.250
,330.000=2.375
,331.000=2.500
,332.000=2.625
,332.500=2.750
,333.000=2.875
,333.500=3.000
,334.000=3.125
,334.250=3.250
,334.500=3.375
,334.750=3.500
,335.000=3.625
,335.250=3.750
,335.500=3.875
,335.750=4.000
,336.000=8.000
,337.000=7.000
,338.000=6.000
,339.000=5.000
,340.000=4.000
,341.000=3.500
,342.000=3.000
,343.000=2.500
,344.000=2.000
,409.000=0.000
,409.750=4.000
,410.000=0.000
,410.750=4.000
,411.000=0.000
,411.750=4.000
,412.000=2.000
,555.000=4.000
,555.250=2.000
,573.000=0.000
,574.500=2.000
,853.000=4.000
,853.333=2.000
,854.000=4.000
,854.333=2.000
,856.000=4.000
,856.333=2.000
,917.000=4.000
,917.333=2.000
,918.000=4.000
,918.333=2.000
,989.000=-2.000
,989.250=2.000
,996.000=16.000
,996.333=-32.000
,996.500=0.000
,997.000=1.000
,997.500=2.000
,998.000=0.500
,999.000=1.000
,1002.000=1.500
,1002.333=3.000
,1002.500=0.500
,1003.500=1.000
,1006.000=0.500
,1007.000=2.000
,1007.500=1.000
,1010.500=2.000
,1011.000=1.000
,1011.500=0.333
,1014.500=0.500
,1016.500=1.000
,1017.500=2.000
,1018.000=1.000
,1018.500=2.000
,1019.000=1.000
,1022.000=0.333
,1023.500=1.000
,1024.000=0.500
,1025.000=1.000
,1026.000=0.500
,1027.000=0.250
,1029.000=1.000
,1029.500=2.000
,1030.000=0.500
,1031.000=1.000
,1034.000=1.500
,1034.333=3.000
,1034.500=0.500
,1035.500=1.000
,1038.000=0.500
,1039.000=2.000
,1039.500=1.000
,1042.500=2.000
,1043.000=1.000
,1043.500=0.333
,1046.500=0.500
,1048.500=1.000
,1049.500=2.000
,1050.000=1.000
,1050.500=2.000
,1051.000=1.000
,1054.000=0.333
,1055.500=1.000
,1056.000=0.500
,1057.000=1.000
,1058.000=0.333
,1059.500=1.000
,1061.500=2.000
,1062.000=0.500
,1063.000=1.000
,1066.000=1.500
,1066.333=3.000
,1066.500=0.500
,1067.500=1.000
,1070.000=0.500
,1071.000=2.000
,1071.500=1.000
,1074.500=2.000
,1075.000=1.000
,1075.500=0.333
,1078.500=0.500
,1080.500=1.000
,1081.500=2.000
,1082.000=1.000
,1082.500=2.000
,1083.000=1.000
,1086.000=0.333
,1087.500=1.000
,1088.000=0.500
,1089.000=1.000
,1090.000=0.500
,1093.000=0.250
,1109.000=2.000
,1110.500=0.000
,1112.500=1.000
,1117.000=2.000
;
#FAKES:338.000=4.000
;
#LABELS:0.000=Song Start
;
#ATTACKS:TIME=82.139999:LEN=3.150000:MODS=400% Drunk,400% Bumpy,400% Tipsy,400% Beat,*4 400% Dizzy:TIME=85.300003:LEN=0.500000:MODS=*4 no Drunk,*4 no Bumpy,*4 no Tipsy,*4 no Beat,*4 no Dizzy:TIME=82.139999:LEN=3.150000:MODS=400% Drunk,400% Bumpy,400% Tipsy,400% Beat,*4 400% Dizzy:TIME=85.300003:LEN=0.500000:MODS=*4 no Drunk,*4 no Bumpy,*4 no Tipsy,*4 no Beat,*4 no Dizzy:TIME=82.139999:LEN=3.150000:MODS=400% Drunk,400% Bumpy,400% Tipsy,400% Beat,*4 400% Dizzy:TIME=85.300003:LEN=0.500000:MODS=*4 no Drunk,*4 no Bumpy,*4 no Tipsy,*4 no Beat,*4 no Dizzy:TIME=82.139999:LEN=3.150000:MODS=400% Drunk,400% Bumpy,400% Tipsy,400% Beat,*4 400% Dizzy:TIME=85.300003:LEN=0.500000:MODS=*4 no Drunk,*4 no Bumpy,*4 no Tipsy,*4 no Beat,*4 no Dizzy:TIME=82.139999:LEN=3.150000:MODS=400% Drunk,400% Bumpy,400% Tipsy,400% Beat,*4 400% Dizzy:TIME=85.300003:LEN=0.500000:MODS=*4 no Drunk,*4 no Bumpy,*4 no Tipsy,*4 no Beat,*4 no Dizzy:TIME=82.140640:LEN=3.150000:MODS=400% Drunk,400% Bumpy,400% Tipsy,400% Beat,*4 400% Dizzy:TIME=85.295761:LEN=0.500000:MODS=*4 no Drunk,*4 no Bumpy,*4 no Tipsy,*4 no Beat,*4 no Dizzy:TIME=82.140640:LEN=3.150000:MODS=400% Drunk,400% Bumpy,400% Tipsy,400% Beat,*4 400% Dizzy:TIME=85.295761:LEN=0.500000:MODS=*4 no Drunk,*4 no Bumpy,*4 no Tipsy,*4 no Beat,*4 no Dizzy:TIME=151.041519:LEN=1.043472:MODS=102400% Confusion,*8 Flip,*8 Invert,*8 Tornado,*8 Reverse:TIME=185.039215:LEN=1.700409:MODS=*0.5 Centered:TIME=186.739624:LEN=0.250000:MODS=*4 No Centered;

//---------------dance-single - ----------------
#NOTEDATA:;
#CHARTNAME:;
#STEPSTYPE:dance-single;
#DESCRIPTION:;
#CHARTSTYLE:;
#DIFFICULTY:Challenge;
#METER:16;
#RADARVALUES:1.000,1.000,0.584,1.000,1.000,2407.000,163.000,480.000,31.000,0.000,29.000,0.000,115.000,1.000,1.000,0.584,1.000,1.000,2407.000,163.000,480.000,31.000,0.000,29.000,0.000,115.000;
#CREDIT:TensaiKashou;
#OFFSET:-0.150;
#BPMS:0.000=228.600
,176.000=228.200
,344.000=230.000
,621.000=232.000
,653.000=236.000
,685.000=240.000
,701.000=243.000
,717.000=247.000
,756.667=11.905
,757.000=250.000
;
#STOPS:465.000=0.130
,482.500=0.130
,498.500=0.130
;
#DELAYS:464.000=0.391
;
#WARPS:64.000=16.000
,482.500=16.000
,498.500=16.000
;
#TIMESIGNATURES:0.000=4=4
,464.000=2=4
,466.000=4=4
,514.000=3=4
,517.000=4=4
;
#TICKCOUNTS:0.000=4
;
#COMBOS:0.000=1
,332.000=2=1
,336.000=1
;
#SPEEDS:0.000=1.000=0.000=0
,304.000=0.250=4.000=0
,312.000=1.000=8.000=0
,560.000=1.500=0.250=0
,563.000=1.000=0.250=0
,633.000=1.333=0.667=0
,633.667=1.000=0.333=0
,634.333=1.667=0.667=0
,635.000=1.000=0.333=0
,635.667=2.000=0.667=0
,636.333=1.000=0.333=0
,993.000=1.250=0.167=0
,993.667=1.500=0.167=0
,994.333=1.750=0.167=0
,995.000=2.000=0.167=0
,995.667=1.000=0.167=0
,1115.000=1.250=0.000=0
,1115.250=1.500=0.000=0
,1115.500=1.750=0.000=0
,1115.750=2.000=0.000=0
,1116.000=2.500=0.000=0
,1116.250=3.000=0.000=0
,1116.500=4.000=0.000=0
;
#SCROLLS:0.000=0.500
,1.000=1.000
,2.500=0.500
,3.500=2.000
,4.000=1.000
,6.000=0.333
,7.500=2.000
,8.000=1.000
,9.500=0.200
,12.000=0.500
,14.000=1.000
,16.500=2.000
,17.000=1.000
,17.500=0.500
,18.500=1.000
,19.500=2.000
,20.000=1.000
,22.500=0.333
,24.000=0.500
,25.000=2.000
,25.500=0.250
,27.500=0.333
,29.000=0.500
,30.000=0.250
,32.000=0.500
,33.000=1.000
,34.500=0.500
,35.500=2.000
,36.000=1.000
,38.000=0.333
,39.500=2.000
,40.000=1.000
,40.500=0.500
,42.500=0.333
,44.000=0.500
,46.000=1.000
,48.500=2.000
,49.000=1.000
,49.500=0.500
,50.500=1.000
,51.500=2.000
,52.000=1.000
,54.500=0.333
,56.000=0.500
,57.000=2.000
,57.500=0.250
,59.500=0.333
,61.000=0.500
,62.000=0.250
,62.500=0.500
,62.750=0.750
,63.000=1.000
,63.250=1.250
,63.500=1.500
,63.750=1.750
,64.000=2.000
,169.500=4.000
,169.750=2.000
,304.000=0.000
,308.500=0.333
,309.000=0.667
,309.500=1.000
,310.000=1.333
,310.500=1.667
,311.000=2.000
,312.000=0.000
,316.500=0.333
,317.000=0.667
,317.500=1.000
,318.000=1.333
,318.500=1.667
,319.000=2.000
,328.000=2.125
,329.000=2.250
,330.000=2.375
,331.000=2.500
,332.000=2.625
,332.500=2.750
,333.000=2.875
,333.500=3.000
,334.000=3.125
,334.250=3.250
,334.500=3.375
,334.750=3.500
,335.000=3.625
,335.250=3.750
,335.500=3.875
,335.750=4.000
,336.000=8.000
,337.000=7.000
,338.000=6.000
,339.000=5.000
,340.000=4.000
,341.000=3.500
,342.000=3.000
,343.000=2.500
,344.000=2.000
,409.000=0.000
,409.750=4.000
,410.000=0.000
,410.750=4.000
,411.000=0.000
,411.750=4.000
,412.000=2.000
,555.000=4.000
,555.250=2.000
,573.000=0.000
,574.500=2.000
,853.000=4.000
,853.333=2.000
,854.000=4.000
,854.333=2.000
,856.000=4.000
,856.333=2.000
,917.000=4.000
,917.333=2.000
,918.000=4.000
,918.333=2.000
,989.000=-2.000
,989.250=2.000
,996.000=16.000
,996.333=-32.000
,996.500=0.000
,997.000=1.000
,997.500=2.000
,998.000=0.500
,999.000=1.000
,1002.000=1.500
,1002.333=3.000
,1002.500=0.500
,1003.500=1.000
,1006.000=0.500
,1007.000=2.000
,1007.500=1.000
,1010.500=2.000
,1011.000=1.000
,1011.500=0.333
,1014.500=0.500
,1016.500=1.000
,1017.500=2.000
,1018.000=1.000
,1018.500=2.000
,1019.000=1.000
,1022.000=0.333
,1023.500=1.000
,1024.000=0.500
,1025.000=1.000
,1026.000=0.500
,1027.000=0.250
,1029.000=1.000
,1029.500=2.000
,1030.000=0.500
,1031.000=1.000
,1034.000=1.500
,1034.333=3.000
,1034.500=0.500
,1035.500=1.000
,1038.000=0.500
,1039.000=2.000
,1039.500=1.000
,1042.500=2.000
,1043.000=1.000
,1043.500=0.333
,1046.500=0.500
,1048.500=1.000
,1049.500=2.000
,1050.000=1.000
,1050.500=2.000
,1051.000=1.000
,1054.000=0.333
,1055.500=1.000
,1056.000=0.500
,1057.000=1.000
,1058.000=0.333
,1059.500=1.000
,1061.500=2.000
,1062.000=0.500
,1063.000=1.000
,1066.000=1.500
,1066.333=3.000
,1066.500=0.500
,1067.500=1.000
,1070.000=0.500
,1071.000=2.000
,1071.500=1.000
,1074.500=2.000
,1075.000=1.000
,1075.500=0.333
,1078.500=0.500
,1080.500=1.000
,1081.500=2.000
,1082.000=1.000
,1082.500=2.000
,1083.000=1.000
,1086.000=0.333
,1087.500=1.000
,1088.000=0.500
,1089.000=1.000
,1090.000=0.500
,1093.000=0.250
,1109.000=2.000
,1110.500=0.000
,1112.500=1.000
,1117.000=2.000
;
#FAKES:338.000=4.000
;
#LABELS:0.000=Song Start
;
#ATTACKS:TIME=82.139999:LEN=3.150000:MODS=400% Drunk,400% Bumpy,400% Tipsy,400% Beat,*4 400% Dizzy:TIME=85.300003:LEN=0.500000:MODS=*4 no Drunk,*4 no Bumpy,*4 no Tipsy,*4 no Beat,*4 no Dizzy:TIME=82.139999:LEN=3.150000:MODS=400% Drunk,400% Bumpy,400% Tipsy,400% Beat,*4 400% Dizzy:TIME=85.300003:LEN=0.500000:MODS=*4 no Drunk,*4 no Bumpy,*4 no Tipsy,*4 no Beat,*4 no Dizzy:TIME=82.139999:LEN=3.150000:MODS=400% Drunk,400% Bumpy,400% Tipsy,400% Beat,*4 400% Dizzy:TIME=85.300003:LEN=0.500000:MODS=*4 no Drunk,*4 no Bumpy,*4 no Tipsy,*4 no Beat,*4 no Dizzy:TIME=82.139999:LEN=3.150000:MODS=400% Drunk,400% Bumpy,400% Tipsy,400% Beat,*4 400% Dizzy:TIME=85.300003:LEN=0.500000:MODS=*4 no Drunk,*4 no Bumpy,*4 no Tipsy,*4 no Beat,*4 no Dizzy:TIME=82.139999:LEN=3.150000:MODS=400% Drunk,400% Bumpy,400% Tipsy,400% Beat,*4 400% Dizzy:TIME=85.300003:LEN=0.500000:MODS=*4 no Drunk,*4 no Bumpy,*4 no Tipsy,*4 no Beat,*4 no Dizzy:TIME=82.140640:LEN=3.150000:MODS=400% Drunk,400% Bumpy,400% Tipsy,400% Beat,*4 400% Dizzy:TIME=85.295761:LEN=0.500000:MODS=*4 no Drunk,*4 no Bumpy,*4 no Tipsy,*4 no Beat,*4 no Dizzy:TIME=82.140640:LEN=3.150000:MODS=400% Drunk,400% Bumpy,400% Tipsy,400% Beat,*4 400% Dizzy:TIME=85.295761:LEN=0.500000:MODS=*4 no Drunk,*4 no Bumpy,*4 no Tipsy,*4 no Beat,*4 no Dizzy:TIME=151.041519:LEN=1.043472:MODS=102400% Confusion,*8 Flip,*8 Invert,*8 Tornado,*8 Reverse:TIME=185.039215:LEN=1.700409:MODS=*0.5 Centered:TIME=186.739624:LEN=0.250000:MODS=*4 No Centered;
#NOTES:
// measure 0
0100
0000
0000
0000
0100
0000
0001
0000
1000
0000
0020
0000
0000
0000
0130
0001
,  // measure 1
1000
0000
1000
0000
0001
0000
0100
0000
0001
0000
0000
0000
0000
0000
0010
0001
,  // measure 2
1000
1000
0001
2000
0000
0000
0000
0000
,  // measure 3
3002
0000
2003
0000
3020
2030
3002
0203
,  // measure 4
0301
0000
1000
0010
1000
0000
0002
0000
0000
0000
0010
0000
1000
0000
1003
0100
,  // measure 5
0010
0100
1000
0100
1000
0020
0000
0000
,  // measure 6
2030
0000
0000
0000
3200
0320
0032
0000
0000
0000
0000
0000
0000
0000
0203
0000
,  // measure 7
0000
0000
0000
0000
0002
0003
0000
0000
0020
0000
0000
0000
0330
0000
0000
0000
,  // measure 8
0100
0000
0000
0000
0100
0000
0001
0000
1000
0000
0020
0000
0000
0000
0130
0001
,  // measure 9
1000
0000
1000
0000
0001
0000
0100
0000
0001
0000
0000
0000
0000
0000
0010
0001
,  // measure 10
1000
1000
0000
0001
0000
2000
0000
0000
,  // measure 11
3002
0000
2003
0000
3020
2030
3002
0203
,  // measure 12
0301
0000
1000
0010
1000
0000
0002
0000
0000
0000
0010
0000
1000
0000
1003
0100
,  // measure 13
0010
0100
1000
0100
1000
0020
0000
0000
,  // measure 14
2030
0000
0000
0000
3200
0320
0032
0000
0000
0000
0000
0000
0000
0000
0203
0000
,  // measure 15
0000
0000
0000
0000
0002
0003
0000
0000
0020
0000
0000
0000
0330
0000
0000
0000
,  // measure 16
L000
0000
L000
0000
000L
0000
L000
0L00
00L0
000L
L000
0000
000L
00L0
0L00
L000
,  // measure 17
000L
00L0
000L
0000
LL00
0000
000L
00L0
000L
0000
LL00
0000
000L
00L0
000L
00L0
,  // measure 18
0000
0000
0000
0000
0000
0000
0000
0200
,  // measure 19
0000
0000
0000
0000
0002
0003
0000
0000
0020
0000
0000
0000
0330
0000
0000
0000
,  // measure 20
1000
0000
1000
0000
0001
0000
1000
0100
0010
0001
1000
0000
0001
0010
0100
1000
,  // measure 21
0001
0010
0001
0000
1100
0000
0001
0010
0001
0000
1100
0000
0001
0010
0001
0010
,  // measure 22
1001
0100
1000
0000
0010
0000
0100
0001
0100
0000
0010
0000
0010
0000
0010
0000
,  // measure 23
4000
0000
3010
0000
0400
0000
0310
0000
1000
0010
0100
0001
2000
0000
3000
0000
,  // measure 24
0100
0010
0100
0010
0100
0000
0001
0010
1000
0010
0001
0000
0020
0030
2000
3002
,  // measure 25
2003
3020
2030
3200
0320
0032
1000
1003
,  // measure 26
1000
0100
1000
0000
0010
1000
0010
0000
0100
0001
0100
0000
0001
0010
0001
0000
,  // measure 27
1000
0100
0010
0001
0010
0100
1000
0100
0010
0001
0010
0000
0100
0000
0010
0000
,  // measure 28
0002
0000
1003
0000
0020
0000
0230
0000
0310
0100
1000
0100
0010
0000
0100
0000
,  // measure 29
1000
0100
1000
0000
0001
0000
0100
0001
0100
0000
0001
0000
0001
0000
1000
0000
,  // measure 30
1000
0000
0010
0100
0010
0000
0002
0003
2000
3000
0001
0010
0100
0000
0020
0030
,  // measure 31
1000
0000
0001
0000
0010
0000
0100
0000
0010
0000
0000
0000
0001
0000
0000
0000
1000
0000
0100
0000
1000
0000
0000
0000
0004
0000
0000
0003
0004
0000
0000
0003
,  // measure 32
1001
0000
1001
0000
0100
0010
1000
0000
0010
0100
0001
0000
0100
0000
0010
0000
,  // measure 33
1000
0100
0001
0000
0100
1000
0001
0000
2020
0000
3030
0220
0000
0330
0202
0303
,  // measure 34
0100
0001
0010
1000
0010
0000
0001
0100
0010
1000
0000
0100
0010
0000
0001
0000
,  // measure 35
1000
0100
0010
0001
0100
0010
0100
1000
0100
0010
0100
0001
0010
0100
0010
0001
,  // measure 36
2000
0000
3200
0000
2300
0000
3002
0000
0203
0000
0320
0000
1030
0100
0010
0001
,  // measure 37
1000
0010
0000
0010
0001
0000
1000
0010
0000
0010
0001
0000
0101
0000
1100
0000
,  // measure 38
1001
0000
0000
0000
1000
0001
1000
0001
0020
0000
0031
1000
0001
1000
0020
0000
,  // measure 39
1030
0000
0000
0000
0001
0010
0100
1000
0001
0010
0001
0000
0100
0001
0000
0001
,  // measure 40
1000
1000
0001
1000
1000
0001
1000
0001
,  // measure 41
1000
0100
0010
0100
1000
0000
0002
0000
0023
0000
0230
0000
0010
0000
0301
0000
,  // measure 42
1000
0000
0000
0000
0100
0000
1000
0000
0100
0000
0000
0000
0010
0001
0010
0000
1000
0000
0100
0000
0010
0000
0000
0000
0011
0000
0000
0000
0010
0000
0100
0000
,  // measure 43
1000
1000
0100
0100
0010
0010
0001
0001
,  // measure 44
0010
0001
0100
0000
0010
0000
0100
0000
0001
0000
0010
0000
0001
0000
0100
0000
,  // measure 45
0010
1000
0100
0000
0010
0000
0100
0000
1000
0000
0010
0000
1000
0000
0100
0000
,  // measure 46
1000
0010
1000
0000
0001
0000
0100
0000
0001
0000
2000
0000
0001
0000
3001
0000
,  // measure 47
1010
0000
1000
0000
0100
0000
0011
0000
0001
0000
0100
0000
1000
0010
0001
0010
,  // measure 48
1000
0000
0001
0000
0001
0010
0100
1000
0001
0000
1000
0000
1000
0100
0010
0001
,  // measure 49
1000
0100
1000
0000
0001
0100
0001
0000
2000
0000
0000
3020
0000
0000
0032
0000
,  // measure 50
1003
0100
0010
0100
0010
0001
1000
0100
0010
0001
1000
0100
0010
0100
0010
0001
,  // measure 51
1000
0100
0010
0100
0010
0001
1100
0000
0110
0000
0011
0000
,  // measure 52
1000
0000
0001
0100
0001
0100
0001
0000
1000
0010
1000
0010
1000
0000
0100
1000
,  // measure 53
0100
1000
0100
0000
0010
0001
0010
0001
0010
0000
0001
1000
0001
1000
0001
0000
,  // measure 54
1000
0001
1000
0001
1000
0000
0010
0100
0010
0100
0010
0000
0100
0010
0100
0010
,  // measure 55
0100
0000
0001
0010
0100
0010
0001
0000
1000
0100
0010
0100
1000
0000
0001
0000
,  // measure 56
0110
1000
0001
0110
1000
0001
1000
0001
,  // measure 57
1000
0010
1000
0100
1000
0000
0001
0010
0001
0100
0001
0000
1000
0001
0100
0010
,  // measure 58
2000
0000
3002
2003
0000
3020
0000
0032
,  // measure 59
0013
1000
0001
0000
0010
0001
1000
0000
0011
0000
0101
0000
1100
0000
1010
0000
,  // measure 60
0010
0001
0100
1000
0000
0000
0200
0000
0000
0320
0000
0000
2030
0000
0000
0001
0000
0000
0000
0000
0000
3001
0000
0000
,  // measure 61
1000
0100
1000
0000
0010
0000
1000
0010
0000
1000
0010
0000
1000
0010
1000
0010
,  // measure 62
1000
0100
0010
0001
1000
0000
0001
0010
0100
1000
0001
0000
1000
0001
1000
0001
,  // measure 63
1000
0010
0000
0100
0000
0010
1000
0001
0000
1000
0100
0010
0001
0010
0100
1000
,  // measure 64
0002
0000
0010
0000
2003
3000
2000
3000
0100
0001
0010
0001
0010
0000
0001
0100
,  // measure 65
0001
0000
1000
0000
0000
0000
0001
0000
0010
0001
1000
0100
0010
0001
1000
0100
,  // measure 66
0020
0000
1000
0000
0001
0000
1030
0000
1000
0010
0100
0010
0002
0003
0010
0000
,  // measure 67
1000
0100
1000
0001
0010
0000
0001
0100
0001
1000
0010
0000
0010
0100
0010
0100
,  // measure 68
0020
0032
0023
2030
3020
0032
0203
2300
,  // measure 69
3200
0000
0320
0000
2030
0000
3200
0000
0320
0000
0230
0000
0310
0001
0010
0001
,  // measure 70
1000
0000
0010
1000
0010
0000
0101
0000
0010
0100
1000
0000
0110
0000
0100
0001
,  // measure 71
1000
1000
0001
0001
1000
2000
0001
3001
,  // measure 72
1010
0000
0100
0000
0010
0000
0011
0000
0100
0000
0010
0000
1001
0000
0010
0001
,  // measure 73
0100
0001
0100
1000
0100
0020
1000
1030
,  // measure 74
1000
0000
0010
0100
0010
0000
0004
0000
1003
0010
0001
0010
1000
0001
1000
0100
,  // measure 75
1000
0010
0100
1000
0100
0001
0010
0100
0001
0100
0010
0001
1000
0010
0100
0000
,  // measure 76
2002
0000
0000
0000
,  // measure 77
0000
0000
0000
0000
0000
0000
3003
1001
,  // measure 78
0220
0000
0000
0000
,  // measure 79
0000
0000
0000
0000
0000
0000
0330
0110
,  // measure 80
1001
0000
0010
0100
1000
0100
0010
0000
0100
0010
0001
0010
0100
0000
0000
0000
,  // measure 81
1000
0100
1000
0000
0100
0000
1001
0000
0010
0001
0100
0010
1000
0100
0010
0100
,  // measure 82
2000
3000
2000
0000
0010
0000
3100
0000
0002
0003
0002
0000
0010
0000
0103
0000
,  // measure 83
1000
0001
1000
0001
1000
0001
1000
0001
1000
0001
1000
0001
1000
0001
1000
0001
,  // measure 84
2002
0000
0000
0000
0000
0000
0000
0000
0010
0010
0010
0010
0010
0100
0010
0100
,  // measure 85
0010
0010
0100
0100
0010
0010
0010
0100
0000
0000
0000
0000
0000
0000
3003
0000
,  // measure 86
0020
0030
4000
0000
3100
0000
0020
0030
0001
0000
0020
0030
0020
0030
0001
0000
,  // measure 87
1000
0010
1000
0000
0020
0030
0020
0030
0001
1000
0001
0000
0020
0030
0100
0000
,  // measure 88
1000
0100
1000
0000
0010
0000
0001
0000
0010
0000
1000
0100
0000
1000
0100
0000
,  // measure 89
1000
0000
1000
0000
1000
0000
0002
0003
1000
0000
1000
0000
0002
0003
1000
0000
,  // measure 90
1000
0010
0100
1000
0100
0000
2020
3030
0100
0000
0100
0000
0022
0033
0100
0000
,  // measure 91
0001
0000
0000
0010
0000
0000
0100
0000
0000
1000
0000
0000
0001
0000
0000
0000
0000
0000
1010
0000
0000
0000
0000
0000
0101
0000
0000
0000
0000
0000
1010
0000
0000
0000
0000
0000
0001
0000
0000
0000
0100
0000
0000
0000
0010
0000
0000
0000
,  // measure 92
2000
0000
0000
0000
3001
0010
0100
0010
0001
0000
0020
0000
0000
0000
0000
0000
,  // measure 93
2030
0100
0001
0001
0100
0001
0001
0100
,  // measure 94
3001
0100
0001
0100
0001
0000
0002
0003
2000
3000
0010
0000
0020
0030
0100
0000
,  // measure 95
0040
1030
0100
1000
0100
0000
0040
0030
1000
0001
0100
0010
1000
0001
1000
0001
,  // measure 96
1000
0000
0020
2030
3200
0000
0320
0030
0020
0030
0200
0300
0010
0100
0010
0100
,  // measure 97
2000
3000
0001
0010
0001
0000
2000
3000
0001
0010
0001
0000
2000
3000
2000
3000
,  // measure 98
0002
0023
0032
2003
3200
2300
3000
0022
,  // measure 99
0033
2020
3030
0202
0303
2200
0000
3300
,  // measure 100
0010
0000
0000
0000
2002
0000
0000
0000
3003
0000
0000
0000
0100
0000
0000
0000
2002
0000
3003
0000
0000
0000
0000
0010
1000
0000
0100
0000
0010
0000
0001
0000
,  // measure 101
1000
0000
0220
0330
0001
0010
0100
0010
0001
0000
0220
0330
1000
0000
1000
0100
,  // measure 102
2020
3030
0000
0000
1000
0100
0010
0001
1000
0100
0010
0001
1000
0100
0010
0001
,  // measure 103
0010
0000
0001
1000
0001
1000
0010
0000
1000
0001
1000
0001
0020
0000
0030
0000
,  // measure 104
0200
0320
0030
2000
0000
3002
0003
0000
,  // measure 105
0010
0000
0010
0000
1000
0100
0100
0001
1001
0000
1000
0000
0001
0000
1001
0000
,  // measure 106
0220
0330
1000
0010
0001
0010
1000
0000
1010
0000
0101
0000
0101
0000
0002
0000
,  // measure 107
0000
0023
0000
0230
0000
2300
0000
3000
,  // measure 108
0100
0000
0010
0100
0000
0010
0100
0001
1000
0100
0000
1000
0100
0000
0010
0001
,  // measure 109
1000
0000
2002
3003
1000
0100
1000
0000
0100
0000
2002
3003
0001
0100
0001
0000
,  // measure 110
2002
3003
1000
0010
0100
0000
1000
0010
0100
0000
1000
0010
0100
0001
0100
0000
,  // measure 111
2002
3003
1000
0010
0100
0001
0010
0100
1000
0010
0100
0001
0010
0100
1000
0001
,  // measure 112
1001
0000
0020
0032
2003
3000
0100
0000
2002
3003
0010
0100
0010
0100
0010
0000
,  // measure 113
0100
0000
0000
0000
0000
0000
0000
0000
0220
0000
0000
0330
0000
0000
0000
0000
0220
0000
0000
0330
0000
0000
0000
0000
0010
0000
0000
0000
0000
0000
0000
0000
2002
0000
0000
3003
0000
0000
0000
0000
2002
0000
0000
3003
0000
0000
0000
0000
,  // measure 114
2002
3003
1000
0100
0001
0000
0001
0100
1000
0000
1000
0100
0001
0000
0002
0000
,  // measure 115
0000
0203
0000
0320
0000
0032
0000
0000
,  // measure 116
0013
0000
0100
0000
2000
0000
3002
0003
2000
0000
0010
0000
0100
0000
3002
0000
,  // measure 117
0010
0000
0203
0000
1000
0000
0301
0000
2020
3030
0000
0220
0330
0000
0022
0033
,  // measure 118
0100
0010
0100
0000
2002
0000
3003
0000
1000
0010
1000
0000
0010
0000
0022
0033
,  // measure 119
2200
0000
3300
0000
0202
0303
0000
0000
2020
3030
0100
0000
0001
0100
0010
0000
,  // measure 120
0100
0001
0010
0100
1000
0000
2002
3003
0100
0001
0010
0000
0000
0000
0000
0000
,  // measure 121
0100
0000
4000
0000
3100
0000
0004
0000
1003
0000
0220
0330
0001
0000
1000
0000
,  // measure 122
0220
0330
0001
0100
0010
0000
0100
0001
0000
0000
0000
0000
0000
0000
0000
0000
,  // measure 123
0000
0000
0000
0000
,  // measure 124
0M00
0000
000M
0000
00M0
0000
0M00
0000
M000
0000
0000
0000
M00M
M00M
M00M
0000
0M00
0000
000M
0000
00M0
0000
0000
0000
0M00
0000
0000
0000
M000
M000
M000
M000
,  // measure 125
MM00
0000
0000
0000
000M
000M
000M
000M
M00M
0000
0000
0000
0MM0
0MM0
0MM0
0000
000M
0000
0000
0000
M000
0000
0000
0000
0MM0
0MM0
0MM0
0000
000M
0000
0M00
0000
,  // measure 126
00M0
0000
0M00
000M
0000
0000
0000
0000
0000
0000
0000
0000
0000
0000
0000
0000
,  // measure 127
0000
0000
0000
0000
,  // measure 128
0100
0001
0010
0100
1000
0000
2002
3003
0100
0001
0010
0000
0100
0000
4000
0000
,  // measure 129
3100
0000
0004
0000
1003
0000
0220
0330
0001
0000
1000
0000
0220
0330
0001
0100
,  // measure 130
0010
0000
0100
0001
2002
3003
1000
0000
0001
0000
0040
0000
0031
0000
1000
0100
,  // measure 131
1000
0000
0001
0000
1000
0000
1000
0000
1000
0000
0001
0100
1000
0100
0000
0010
,  // measure 132
2000
3200
0320
0032
2003
0000
0001
0000
0001
0000
3020
0000
0001
0000
2030
0000
,  // measure 133
3020
0000
0032
0000
2003
0000
3002
0000
0023
0000
2030
0000
3001
0010
2000
0000
,  // measure 134
3001
0100
2000
0000
3001
0010
2000
0000
3001
0100
0001
0010
0200
0000
0300
0000
,  // measure 135
1000
0010
0100
0000
0011
0010
0001
0000
4004
3003
1000
0100
1000
0000
0100
0000
,  // measure 136
1000
0100
0001
0100
0020
0030
0010
0001
1000
0100
1000
0100
0010
0001
4000
3000
,  // measure 137
0002
0003
4000
3000
0220
0330
0100
1000
0010
0000
0220
0330
0100
0001
0010
0000
,  // measure 138
0220
0330
1000
0100
0010
0000
0220
0330
0001
0100
0010
0000
4004
3003
0020
0030
,  // measure 139
1000
0001
0020
0030
1010
0000
0202
0000
0303
0000
1000
0010
1000
0000
0001
0000
,  // measure 140
0220
0330
0000
0000
1000
0000
0022
0033
1000
0000
0010
0001
0220
0330
2002
3003
,  // measure 141
0100
0010
0100
0000
2002
3003
1000
0100
0010
0100
1000
0100
0010
0001
0010
0100
,  // measure 142
0010
0001
0010
0100
2000
3000
0001
0010
0001
0100
0010
0000
1000
0010
1000
0100
,  // measure 143
0001
1000
0110
1001
0000
0000
2000
0000
,  // measure 144
3002
0000
0023
0000
0000
0000
0030
0000
0001
0100
0001
0100
0202
0303
0404
0000
,  // measure 145
0303
0000
2002
3003
0220
0330
1000
0000
1000
0001
1000
0000
1000
0000
1000
0000
,  // measure 146
1000
0100
0010
0001
1000
0100
1000
0100
0010
0100
0010
0001
0010
0001
0010
0100
,  // measure 147
0010
0100
1000
0000
2000
0000
3200
0320
0032
0000
0013
0100
0010
0100
1000
0001
,  // measure 148
0010
0100
1000
0001
0010
0001
1000
0000
1001
0000
0004
0000
1003
0000
0220
0330
,  // measure 149
0010
0100
0010
0000
1000
0010
0100
0001
0100
0010
1000
0000
0001
0100
0010
1000
,  // measure 150
0010
0100
0001
0000
1000
0010
1000
0000
0001
0100
0001
0000
2002
0000
0000
0000
,  // measure 151
3003
0000
0000
0000
0200
0000
0320
0000
1030
0100
0000
0010
0001
0000
1000
0100
,  // measure 152
0000
0000
0000
0010
0000
0000
0001
0000
0000
0000
0000
0000
1000
0000
0000
0000
0010
0000
0000
0000
0100
0000
0000
0000
0001
0000
0000
0000
0010
0000
0000
0000
0100
0000
0000
0000
1000
0000
0000
0000
0000
0000
0044
0000
0000
0033
0000
0000
,  // measure 153
0001
0000
0000
0000
0000
0000
4040
0000
0000
3030
0000
0000
0001
0000
0000
0000
0000
0000
0000
0000
1000
0000
0001
0000
0100
0000
0000
0000
0000
0000
0000
0000
0001
0000
0000
0000
1000
0000
0010
0000
1000
0000
0000
0000
1000
0000
0000
0000
,  // measure 154
0001
0000
0000
0000
0001
0000
0010
0000
1000
0000
0100
0000
0010
0000
0001
0000
0100
0000
0010
1000
0010
0000
0010
0001
,  // measure 155
0010
0000
0010
1000
0010
0000
2MM2
0000
0MM0
0000
0MM0
0000
0MM0
0000
0MM0
0000
0MM0
0000
0MM0
0000
0MM0
0000
0MM0
0000
,  // measure 156
0MM0
0MM0
0MM0
0MM0
0000
0000
0000
0000
0000
0000
0000
0000
,  // measure 157
3003
0000
0000
0000
1000
0100
1000
0100
0010
0000
0001
0000
0100
0000
0001
0000
,  // measure 158
0010
0000
0000
0001
0000
0000
2000
0000
0000
0000
3200
0000
0000
0000
0320
0000
0000
0000
0032
0000
0000
0000
0023
0000
,  // measure 159
0000
0000
0000
0000
0230
0000
0000
0000
0000
0000
0000
0000
1300
0000
0000
0010
0000
0000
0200
0000
0000
0000
0000
0000
0301
0000
0000
0000
0000
0000
0200
0000
0000
0000
0000
0000
0310
0000
0000
0000
0000
0000
0200
0000
0000
0000
0000
0000
,  // measure 160
1300
0000
0200
0000
0310
1000
0002
0000
0103
0000
0002
0000
1003
0000
0002
0000
,  // measure 161
0013
0000
0002
0000
1003
0100
1000
0000
0010
0000
0001
0000
0010
0000
1000
0000
,  // measure 162
1001
0000
0001
0010
0100
0001
0110
0000
,  // measure 163
0110
0000
0000
0000
1000
0000
1000
0000
0001
0010
0001
0000
1000
0010
1000
0000
,  // measure 164
0001
0100
0001
0000
1000
0100
1000
0100
0010
0001
0010
0001
0100
0010
0100
0010
,  // measure 165
1000
0100
1000
0100
1000
0000
0100
0000
0010
0000
0001
0000
0100
0000
0010
0000
,  // measure 166
1000
0000
0010
0000
1000
0010
0001
0000
1000
0100
0001
0000
0010
0000
0100
0000
,  // measure 167
1000
0001
1000
0001
1000
0100
1000
0000
0001
0100
0001
0000
1000
0010
0100
0001
,  // measure 168
0010
0001
1000
0100
1000
0010
0100
0010
0001
0010
0100
0010
1000
0001
1000
0001
,  // measure 169
0100
0010
1000
0001
1000
0000
1000
0000
0001
0100
0010
0000
0100
0000
0010
1000
,  // measure 170
0001
0000
0010
0000
0001
0010
0001
0000
0001
1000
0001
0000
0001
0100
0001
0000
,  // measure 171
0001
0000
0001
0000
1001
0000
1000
0000
0002
0203
0302
0003
2000
3200
2300
3000
,  // measure 172
0002
0203
0302
2003
3020
0030
0020
0030
2000
3000
0002
0003
2000
3000
0000
0000
,  // measure 173
0001
0000
0001
0000
1000
0000
0010
0000
0100
0000
0001
0000
1000
0010
1000
0010
,  // measure 174
0100
0000
0001
0000
0100
0000
0100
0000
0010
0000
0100
0000
0001
1000
0001
0000
,  // measure 175
0100
0010
1000
0200
0310
0002
1003
0200
,  // measure 176
0310
0002
1003
0020
0031
0020
1030
0020
,  // measure 177
0031
0000
0000
0020
0000
0000
1030
0000
0100
0000
1000
0000
0010
0000
0001
0000
0010
0000
1000
0000
0000
0010
0000
0000
,  // measure 178
0001
0000
0010
0000
1000
0000
0100
0001
0100
0000
1000
0000
0010
0000
0100
0000
,  // measure 179
0010
0000
1000
0000
0001
0100
0001
0000
0100
0001
0100
0000
0001
0100
0001
0000
,  // measure 180
0100
0001
0200
0302
0023
0030
0020
0030
0002
0003
2000
3000
0002
0003
2000
0000
,  // measure 181
3001
0010
0100
1000
0001
0000
1000
0000
0001
0000
0001
0000
0001
0000
1000
0000
,  // measure 182
0001
0000
0000
0001
0000
0000
1000
0000
0100
0000
0010
0000
1000
0000
0100
0000
0010
0000
1000
0000
0000
1000
0000
0000
,  // measure 183
0001
0000
0000
0000
0000
0000
1000
0000
0000
0000
0000
0000
0010
0000
0000
0000
1000
0000
0000
0000
0001
0000
0000
0000
0100
0000
0000
0000
0000
0000
0010
0000
0000
0000
0000
0000
1000
0000
0000
0100
0000
0000
1000
0000
0000
0000
0000
0000
,  // measure 184
0001
0100
0001
0000
1000
0010
1000
0000
0001
0010
0001
0000
0110
0000
2002
0000
,  // measure 185
0000
0000
0000
0000
0000
0000
3003
0000
0000
0000
0000
0000
1000
0000
0000
0000
0100
0000
0000
0000
1000
0000
0000
0000
0010
0000
0000
0000
0000
0000
0010
0000
0000
0000
0000
0000
1000
0000
0000
0100
0000
0000
1000
0000
0000
0000
0000
0000
,  // measure 186
0010
0010
0100
0001
0100
0001
0020
0032
,  // measure 187
2003
0000
0000
3200
0000
0000
2300
0000
0000
0000
0000
0000
3010
0000
0000
0000
1000
0000
0000
0000
0001
0000
0000
0000
0010
0000
0000
0000
0000
0000
0000
0000
0001
0000
0010
0000
0001
0000
0000
0000
0000
0000
0000
0000
1000
0000
0000
0000
,  // measure 188
0001
0000
0000
1000
0001
0020
0000
2030
0000
3001
0100
1000
,  // measure 189
0010
0100
0004
2003
0000
0000
3010
0000
0100
0010
0000
0100
,  // measure 190
0010
1000
0001
0010
0000
0100
0010
0000
0100
0010
0001
0010
,  // measure 191
0001
0100
0010
1000
0000
1000
0001
0000
0001
1000
0000
0001
,  // measure 192
1000
0010
0100
0010
0100
0010
1000
0000
1000
0010
0000
0100
,  // measure 193
0010
0000
0000
0000
0000
0000
1001
0000
0000
0000
1000
0001
1000
0000
0000
0000
0001
1000
0001
0000
0000
0000
0001
0000
,  // measure 194
1000
0000
0000
0000
1000
0000
2000
0000
0000
0000
3001
0000
0000
0000
0000
1000
0100
0010
0001
0000
0000
0000
2000
0000
,  // measure 195
3000
0000
0000
0000
2000
3000
2000
0000
0000
0000
0001
0000
0001
0000
0000
0000
0001
0000
0001
0000
0000
0000
0001
0000
,  // measure 196
3001
0000
0000
1000
0010
1000
0010
0100
0001
0010
0001
0010
,  // measure 197
0100
0000
1000
0000
0001
0000
2000
0000
0000
0000
0000
0000
3002
0000
0000
0000
0203
0000
0300
0000
0000
0000
1000
0001
,  // measure 198
1000
0000
0000
0000
0001
0000
1000
0000
0010
0000
0100
0000
0010
0000
0000
0000
1000
0010
1000
0000
0010
0000
0010
0000
,  // measure 199
0001
1000
0010
1000
0010
0100
0001
0010
0100
1000
0100
0010
,  // measure 200
0001
0010
0100
0001
0100
1000
0001
0010
1000
0001
0100
1000
,  // measure 201
0001
0000
0010
0000
1000
0000
1000
0100
1000
0000
0010
1000
0010
0000
0100
0010
0100
0000
0001
0100
0001
0000
0010
0001
,  // measure 202
0010
0000
0001
1000
0001
0000
0002
0000
0000
0000
1003
0000
0000
0000
0000
1000
0010
0100
0002
0000
0000
0000
2000
0000
,  // measure 203
3000
0000
1003
1000
0100
0010
0100
0010
0001
1000
0010
0100
,  // measure 204
1000
0000
0100
0000
0010
0000
0100
0000
1000
0000
0100
0000
0010
0000
0000
0000
0010
0100
1000
0000
0000
0000
0002
0000
,  // measure 205
0000
0000
1003
1002
0000
0000
1000
0000
0000
1000
0000
0000
,  // measure 206
1000
0000
1003
1002
0000
1000
1000
0000
0000
1000
0000
0000
,  // measure 207
1000
0000
1003
0001
0010
0100
1000
0010
0100
0001
0100
0010
,  // measure 208
1000
0100
0010
0001
0010
0100
1000
0100
0010
0001
0100
0010
,  // measure 209
1000
0010
0100
0020
0030
0010
0010
0000
0000
0010
0000
0000
,  // measure 210
0010
0000
0000
1010
0000
0000
0020
0030
0000
0011
0000
0000
,  // measure 211
0020
0030
0000
2002
3003
0002
2003
0000
3001
2000
0000
3001
,  // measure 212
2000
0000
0000
0000
3001
0010
0100
0000
0000
0000
0100
0000
1000
0000
0100
0000
0010
0000
0000
0000
0000
0000
0020
0000
,  // measure 213
0030
0000
0000
0000
0010
0000
0220
0000
0330
0000
0000
0000
0220
0000
0330
0000
0000
0000
1000
0001
1000
0000
0001
0000
,  // measure 214
0220
0000
0330
0000
0000
0000
0020
0030
0000
0000
0200
0302
0203
0300
0000
0000
0020
0030
0200
0300
0000
0000
0002
0003
,  // measure 215
0200
0300
0000
0000
0020
0030
1M00
0000
0010
0000
0100
0000
00M1
0000
0100
0000
0010
0000
1M00
0000
0010
0000
0100
0000
,  // measure 216
00M1
0100
0010
0100
0010
1000
0010
0100
0010
0001
0010
0100
,  // measure 217
0010
0000
1000
0000
0010
0000
1000
0010
0100
0000
0000
0000
1000
0010
0100
0000
0000
0000
1000
0010
0001
0000
0000
0000
,  // measure 218
1000
0010
0001
0000
0000
0000
1000
0000
0100
0000
1000
0000
0020
0000
0000
0000
0031
0000
0220
0000
0330
0000
2002
0000
,  // measure 219
3003
0220
0330
1000
0000
1000
0010
0000
0010
1000
0000
1000
,  // measure 220
0001
0000
0001
1000
0000
1000
0100
0000
0100
1000
0000
1000
,  // measure 221
1000
0000
1000
2020
0000
3030
2020
0000
3030
0001
0000
0000
,  // measure 222
0001
0000
0000
0000
2020
3030
0000
2020
3030
0001
0000
0000
,  // measure 223
0001
0000
0000
1000
0100
0010
0001
0010
0100
1000
0100
0010
,  // measure 224
0001
0000
0010
0000
0100
0000
1000
0000
0000
0000
1001
0000
0000
0000
0001
0000
0000
0000
1001
0000
0000
1000
0000
0000
,  // measure 225
1001
0000
0000
0001
0000
0000
1000
0010
1000
0010
1000
0010
1000
0000
0000
0000
0000
0000
0100
0000
0000
0000
0010
0000
,  // measure 226
0000
0000
0010
0001
0010
0001
1000
0010
0100
0010
1000
0100
,  // measure 227
0010
0001
0010
0001
0000
0000
0001
0000
0000
0001
0000
1000
,  // measure 228
0001
0000
1000
0001
1000
0001
1000
0001
1000
0001
0010
0100
,  // measure 229
0010
0000
0100
0000
1000
0000
2002
0000
3003
0000
0000
0000
2002
0000
3003
0000
0000
0000
1000
0001
0100
0000
0001
0000
,  // measure 230
0010
0000
0000
0000
0000
0000
1000
0001
0100
0000
0001
0000
1000
0000
0000
0000
0001
0000
1000
0001
0100
0000
0001
0000
,  // measure 231
0010
0000
0000
2020
3030
0100
0022
0033
0100
2200
3300
0010
,  // measure 232
0202
0303
0010
1000
0010
1000
0100
1000
0010
0100
0001
0010
,  // measure 233
0001
0000
0100
0000
0001
0000
0100
0001
0100
0000
0000
0000
0001
0000
0000
0000
0000
0000
0101
0000
0000
0000
0001
0000
,  // measure 234
1000
0000
0000
1000
0000
0010
0000
1000
0000
0001
0000
0100
,  // measure 235
0000
0001
0000
0100
0000
0100
1000
0001
0010
0001
1000
0010
,  // measure 236
0100
0000
0010
0000
0100
0000
0010
0000
0000
0000
0100
0010
0100
0000
0000
0000
0010
0100
0010
0000
1000
0000
0100
0000
,  // measure 237
0010
0100
0001
0100
1000
0001
0000
0001
0000
0001
1000
0010
,  // measure 238
1000
0100
0001
0100
0000
0100
1000
0010
0100
0010
0100
0010
,  // measure 239
1000
0100
1000
2100
0000
3100
2000
0100
3000
2010
0000
3010
,  // measure 240
2000
0010
3000
2001
0000
3001
2000
0001
3000
2001
0000
3010
,  // measure 241
2000
0000
0100
0000
3000
0000
1000
0010
1000
0000
0010
0000
1000
0000
0010
0000
1000
0000
0010
0000
1000
0000
0010
0000
,  // measure 242
1000
0010
1000
0001
0010
0100
0001
0100
0010
0110
0000
0000
,  // measure 243
0110
0000
0000
1000
0010
1000
0001
1000
0001
1000
0000
0000
,  // measure 244
1001
0000
0000
1001
0000
0000
1000
0000
0001
0000
0000
1001
,  // measure 245
0000
0000
0000
0000
0000
0000
0000
0000
0010
0000
0000
0000
1000
0000
0000
0100
0000
0000
0010
0000
0000
0001
0000
0000
1000
0000
0000
0100
0000
0000
0010
0000
0000
0001
0000
0000
1000
0000
0000
0000
0100
0000
0000
0000
0010
0000
0000
0000
,  // measure 246
0001
0000
0010
0000
0100
0000
1000
0000
0000
0100
0000
0000
0010
0000
0000
0001
0000
0000
0010
0000
0000
0000
0000
0000
,  // measure 247
0100
0000
0000
0000
0000
0000
0000
0000
0000
0000
0000
0000
0020
0000
0000
0030
0000
0000
0000
0000
0100
0000
0000
0000
0001
0000
0000
0000
1000
0000
0000
0000
0001
0000
0000
0000
1000
0000
0000
0000
0100
0000
0000
0000
1000
0000
0000
0000
,  // measure 248
0010
0100
0001
1000
0000
0100
0000
0010
0000
0001
0000
0010
,  // measure 249
2002
0000
0000
0000
3003
0000
0000
0000
0000
0000
0000
0000
1000
0000
0000
0000
0000
0000
0100
0000
0000
0010
0000
0000
0001
0000
0000
0000
0000
0000
0000
0000
0000
0000
0000
0000
0001
0000
0000
0000
0000
0000
0010
0000
0000
0000
0000
0000
,  // measure 250
0100
0000
0000
0001
0000
0000
0100
0000
0000
0001
0000
0000
0010
0000
1000
0001
0000
0000
0000
0000
0000
1000
0000
0000
,  // measure 251
0001
0000
0100
0000
0100
0000
0010
0000
1000
0000
0000
0000
1000
0010
1000
0000
,  // measure 252
0100
0000
0010
0000
0100
0000
1000
0000
0100
0000
0010
0001
0200
0000
0020
0000
,  // measure 253
0000
0000
0030
0000
0002
0000
0000
0000
0303
0000
0022
0033
0000
0000
2020
3030
,  // measure 254
0000
0000
2200
3300
0010
0000
1000
0100
1000
0000
0001
1000
0001
0000
0010
0000
,  // measure 255
0200
1000
1000
2300
3002
0000
0000
2003
,  // measure 256
3200
0000
1000
1300
0002
0003
4004
3003
,  // measure 257
0000
0000
0000
0000
1000
0000
0100
0010
0001
0000
0000
0000
0001
0000
0010
0000
,  // measure 258
0100
0000
0000
0001
0000
0000
0100
0000
0000
0001
0000
0000
0010
0000
1000
0001
0000
0000
0000
0000
0000
1000
0000
0000
,  // measure 259
0001
0000
0100
0000
0100
0000
0010
0000
1000
0000
0000
0000
1000
0010
1000
0000
,  // measure 260
0100
0000
0010
0000
0100
0000
1000
0000
0100
0000
0010
0001
0200
0000
0020
0000
,  // measure 261
0000
0000
0030
0000
0002
0000
0000
0000
0303
0000
0022
0033
0000
0000
2020
3030
,  // measure 262
0000
0000
2200
3300
0010
0000
1000
0100
1000
0000
0001
1000
0001
0000
0010
0000
,  // measure 263
0200
1000
1000
2300
3002
0000
0000
2003
,  // measure 264
3200
0000
1000
1300
0002
0000
0003
0010
,  // measure 265
0001
0000
1000
0000
1000
0000
0100
0010
0001
0000
0000
0000
0001
0000
0010
0000
,  // measure 266
0100
0000
0000
0001
0000
0000
0100
0000
0000
0001
0000
0000
0010
0000
1000
0001
0000
0000
0000
0000
0000
1000
0000
0000
,  // measure 267
0001
0000
0100
0000
0100
0000
0010
0000
1000
0000
0000
0000
1000
0010
1000
0000
,  // measure 268
0100
0000
0010
0000
0100
0000
1000
0000
0100
0000
0010
0001
0200
0000
0020
0000
,  // measure 269
0000
0000
0030
0000
0002
0000
0000
0000
0303
0000
0022
0033
0000
0000
2020
3030
,  // measure 270
0000
0000
2200
3300
0010
0000
1000
0100
1000
0000
0001
1000
0001
0000
0010
0000
,  // measure 271
0200
1000
1000
2300
3002
0000
0000
2003
,  // measure 272
3200
0000
1000
1300
0002
0000
0023
0000
,  // measure 273
0230
0010
0000
0010
,  // measure 274
0000
0010
0000
0010
,  // measure 275
0000
0300
2010
0000
0000
0000
0010
0000
,  // measure 276
0000
3000
0012
0000
0000
0000
0010
0000
,  // measure 277
0000
0000
0003
0000
1001
0000
0100
0010
0100
0000
1001
0000
0000
0000
0000
0000
,  // measure 278
0000
0000
0000
0000
0200
0300
0002
0003
0000
0000
0020
0030
0001
0010
0100
1000
,  // measure 279
0001
0010
4400
3300
2020
0000
3030
0202
0303
0000
0000
0000
0000
0000
0000
0000
;
