#VERSION:0.81;
#TITLE:聖人の塔;
#SUBTITLE:;
#ARTIST:Beridzebeth;
#TITLETRANSLIT:Seijin no Tou;
#SUBTITLETRANSLIT:;
#ARTISTTRANSLIT:;
#GENRE:;
#ORIGIN:;
#CREDIT:;
#BANNER:;
#BACKGROUND:;
#PREVIEWVID:;
#JACKET:;
#CDIMAGE:;
#DISCIMAGE:;
#LYRICSPATH:;
#CDTITLE:;
#MUSIC:Seijin no Tou.mp3;
#OFFSET:-0.441;
#SAMPLESTART:20.261;
#SAMPLELENGTH:9.897;
#SELECTABLE:YES;
#BPMS:0.000=194.000,
56.000=242.500,
61.000=291.000,
67.000=388.000,
451.000=194.000,
475.000=145.500,
478.000=97.000,
480.000=388.000,
544.021=194.000,
545.000=776.000,
547.000=194.000,
548.000=776.000,
550.000=194.000,
551.000=776.000,
553.000=194.000,
554.000=776.000,
556.000=194.000,
557.000=776.000,
559.000=194.000,
560.000=776.000,
562.000=194.000,
563.000=776.000,
565.000=194.000,
566.000=776.000,
568.000=194.000,
569.000=776.000,
571.000=194.000,
572.000=776.000,
640.000=97.000,
642.000=72.750,
643.500=48.500,
644.500=24.250,
645.000=1552.000;
#STOPS:574.000=0.178;
#DELAYS:;
#WARPS:61.000=0.375,
61.375=0.375,
61.750=0.375,
62.125=0.375,
62.500=0.375,
62.875=0.375,
63.250=0.375,
63.625=0.375,
64.000=0.375,
64.375=0.375,
64.750=0.375,
65.125=0.375,
65.500=0.375,
65.875=0.375,
66.250=0.375,
66.625=0.375,
479.000=0.125,
479.125=0.125,
479.250=0.125,
479.375=0.125,
479.500=0.125,
479.625=0.125,
479.750=0.125,
479.875=0.125;
#TIMESIGNATURES:0.000=4=4,
56.000=5=4,
61.000=6=4,
67.000=4=4,
475.000=3=4,
478.000=2=4,
480.000=4=4;
#TICKCOUNTS:0.000=4;
#COMBOS:0.000=1;
#SPEEDS:0.000=1.000=0.000=0;
#SCROLLS:0.000=1.000;
#FAKES:;
#LABELS:0.000=Song Start;
#BGCHANGES:;
#KEYSOUNDS:;
#ATTACKS:
;

//---------------dance-single - Blank----------------
#NOTEDATA:;
#CHARTNAME:;
#STEPSTYPE:dance-single;
#DESCRIPTION:Blank;
#CHARTSTYLE:;
#DIFFICULTY:Challenge;
#METER:13;
#RADARVALUES:1.000,1.000,0.743,1.000,0.132,818.000,90.000,219.000,0.000,0.000,0.000,0.000,0.000,1.000,1.000,0.743,1.000,0.132,818.000,90.000,219.000,0.000,0.000,0.000,0.000,0.000;
#CREDIT:TensaiKashou;
#OFFSET:-0.441;
#BPMS:0.000=194.000
,56.000=242.500
,61.000=291.000
,67.000=388.000
,451.000=194.000
,475.000=145.500
,478.000=97.000
,480.000=388.000
,544.021=194.000
,545.000=776.000
,547.000=194.000
,548.000=776.000
,550.000=194.000
,551.000=776.000
,553.000=194.000
,554.000=776.000
,556.000=194.000
,557.000=776.000
,559.000=194.000
,560.000=776.000
,562.000=194.000
,563.000=776.000
,565.000=194.000
,566.000=776.000
,568.000=194.000
,569.000=776.000
,571.000=194.000
,572.000=776.000
,640.000=97.000
,642.000=72.750
,643.500=48.500
,644.500=24.250
,645.000=1552.000
;
#STOPS:61.000=0.077
,61.375=0.077
,61.750=0.077
,62.125=0.077
,62.500=0.077
,62.875=0.077
,63.250=0.077
,63.625=0.077
,64.000=0.077
,64.375=0.077
,64.750=0.077
,65.125=0.077
,65.500=0.077
,65.875=0.077
,66.250=0.077
,66.625=0.077
,479.000=0.077
,479.125=0.077
,479.250=0.077
,479.375=0.077
,479.500=0.077
,479.625=0.077
,479.750=0.077
,479.875=0.077
,574.000=0.178
;
#DELAYS:;
#WARPS:61.000=0.375
,61.375=0.375
,61.750=0.375
,62.125=0.375
,62.500=0.375
,62.875=0.375
,63.250=0.375
,63.625=0.375
,64.000=0.375
,64.375=0.375
,64.750=0.375
,65.125=0.375
,65.500=0.375
,65.875=0.375
,66.250=0.375
,66.625=0.375
,479.000=0.125
,479.125=0.125
,479.250=0.125
,479.375=0.125
,479.500=0.125
,479.625=0.125
,479.750=0.125
,479.875=0.125
;
#TIMESIGNATURES:0.000=4=4
,56.000=5=4
,61.000=6=4
,67.000=4=4
,475.000=3=4
,478.000=2=4
,480.000=4=4
;
#TICKCOUNTS:0.000=4
;
#COMBOS:0.000=1
;
#SPEEDS:0.000=1.000=0.000=0
;
#SCROLLS:0.000=1.000
;
#FAKES:;
#LABELS:0.000=Song Start
;
#NOTES:
// measure 0
2000
3002
0203
0320
2030
3002
2003
3020
,  // measure 1
2030
3200
0320
0032
2003
3200
0320
0032
,  // measure 2
2003
3002
0203
0320
2030
3002
2003
3020
,  // measure 3
2030
3200
0320
0032
2003
3200
0320
0032
,  // measure 4
2003
3002
0203
0320
2030
3002
2003
3020
,  // measure 5
2030
3200
0320
0032
2003
3200
0320
0032
,  // measure 6
2003
3002
0203
0320
2030
3002
2003
3020
,  // measure 7
2030
3200
0320
0032
2003
3200
0320
0032
,  // measure 8
0203
0000
0000
0000
,  // measure 9
0000
0000
0000
0000
0302
0000
0000
0003
,  // measure 10
0002
0000
0000
0000
,  // measure 11
0023
0000
0000
0000
0032
0000
0000
0003
,  // measure 12
0002
0000
2003
0000
,  // measure 13
0001
0001
0001
0001
,  // measure 14
3001
0000
0000
0000
0000
1000
0000
0000
0000
0000
0001
0000
0000
0000
0000
1000
0000
0000
0000
0000
0001
0000
0000
0000
0000
1000
0000
0000
0000
0000
0001
0000
,  // measure 15
0000
0000
0000
1000
0000
0000
0000
0000
0010
0000
0000
1000
0000
0000
0010
0000
0000
1000
0000
0000
0001
0000
0000
0010
0000
0000
0001
0000
0000
0010
0000
0000
,  // measure 16
0100
0000
0000
1000
0000
0000
0100
0000
0000
1000
0000
0000
0001
0000
0000
0100
0000
0000
0001
0000
0000
0100
0000
0000
0001
0000
0000
0000
0000
0000
0000
0000
,  // measure 17
0100
0010
1000
0000
1010
0000
0000
0000
,  // measure 18
0011
0000
1010
0000
,  // measure 19
1000
0010
1000
0000
1001
0000
0001
0000
,  // measure 20
0100
0010
0100
0000
0001
0000
1000
0100
,  // measure 21
1000
0000
0010
0000
0010
0000
0100
0001
,  // measure 22
0100
0000
0010
0000
0010
0000
1000
0010
,  // measure 23
0100
0000
0001
0010
0100
0000
1000
0001
,  // measure 24
1000
0001
1000
0001
1000
0001
1000
0000
,  // measure 25
0001
0100
0001
0000
2000
0000
3000
0000
,  // measure 26
0002
0003
2000
3000
,  // measure 27
0001
0010
0001
0000
1000
0100
1000
0000
,  // measure 28
0001
1000
0001
0000
1000
0000
1000
0100
,  // measure 29
0010
0001
2000
0000
3002
0000
1003
0010
,  // measure 30
0100
0001
2000
0000
3002
0000
1003
0100
,  // measure 31
0010
0000
0001
0100
0010
0000
1000
0100
,  // measure 32
0001
0100
1000
0100
0001
0100
2000
0000
,  // measure 33
0000
0000
0000
0000
3001
0100
0001
0000
,  // measure 34
1000
0100
1000
0001
1000
0100
1000
0000
,  // measure 35
0100
1000
0010
0001
0010
0100
0001
0000
,  // measure 36
0010
0100
0010
0000
0100
1000
0100
0000
,  // measure 37
1000
0100
0010
0100
0010
0001
0100
1000
,  // measure 38
0100
0010
1000
0100
0010
0001
2000
0000
,  // measure 39
0000
3002
0000
0023
,  // measure 40
0000
0230
0000
1300
,  // measure 41
0010
0100
0010
0100
0001
0000
0010
0100
,  // measure 42
0010
0100
1000
0010
0100
0000
1000
0000
,  // measure 43
0100
0010
0001
0010
0100
0000
0001
0010
,  // measure 44
0100
1000
0010
0100
0001
0100
0002
0000
,  // measure 45
1003
0100
0010
0001
1000
0000
0001
0010
,  // measure 46
0100
1000
0001
0000
1000
0001
1000
0010
,  // measure 47
0100
0000
0001
0010
0100
0000
1000
0100
,  // measure 48
0010
0001
1000
0100
0010
0001
1000
0100
,  // measure 49
1000
0001
0220
0330
,  // measure 50
0220
0330
2002
3003
,  // measure 51
0010
0100
0010
0000
1001
0000
1001
0000
,  // measure 52
0100
0010
0100
0000
1001
0000
1000
0010
,  // measure 53
1000
0010
2000
0000
3001
0000
0001
0010
,  // measure 54
0001
0010
0002
0000
1003
0000
1000
0100
,  // measure 55
1000
0000
0010
0001
0010
0000
0100
0001
,  // measure 56
0100
0001
1000
0010
1000
0000
1001
0000
,  // measure 57
0110
0000
1001
0000
1000
0100
0010
0100
,  // measure 58
1000
0100
0010
0000
0001
0100
0010
0100
,  // measure 59
0001
0100
0010
0000
1000
0100
0010
0001
,  // measure 60
1000
0001
1000
0000
1010
0000
0011
0000
,  // measure 61
1000
0010
0100
1000
0100
0000
1001
0000
,  // measure 62
0001
0010
0100
0001
0100
0000
1000
0010
,  // measure 63
0100
0000
0001
0010
0100
0000
1100
0000
,  // measure 64
1010
0101
0011
2002
,  // measure 65
0000
0000
3003
0000
2000
3020
2030
0000
,  // measure 66
3002
0023
0032
0023
0032
0203
2300
0000
,  // measure 67
3200
0320
2030
3200
0320
0032
0203
0000
,  // measure 68
0320
0230
0320
2030
3002
0203
0320
0000
,  // measure 69
1030
0100
0010
0001
1000
0100
0010
0001
,  // measure 70
0100
0010
1000
0001
0100
0010
0200
0000
,  // measure 71
0000
0302
0000
0023
,  // measure 72
0000
0230
0300
1100
,  // measure 73
0010
0001
0010
0000
0101
0000
0010
1000
,  // measure 74
0010
1000
0010
1000
0010
0000
1010
0000
,  // measure 75
0100
0001
0100
0000
0011
0000
0100
0001
,  // measure 76
1000
0001
0010
0001
1000
0001
2000
0000
,  // measure 77
3010
0100
0010
0100
0001
0100
0001
0100
,  // measure 78
0010
1000
0010
1000
0100
1000
0100
1000
,  // measure 79
0010
1000
0001
0010
0100
1000
0010
0100
,  // measure 80
1000
0100
0010
1000
0001
0100
0202
0000
,  // measure 81
0303
0101
2200
3300
,  // measure 82
1100
2002
3003
1001
,  // measure 83
0022
0033
0011
2020
,  // measure 84
3030
1010
2000
0100
,  // measure 85
0000
0001
0100
0000
,  // measure 86
0100
0001
0100
0000
,  // measure 87
0100
0001
0100
0000
,  // measure 88
0100
0001
3100
2200
,  // measure 89
3300
1100
0202
0303
,  // measure 90
0101
2002
3003
1001
,  // measure 91
2020
3030
1010
0022
,  // measure 92
0033
0011
2002
3003
,  // measure 93
1001
2020
3030
1010
,  // measure 94
0022
0033
0011
2002
,  // measure 95
3003
1001
2200
3300
,  // measure 96
1100
0202
0303
0110
,  // measure 97
1000
0001
1000
0000
0110
0000
0001
1000
,  // measure 98
0001
0000
0110
0000
1000
0001
1000
0000
,  // measure 99
0110
0000
0001
1000
0001
0000
0110
0000
,  // measure 100
1000
0001
1000
0000
0110
0000
1000
0100
,  // measure 101
1000
0000
0001
0100
0001
0000
1000
0010
,  // measure 102
1000
0000
0001
0010
0001
0000
1000
0100
,  // measure 103
1000
0000
0001
0100
0001
0000
1000
0010
,  // measure 104
1000
0000
0001
0010
0001
0000
0010
1000
,  // measure 105
0100
1000
0010
0000
0010
0001
0100
0001
,  // measure 106
0010
0000
0010
1000
0100
1000
0010
0000
,  // measure 107
0010
0001
0100
0001
0010
0000
1000
0100
,  // measure 108
0010
0001
0010
0100
1000
0000
0001
0010
,  // measure 109
0100
1000
0100
0010
0001
0000
1000
0100
,  // measure 110
0010
0001
1000
0100
0010
0001
1000
0100
,  // measure 111
1000
0010
1000
0010
0100
0001
0100
0001
,  // measure 112
0010
0001
0010
0100
0010
0100
2000
0000
,  // measure 113
0000
3200
0000
0320
,  // measure 114
0000
0000
0032
0000
0000
0023
0230
0000
,  // measure 115
0000
2300
0000
3200
,  // measure 116
0000
0000
0320
0000
0000
0032
1003
0000
,  // measure 117
0100
0100
0100
1001
,  // measure 118
0100
0000
0000
0000
0000
0000
0000
0000
0100
0000
0000
0000
0000
0000
0000
0000
0100
0000
0000
0000
0000
0000
0000
0000
1001
0000
0000
0100
0000
0000
0010
0000
,  // measure 119
0000
0100
0000
0000
1001
0000
0000
0100
0000
0000
0010
0000
0000
0100
0000
0000
1010
0000
1000
0000
0011
0000
0001
0000
1000
0100
0010
0001
1000
0010
0100
0001
,  // measure 120
2000
3010
0200
0310
0200
0301
0020
0130
,  // measure 121
0020
0130
2000
3100
0020
0031
1001
0000
,  // measure 122
1000
0100
1000
0100
1000
0001
1000
0001
,  // measure 123
0010
0001
0010
0001
0010
0100
1001
0000
,  // measure 124
1000
0100
1000
0000
0001
0010
0100
0010
,  // measure 125
0001
0000
1000
0100
0010
0001
0010
0100
,  // measure 126
1000
0000
1010
0000
0100
0001
0000
0011
,  // measure 127
0000
0100
1000
0000
1001
0000
1001
0000
,  // measure 128
1000
0010
1000
0010
1000
0010
1000
0010
,  // measure 129
1000
0001
1000
0001
1000
0001
1000
0001
,  // measure 130
0010
0001
0010
0001
0010
0001
0010
0001
,  // measure 131
1000
0001
1000
0001
1000
0001
1000
0001
,  // measure 132
1000
0100
0010
0100
1000
0001
0010
0001
,  // measure 133
1000
0100
1000
0001
0010
0100
0010
0001
,  // measure 134
1000
0000
0100
0000
0010
0000
0001
0000
2000
3000
0200
0300
0020
0030
0002
0003
,  // measure 135
2000
0000
3200
0000
0320
0000
0032
0000
2003
0000
0200
3000
0020
0300
0002
0030
,  // measure 136
0200
0303
0000
0000
0000
0000
0000
0000
0000
0000
0000
0000
0000
0000
0000
0000
0000
0000
0000
0000
0000
0000
0000
0000
0202
0000
0303
0000
0000
0000
0000
0000
,  // measure 137
0000
0000
0000
0000
0000
0000
0000
0000
0000
0000
0000
0000
0000
0000
0000
0000
2020
0000
0000
3030
0000
0000
0000
0000
0000
0000
0000
0000
0000
0000
0000
0000
,  // measure 138
0000
0000
2020
3030
0000
0000
0000
0000
,  // measure 139
2200
0000
0000
0000
0000
3300
0000
0000
0000
0000
0000
0000
0000
0000
0000
0000
0000
0000
0000
0000
0000
0000
0000
0000
2200
0000
0000
0000
0000
0000
3300
0000
,  // measure 140
0000
0000
0000
0000
0000
0000
0000
0000
0000
0000
0000
0000
0000
0000
0000
0000
0022
0000
0000
0000
0000
0000
0000
0033
0000
0000
0000
0000
0000
0000
0000
0000
,  // measure 141
0000
0022
0033
0000
,  // measure 142
2002
0000
0000
3003
0000
0000
0220
0000
,  // measure 143
0000
0330
2002
0000
,  // measure 144
3003
0000
0100
0000
,  // measure 145
0001
0000
0101
0000
,  // measure 146
0001
0000
0100
0000
,  // measure 147
0101
0000
1000
0000
,  // measure 148
0010
0000
1010
0000
,  // measure 149
0010
0000
1000
0000
,  // measure 150
1010
0000
1000
0000
,  // measure 151
0100
0000
1100
0000
,  // measure 152
0100
0000
1000
0000
,  // measure 153
1100
0000
0010
0000
,  // measure 154
0001
0000
0011
0000
,  // measure 155
0001
0000
0010
0000
,  // measure 156
1000
0100
0010
0001
,  // measure 157
2000
3000
0200
0300
0020
0030
0002
0003
,  // measure 158
2000
3200
0320
0032
,  // measure 159
2003
0000
0200
3000
0020
0300
0002
0030
,  // measure 160
2000
0000
0000
0000
,  // measure 161
0000
3003
0000
0000
;
