#VERSION:0.81;
#TITLE:Paraiso;
#SUBTITLE:;
#ARTIST:ピノキオP;
#TITLETRANSLIT:;
#SUBTITLETRANSLIT:;
#ARTISTTRANSLIT:Pinocchio-P;
#GENRE:;
#ORIGIN:;
#CREDIT:;
#BANNER:Paraiso-bn.png;
#BACKGROUND:Paraiso-bg.png;
#PREVIEWVID:;
#JACKET:;
#CDIMAGE:;
#DISCIMAGE:;
#LYRICSPATH:;
#CDTITLE:;
#MUSIC:Paraiso.mp3;
#OFFSET:-1.100;
#SAMPLESTART:104.837;
#SAMPLELENGTH:8.135;
#SELECTABLE:YES;
#BPMS:0.000=472.000,
12.000=236.000,
14.000=472.000,
26.000=236.000,
28.000=472.000,
40.000=236.000,
42.000=472.000,
50.000=944.000,
62.000=1888.000,
70.000=472.000,
162.000=236.000,
166.000=472.000,
190.000=236.000,
194.000=472.000,
250.000=944.000,
277.000=472.000,
335.000=944.000,
337.000=1888.000,
341.000=3776.000,
349.000=7552.000,
365.000=15104.000,
397.000=30208.000,
461.000=60416.000,
589.000=472.000,
613.000=236.000,
617.000=472.000,
641.000=236.000,
645.000=472.000,
701.000=234.000,
703.000=472.000,
1127.000=944.000,
1131.000=472.000,
1155.000=236.000,
1159.000=472.000,
1183.000=236.000,
1187.000=472.000,
1243.000=118.000,
1245.000=472.000;
#STOPS:277.000=0.127,
701.000=0.513,
759.000=0.127,
760.000=0.127,
761.000=0.127,
762.000=0.127,
1127.000=0.127,
1129.000=0.127,
1302.000=0.127,
1304.000=0.127;
#DELAYS:;
#WARPS:126.500=1.000,
128.500=1.000,
130.500=1.000,
132.500=1.000,
262.000=15.000,
1403.000=1.000,
1404.000=1.000,
1405.000=1.000,
1406.000=1.000,
1407.000=1.000,
1408.000=1.000,
1409.000=1.000;
#TIMESIGNATURES:0.000=4=4,
12.000=2=4,
14.000=4=4,
26.000=2=4,
28.000=4=4,
40.000=2=4,
42.000=4=4,
50.000=8=4,
58.000=12=4,
70.000=4=4,
126.000=8=4,
134.000=4=4,
162.000=2=4,
166.000=4=4,
190.000=2=4,
194.000=4=4,
250.000=8=4,
258.000=20=4,
278.000=4=4,
334.000=15=4,
349.000=240=4,
589.000=4=4,
613.000=2=4,
617.000=4=4,
641.000=2=4,
645.000=4=4,
701.000=1=4,
703.000=4=4,
759.000=2=4,
763.000=4=4,
1155.000=2=4,
1159.000=4=4,
1183.000=2=4,
1187.000=4=4,
1243.000=1=4,
1245.000=4=4,
1301.000=3=4,
1307.000=4=4,
1403.000=3=4,
1406.000=4=4;
#TICKCOUNTS:0.000=4;
#COMBOS:0.000=1;
#SPEEDS:0.000=1.000=0.000=0;
#SCROLLS:0.000=1.000,
70.000=0.200,
72.000=0.225,
74.000=0.250,
76.000=0.275,
78.000=0.300,
80.000=0.325,
82.000=0.350,
84.000=0.375,
86.000=0.400,
88.000=0.425,
90.000=0.450,
92.000=0.475,
94.000=0.500,
96.000=0.525,
98.000=0.550,
100.000=0.575,
102.000=0.600,
104.000=0.625,
106.000=0.650,
108.000=0.675,
110.000=0.700,
112.000=0.725,
114.000=0.750,
116.000=0.775,
118.000=0.800,
120.000=0.825,
122.000=0.850,
124.000=0.875,
126.000=0.900,
130.000=0.925,
134.000=0.950,
136.000=0.975,
138.000=1.000,
827.000=0.500,
859.000=0.625,
891.000=0.750,
923.000=0.875,
955.000=0.500,
1011.000=0.000,
1063.000=0.125,
1067.000=1.000,
1540.000=1.125,
1542.000=1.250,
1544.000=1.375,
1546.000=1.500,
1548.000=1.625,
1550.000=1.750,
1552.000=1.875,
1554.000=2.000,
1556.000=2.125,
1558.000=2.250,
1560.000=2.375,
1562.000=2.500,
1564.000=2.625,
1566.000=2.750,
1568.000=2.875,
1570.000=3.000,
1572.000=3.125,
1574.000=3.250,
1576.000=3.375,
1578.000=3.500,
1580.000=3.625,
1582.000=3.750,
1584.000=3.875,
1586.000=4.000,
1588.000=8.000,
1590.000=0.000;
#FAKES:;
#LABELS:0.000=Song Start;
#BGCHANGES:;
#KEYSOUNDS:;
#ATTACKS:
;

//---------------dance-single - Blank----------------
#NOTEDATA:;
#CHARTNAME:;
#STEPSTYPE:dance-single;
#DESCRIPTION:Blank;
#CHARTSTYLE:;
#DIFFICULTY:Challenge;
#METER:17;
#RADARVALUES:1.000,1.000,1.000,1.000,0.505,1239.000,263.000,573.000,530.000,127.000,4.000,0.000,1.000,1.000,1.000,1.000,1.000,0.505,1239.000,263.000,573.000,530.000,127.000,4.000,0.000,1.000;
#CREDIT:TensaiKashou;
#OFFSET:-1.100;
#BPMS:0.000=472.000
,12.000=236.000
,14.000=472.000
,26.000=236.000
,28.000=472.000
,40.000=236.000
,42.000=472.000
,50.000=944.000
,62.000=1888.000
,70.000=472.000
,162.000=236.000
,166.000=472.000
,190.000=236.000
,194.000=472.000
,250.000=944.000
,277.000=472.000
,335.000=944.000
,337.000=1888.000
,341.000=3776.000
,349.000=7552.000
,365.000=15104.000
,397.000=30208.000
,461.000=60416.000
,589.000=472.000
,613.000=236.000
,617.000=472.000
,641.000=236.000
,645.000=472.000
,701.000=234.000
,703.000=472.000
,1127.000=944.000
,1131.000=472.000
,1155.000=236.000
,1159.000=472.000
,1183.000=236.000
,1187.000=472.000
,1243.000=118.000
,1245.000=472.000
;
#STOPS:277.000=0.127
,701.000=0.513
,759.000=0.127
,760.000=0.127
,761.000=0.127
,762.000=0.127
,1127.000=0.127
,1129.000=0.127
,1302.000=0.127
,1304.000=0.127
,1403.000=0.127
,1404.000=0.255
,1405.000=0.127
,1406.000=0.127
,1407.000=0.127
,1408.000=0.127
,1409.000=0.127
;
#DELAYS:;
#WARPS:126.500=1.000
,128.500=1.000
,130.500=1.000
,132.500=1.000
,262.000=15.000
,1403.000=1.000
,1404.000=1.000
,1405.000=1.000
,1406.000=1.000
,1407.000=1.000
,1408.000=1.000
,1409.000=1.000
;
#TIMESIGNATURES:0.000=4=4
,12.000=2=4
,14.000=4=4
,26.000=2=4
,28.000=4=4
,40.000=2=4
,42.000=4=4
,50.000=8=4
,58.000=12=4
,70.000=4=4
,126.000=8=4
,134.000=4=4
,162.000=2=4
,166.000=4=4
,190.000=2=4
,194.000=4=4
,250.000=8=4
,258.000=20=4
,278.000=4=4
,334.000=15=4
,349.000=240=4
,589.000=4=4
,613.000=2=4
,617.000=4=4
,641.000=2=4
,645.000=4=4
,701.000=1=4
,703.000=4=4
,759.000=2=4
,763.000=4=4
,1155.000=2=4
,1159.000=4=4
,1183.000=2=4
,1187.000=4=4
,1243.000=1=4
,1245.000=4=4
,1301.000=3=4
,1307.000=4=4
,1403.000=3=4
,1406.000=4=4
;
#TICKCOUNTS:0.000=4
;
#COMBOS:0.000=1
;
#SPEEDS:0.000=1.000=0.000=0
;
#SCROLLS:0.000=1.000
,70.000=0.200
,72.000=0.225
,74.000=0.250
,76.000=0.275
,78.000=0.300
,80.000=0.325
,82.000=0.350
,84.000=0.375
,86.000=0.400
,88.000=0.425
,90.000=0.450
,92.000=0.475
,94.000=0.500
,96.000=0.525
,98.000=0.550
,100.000=0.575
,102.000=0.600
,104.000=0.625
,106.000=0.650
,108.000=0.675
,110.000=0.700
,112.000=0.725
,114.000=0.750
,116.000=0.775
,118.000=0.800
,120.000=0.825
,122.000=0.850
,124.000=0.875
,126.000=0.900
,130.000=0.925
,134.000=0.950
,136.000=0.975
,138.000=1.000
,827.000=0.500
,859.000=0.625
,891.000=0.750
,923.000=0.875
,955.000=0.500
,1011.000=0.000
,1063.000=-0.125
,1067.000=1.000
,1540.000=1.125
,1542.000=1.250
,1544.000=1.375
,1546.000=1.500
,1548.000=1.625
,1550.000=1.750
,1552.000=1.875
,1554.000=2.000
,1556.000=2.125
,1558.000=2.250
,1560.000=2.375
,1562.000=2.500
,1564.000=2.625
,1566.000=2.750
,1568.000=2.875
,1570.000=3.000
,1572.000=3.125
,1574.000=3.250
,1576.000=3.375
,1578.000=3.500
,1580.000=3.625
,1582.000=3.750
,1584.000=3.875
,1586.000=4.000
,1588.000=8.000
,1590.000=0.000
;
#FAKES:;
#LABELS:0.000=Song Start
;
#NOTES:
// measure 0
1001
0000
0110
0000
,  // measure 1
1000
0010
0001
0000
0000
0000
0010
0000
,  // measure 2
0000
0011
0000
1001
,  // measure 3
0220
0000
2002
3333
1100
0000
0000
0000
,  // measure 4
0101
0000
0000
0000
0000
0000
0000
0000
1000
0000
0001
0000
1MM0
0MM1
1MM0
0MM1
,  // measure 5
1MM0
1010
0000
0101
,  // measure 6
0000
0000
0011
0000
2200
0011
0000
3311
,  // measure 7
1220
0001
1000
0330
,  // measure 8
1000
0010
0100
0000
0000
0000
0002
0000
,  // measure 9
0000
0200
0000
0020
,  // measure 10
1333
0000
0100
0010
,  // measure 11
0001
0010
1000
0100
,  // measure 12
0010
4M04
00M0
0M00
,  // measure 13
00M0
0M00
00M0
0M00
,  // measure 14
00M0
0M00
30M3
0000
,  // measure 15
0110
0000
2MM2
0M00
,  // measure 16
0MM0
00M0
0MM0
0M00
,  // measure 17
0MM0
0000
0000
0000
0000
0000
0000
0000
0000
0000
0000
0000
0000
0000
0000
0000
0000
0000
0000
0000
0000
0000
0000
0000
0000
0000
0000
0000
0000
0000
0000
0000
0000
0000
0000
0000
0000
0000
0000
0000
0000
0000
0000
0000
0000
0000
0000
0000
00M0
0000
0000
0000
0000
0000
0000
0000
0000
0000
0000
0000
0000
0000
0000
0000
0000
0000
0000
0000
0000
0000
0000
0000
0000
0000
0000
0000
0000
0000
0000
0000
0000
0000
0000
0000
0000
0000
0000
0000
0000
0000
0000
0000
0000
0000
0000
3000
2MM3
3000
0000
0000
0000
0000
0000
0000
0000
0000
0000
0000
0000
0000
0000
0000
0000
0000
0000
0000
0000
0000
0000
0000
0002
0003
0000
0000
0000
0000
0000
0000
0000
0000
0000
0000
0000
0000
0000
0000
0000
0000
0000
0000
0000
0000
0000
0000
0200
0300
0000
0000
0000
0000
0000
0000
0000
0000
0000
0000
0000
0000
0000
0000
0000
0000
0000
0000
0000
0000
0000
0000
0000
0000
0000
0000
0000
0000
0000
0000
0000
0000
0000
0000
0000
0000
0000
0000
0000
0000
0000
0000
0000
0000
0000
0000
,  // measure 18
0010
0001
0000
0010
,  // measure 19
2000
3000
0000
0000
0000
0000
0000
0000
0200
0300
0000
0000
0000
0000
0000
0000
0020
0030
0000
0000
0000
0000
0000
0000
0000
0000
0000
0000
0000
0000
0000
0000
0001
0000
0000
0000
0000
0000
0000
0000
0000
0000
0000
0000
0000
0000
0000
0000
0010
0000
0000
0000
0000
0000
0000
0000
0000
0000
0000
0000
0000
0000
0000
0000
,  // measure 20
0000
0000
0000
0000
0000
0000
0000
0000
0000
0000
0000
0000
0001
0000
0000
0000
0000
0000
0000
0000
0000
0000
0000
0000
0200
0300
0000
0000
0000
0000
0020
0030
0000
0000
0000
0000
0200
0300
0000
0000
0000
0000
0000
0000
0000
0000
0000
0000
,  // measure 21
0001
0000
0000
0000
0000
0000
0000
0000
1000
0000
0000
0000
0000
0000
0000
0000
0002
0003
0000
0000
0020
0030
0000
0000
0002
0003
0000
0000
0000
0000
0000
0000
,  // measure 22
1000
0010
0000
0100
,  // measure 23
2MM0
0000
0000
3000
0000
0000
0002
0000
0MM0
0003
0000
0000
2000
0000
0000
3000
0MM0
0000
0000
0000
0000
0000
0000
0000
0MM1
0000
0000
0000
0000
0000
0000
0000
0000
0000
0000
0000
0100
0000
0000
0000
0000
0000
0000
0000
0000
0000
0000
0000
,  // measure 24
0000
0000
0000
0000
0000
0000
0001
0000
0000
0000
0000
0000
2M00
0000
3000
0020
0000
0030
2M00
0000
3000
0020
0000
0030
,  // measure 25
2M00
0000
3000
0000
0000
0000
0010
0000
0000
M000
0000
0000
010M
0000
0000
0000
0000
0000
0100
0000
0000
0000
0000
0000
,  // measure 26
1000
0100
0100
0010
,  // measure 27
0100
0010
1101
0000
,  // measure 28
0000
0010
2MM0
32MM
,  // measure 29
M32M
MM32
1MM3
0010
,  // measure 30
1000
0002
1003
0010
,  // measure 31
1000
0000
0000
0000
0000
0000
0000
0000
0000
0000
0000
0000
0000
0000
0000
0000
0000
0000
0000
0000
0000
0000
0000
0000
0000
0000
0000
0000
0000
0000
0000
0000
0000
0000
0000
0000
0000
0000
0000
0000
0000
0000
0000
0000
0000
0000
0000
0000
0002
0000
0000
0000
0000
0000
0000
0000
0000
0000
0000
0000
0000
0000
0000
0000
0000
0000
0000
0000
0000
0000
0000
0000
0000
0000
0000
0000
0000
0000
0000
0000
0000
0000
0000
0000
0000
0000
0000
0000
0000
0000
0000
0000
0000
0000
0000
0003
1100
0000
0000
0000
0000
0000
0000
0000
0000
0000
0000
0000
0000
0000
0000
0000
0000
0000
0000
0000
0000
0000
0000
0000
0000
0000
0000
0000
0000
0000
0000
0000
0000
0000
0000
0000
0000
0000
0000
0000
0000
0000
0000
0000
0000
0000
0000
0000
0000
0000
0000
0000
0000
0000
0000
0000
0000
0000
0000
0000
0000
0000
0000
0000
0000
0000
0000
0000
0000
0000
0000
0000
0000
0000
0000
0000
0000
0000
0000
0000
0000
0000
0000
0000
0000
0000
0000
0000
0000
0000
0000
0000
0000
0000
0000
0000
,  // measure 32
0011
0000
1100
0000
,  // measure 33
0011
0000
2002
0000
,  // measure 34
0000
3113
1000
0010
,  // measure 35
0001
0000
0010
0000
1000
0001
1000
0000
,  // measure 36
0010
1010
0010
0011
,  // measure 37
0010
0110
1001
1000
,  // measure 38
1001
0001
1000
0100
,  // measure 39
0001
0010
1010
1100
,  // measure 40
0001
0000
0000
0000
1001
0000
0000
0000
0100
0000
0001
0000
0010
0001
0010
0001
,  // measure 41
1000
0100
0010
MM01
1100
0000
0010
0000
,  // measure 42
1100
0000
0010
0000
0101
1010
0101
0000
,  // measure 43
1000
0100
0001
1000
,  // measure 44
0001
0000
0010
0000
0010
0000
0002
0003
,  // measure 45
0020
0030
0001
0000
2000
3000
0010
0000
,  // measure 46
0200
0300
0002
0003
0020
0030
0002
0003
,  // measure 47
2000
0000
3000
0000
0020
0000
0030
0000
0010
0000
0010
0000
0100
0000
0010
0100
,  // measure 48
0010
0100
0100
0010
1000
0100
0010
0001
,  // measure 49
1000
0000
0010
0000
1000
0000
0001
0100
,  // measure 50
0001
0000
0100
0000
0010
0100
0001
0100
,  // measure 51
0010
1000
0100
0010
0002
0000
1003
0000
,  // measure 52
2000
0000
3001
0000
0100
0001
1000
0010
,  // measure 53
0100
0000
0000
0010
0000
0000
1000
0000
0001
0000
0010
0000
,  // measure 54
0001
0000
0000
0000
1000
0000
0000
0000
0010
0000
0000
0000
1000
0000
0000
0100
0000
0000
1000
0000
0000
0010
0000
0000
,  // measure 55
0100
0001
0010
0001
22MM
3300
220M
3300
,  // measure 56
22M0
3300
22MM
3300
0010
1000
0001
0010
,  // measure 57
0001
0100
0010
1000
0010
0000
0100
0000
,  // measure 58
0010
0100
0010
0100
1000
0000
0001
0000
,  // measure 59
0100
0220
1000
0001
,  // measure 60
1000
0001
1000
0001
1000
0000
1000
0000
,  // measure 61
0001
0001
1000
0001
,  // measure 62
1331
0000
0000
0000
,  // measure 63
2000
0000
0000
0000
,  // measure 64
0002
0000
0020
0000
,  // measure 65
0000
0000
3133
0000
,  // measure 66
0000
0000
0000
0000
,  // measure 67
0000
0000
0000
0000
,  // measure 68
0000
0000
0000
0000
,  // measure 69
0000
0000
1000
0010
,  // measure 70
1000
0001
1000
0000
0010
0000
0100
0001
,  // measure 71
0100
0000
0001
0000
0010
0001
0010
0000
,  // measure 72
0100
0000
1000
0010
1000
0000
0002
0003
,  // measure 73
2000
3000
0020
0030
1000
0100
1000
0000
,  // measure 74
0001
0000
1000
0010
1000
0000
0001
0000
,  // measure 75
1000
0100
1000
0000
0001
0000
0001
0000
,  // measure 76
1000
0000
0000
0000
1MM0
0MM0
0MM0
0MM0
0MM1
0MM0
0MM0
0000
0001
0000
0000
0000
,  // measure 77
0100
0000
0100
0010
0100
0000
0001
0000
,  // measure 78
0010
0001
0010
0000
0100
0000
0010
0100
,  // measure 79
0010
0000
0001
0000
0100
1000
0100
0000
,  // measure 80
0001
0010
0010
1000
,  // measure 81
0010
0002
1003
0020
,  // measure 82
0230
0302
2003
3200
,  // measure 83
0000
0000
0000
0000
0000
0000
0000
0000
0000
0000
0000
0000
0000
0000
0000
0000
0000
0000
0000
0000
0000
0000
0000
0000
0000
0000
0000
0000
0000
0000
0000
0000
0000
0000
0000
0000
0000
0000
0000
0000
0000
0000
0000
0000
0000
0000
0000
0000
2300
0000
0000
0000
0000
0000
0000
0000
0000
0000
0000
0000
0000
0000
0000
0000
0000
0000
0000
0000
0000
0000
0000
0000
0000
0000
0000
0000
0000
0000
0000
0000
0000
0000
0000
0000
0000
0000
0000
0000
0000
0000
0000
0000
0000
0000
0000
3000
2MM0
0000
0000
0000
0000
0000
0000
0000
0000
0000
0000
0000
0000
0000
0000
0000
0000
0000
0000
0000
0000
0000
0000
0000
0000
0000
0000
0000
0000
0000
0000
0000
0000
0000
0000
0000
0000
0000
0000
0000
0000
0000
0000
0000
0000
0000
0000
0000
32MM
0000
0000
0000
0000
0000
0000
0000
0000
0000
0000
0000
0000
0000
0000
0000
0000
0000
0000
0000
0000
0000
0000
0000
0000
0000
0000
0000
0000
0000
0000
0000
0000
0000
0000
0000
0000
0000
0000
0000
0000
0000
0000
0000
0000
0000
0000
0000
,  // measure 84
0000
M32M
0000
0000
,  // measure 85
0000
MM32
0000
0000
,  // measure 86
0000
0000
0000
0000
,  // measure 87
0000
2MM3
0000
0000
,  // measure 88
0000
0000
0000
0000
,  // measure 89
0000
0000
0000
0000
,  // measure 90
0000
0000
0000
0000
,  // measure 91
0000
32MM
0000
0000
,  // measure 92
0000
0000
0000
0000
,  // measure 93
0000
0000
0000
0000
,  // measure 94
0000
0000
0000
0000
,  // measure 95
0000
0000
0000
0000
,  // measure 96
0000
0000
0000
0000
,  // measure 97
0000
0000
0000
0000
,  // measure 98
0000
0000
0000
0000
,  // measure 99
0000
M32M
0000
0000
,  // measure 100
0000
0000
0000
0000
,  // measure 101
0000
0000
0000
0000
,  // measure 102
0000
0000
0000
0000
,  // measure 103
0000
0000
0000
0000
,  // measure 104
0000
0000
0000
0000
,  // measure 105
0000
0000
0000
0000
,  // measure 106
0000
0000
0000
0000
,  // measure 107
0000
0000
0000
0000
,  // measure 108
0000
0000
0000
0000
,  // measure 109
0000
0000
0000
0000
,  // measure 110
0000
0000
0000
0000
,  // measure 111
0000
0000
0000
0000
,  // measure 112
0000
0000
0000
0000
,  // measure 113
0000
0000
0000
0000
,  // measure 114
0000
0000
0000
0000
,  // measure 115
0000
MM32
0000
0000
,  // measure 116
0000
0000
0000
0000
,  // measure 117
0000
0000
0000
0000
,  // measure 118
0000
0000
0000
0000
,  // measure 119
0000
0000
0000
0000
,  // measure 120
0000
0000
0000
0000
,  // measure 121
0000
0000
0000
0000
,  // measure 122
0000
0000
0000
0000
,  // measure 123
0000
0000
0000
0000
,  // measure 124
0000
0000
0000
0000
,  // measure 125
0000
0000
0000
0000
,  // measure 126
0000
0000
0000
0000
,  // measure 127
0000
0000
0000
0000
,  // measure 128
0000
0000
0000
0000
,  // measure 129
0000
0000
0000
0000
,  // measure 130
0000
0000
0000
0000
,  // measure 131
0000
0000
0000
0000
,  // measure 132
0000
0000
0000
0000
,  // measure 133
0000
0000
0000
0000
,  // measure 134
0000
0000
0000
0000
,  // measure 135
0000
0000
0000
0000
,  // measure 136
0000
0000
0000
0000
,  // measure 137
0000
0000
0000
0000
,  // measure 138
0000
0000
0000
0000
,  // measure 139
0000
0000
0000
0000
,  // measure 140
0000
0000
0000
0000
,  // measure 141
0000
0000
0000
0000
,  // measure 142
0000
0000
0000
0000
,  // measure 143
0000
0000
0000
0000
,  // measure 144
0000
0000
0000
0000
,  // measure 145
0000
0000
0000
0000
,  // measure 146
0000
0000
0000
0000
,  // measure 147
0000
1MM3
0000
1100
,  // measure 148
0000
0000
1100
0011
1100
0000
0000
0000
,  // measure 149
1100
0000
0101
0000
,  // measure 150
1110
0111
0000
1111
,  // measure 151
0000
1011
0000
1101
,  // measure 152
0000
0000
1010
0101
1010
0000
0000
0000
,  // measure 153
1111
0000
1000
0001
0100
0001
1000
0100
,  // measure 154
1000
0001
1110
0000
0000
0000
1110
0000
,  // measure 155
0000
0000
1100
0011
1100
0000
0000
0000
,  // measure 156
0111
0000
1110
0000
,  // measure 157
1011
1101
0000
1111
,  // measure 158
0000
0000
0000
0000
0000
0000
0000
0000
0000
0000
0000
0000
0000
0000
0000
0000
2222
3333
0000
0000
0000
0000
0000
0000
0000
0000
0000
0000
0000
0000
0000
0000
0000
0000
0000
0000
0000
0000
0000
0000
0000
0000
0000
0000
0000
0000
0000
0000
2222
0000
3333
0000
0000
0000
0000
0000
0000
0000
0000
0000
0000
0000
0000
0000
,  // measure 159
0000
0000
0000
0000
2020
3030
0202
0000
2323
0000
0000
0000
3030
0000
0000
0000
,  // measure 160
0000
0000
0000
0000
0000
0000
0022
2233
3322
0033
0000
0000
2200
3322
2233
3322
,  // measure 161
2233
3300
0022
0033
2200
0000
0000
0000
3320
0000
0000
0000
0032
0000
0000
0000
,  // measure 162
2003
3200
0320
2030
,  // measure 163
3002
2003
3200
0320
,  // measure 164
0032
0000
2003
3200
0320
0032
2003
3200
,  // measure 165
0320
0032
0023
0000
0230
0000
0302
0000
,  // measure 166
2003
3020
0230
2300
,  // measure 167
3002
2203
3322
2233
,  // measure 168
3322
0000
0000
0000
0000
0000
0000
0000
0000
0000
0000
0000
0000
0000
0000
0000
0000
0000
0000
0000
0000
0000
0000
0000
0000
0000
0000
0000
0000
0000
0000
0000
0000
0000
0000
0000
0000
0000
0000
0000
0000
0000
0000
0000
0000
0000
0000
0033
0022
0000
0000
0000
0000
0000
0000
0000
0000
0000
0000
0000
0000
0000
0000
0000
0000
0000
0000
0000
0000
0000
0000
0000
0000
0000
0000
0000
0000
0000
0000
0000
0000
0000
0000
0000
0000
0000
0000
0000
0000
0000
0000
0000
0000
0000
0000
0000
2233
0000
0000
0000
0000
0000
0000
0000
0000
0000
0000
0000
0000
0000
0000
0000
0000
0000
0000
0000
0000
0000
0000
0000
0000
0000
0000
0000
0000
0000
0000
0000
0000
0000
0000
0000
0000
0000
0000
0000
0000
0000
0000
0000
0000
0000
0000
0000
3322
0000
0000
0000
0000
0000
0000
0000
0000
0000
0000
0000
0000
0000
0000
0000
0000
0000
0000
0000
0000
0000
0000
0000
0000
0000
0000
0000
0000
0000
0000
0000
0000
0000
0000
0000
0000
0000
0000
0000
0000
0000
0000
0000
0000
0000
0000
0000
,  // measure 169
2233
3320
0230
2300
,  // measure 170
3002
0023
0230
0320
,  // measure 171
0230
2300
3020
0230
,  // measure 172
2300
3020
0032
2003
,  // measure 173
3002
2000
0200
0320
,  // measure 174
0230
0320
0230
0320
,  // measure 175
0230
0000
0000
0000
3313
0000
0000
0000
M0M0
0M0M
M0M0
0M0M
1010
0000
0000
0000
,  // measure 176
0001
0100
1001
0000
,  // measure 177
0110
0000
1001
0000
,  // measure 178
1000
0010
0100
0000
0010
1000
0001
0000
,  // measure 179
0100
0001
0100
0000
0010
0001
0100
0000
,  // measure 180
0001
1000
0010
0100
,  // measure 181
0001
1000
0100
1000
,  // measure 182
0001
0001
1000
0001
,  // measure 183
0001
0000
0220
0000
0330
0000
1000
0001
,  // measure 184
1000
0100
0010
0001
,  // measure 185
0100
0000
1000
0000
0010
0000
0001
1000
,  // measure 186
0001
1000
0001
0000
1000
0000
0001
1000
,  // measure 187
0001
1000
0001
0000
1000
0000
0001
0000
,  // measure 188
0010
0100
1000
0100
0010
0000
0001
0000
,  // measure 189
0100
1000
0100
111M
,  // measure 190
11M1
1M11
M111
2000
,  // measure 191
3200
0301
0200
0301
,  // measure 192
0200
0320
0031
2000
,  // measure 193
3200
0320
2030
3020
,  // measure 194
0230
2300
3020
2030
,  // measure 195
3002
0203
0320
2030
,  // measure 196
3002
0000
2003
3002
2003
3002
2003
0000
,  // measure 197
3200
0302
2003
3200
,  // measure 198
0302
0023
0200
2332
,  // measure 199
3023
0230
0320
0230
,  // measure 200
0302
2003
3200
0320
,  // measure 201
0032
0023
0032
2203
,  // measure 202
3322
2233
3322
2233
,  // measure 203
0010
0001
3310
2200
,  // measure 204
0001
0010
3301
1001
,  // measure 205
1000
0000
1001
0000
0001
0000
1000
0100
,  // measure 206
0010
0000
0001
0000
0100
0001
0100
0001
0100
0001
0100
0001
2000
0000
0000
0000
,  // measure 207
0010
3001
2000
0010
,  // measure 208
3001
0001
0001
2000
,  // measure 209
0010
3001
2000
0010
,  // measure 210
3001
0001
MMMM
2000
,  // measure 211
0010
3101
2000
0010
,  // measure 212
3001
0001
0001
2100
,  // measure 213
0010
3001
2000
0010
,  // measure 214
3001
0000
0001
0000
MMMM
0000
1000
0001
,  // measure 215
1000
0001
1100
0000
0000
0000
1000
0000
,  // measure 216
0100
0000
0010
0000
0001
0000
2000
3002
,  // measure 217
0203
0320
2030
3000
0001
0000
1000
0100
,  // measure 218
1000
0100
0010
0001
0010
0001
2000
3020
,  // measure 219
2030
3020
0230
0302
2003
3000
0001
0000
,  // measure 220
1000
0001
1000
1111
,  // measure 221
0000
0000
1111
0000
,  // measure 222
0000
1111
0000
1000
,  // measure 223
0010
0010
1000
0001
,  // measure 224
0001
0100
0010
0100
,  // measure 225
0001
0001
0100
0010
,  // measure 226
0010
0000
1000
0001
1000
0010
1100
0000
,  // measure 227
0001
0010
0001
1000
,  // measure 228
0100
0001
0100
1010
,  // measure 229
0000
0000
0011
0000
,  // measure 230
0000
1001
0000
2220
,  // measure 231
3330
0000
2202
3303
,  // measure 232
0000
2022
3033
0222
,  // measure 233
0333
2002
3223
0330
,  // measure 234
0000
0000
2002
0000
3003
0000
1000
0100
,  // measure 235
1000
0100
0010
0000
0001
0000
0100
0010
,  // measure 236
0100
0010
1000
0000
0001
0000
1010
0000
,  // measure 237
0101
0000
1010
0000
0101
0000
1010
0101
,  // measure 238
1010
0202
2020
0000
3333
0000
1010
0000
,  // measure 239
0001
0001
1000
0001
,  // measure 240
0001
1000
0001
1000
,  // measure 241
0001
1000
0001
1000
,  // measure 242
0001
0001
0000
1100
,  // measure 243
0001
0001
1000
0001
,  // measure 244
0001
1000
0001
1000
,  // measure 245
0001
1000
0001
1000
,  // measure 246
0001
0001
0000
1110
,  // measure 247
0001
0001
1000
0001
,  // measure 248
0001
1000
0001
1000
,  // measure 249
0001
1000
0001
1000
,  // measure 250
0001
0001
0000
1000
,  // measure 251
0001
0100
0010
0001
,  // measure 252
1000
0010
0100
2222
,  // measure 253
0000
0000
0000
0000
,  // measure 254
0000
0000
0000
0000
,  // measure 255
0000
0000
0000
0000
,  // measure 256
0000
0000
0000
0000
,  // measure 257
0000
0000
0000
0000
,  // measure 258
0000
0000
0000
0000
,  // measure 259
0000
0000
0000
0000
,  // measure 260
0000
0000
0000
0000
,  // measure 261
0000
0000
0000
0000
,  // measure 262
0000
0000
0000
0000
,  // measure 263
0000
0000
0000
0000
,  // measure 264
0000
0000
0000
0000
,  // measure 265
0000
0000
0000
3333
,  // measure 266
0000
0000
0000
1MM1
,  // measure 267
M00M
0000
1MM1
0000
M00M
0000
1MM0
0001
,  // measure 268
1MM0
M00M
1MM1
M00M
,  // measure 269
1MM1
M00M
1MM1
1MM1
,  // measure 270
M00M
1MM1
M00M
1MM1
,  // measure 271
M00M
0000
1MM1
0000
M00M
0000
0MM1
1000
,  // measure 272
0MM1
M00M
1MM1
M00M
,  // measure 273
1MM1
M00M
1MM1
1MM1
,  // measure 274
M00M
1MM1
M00M
2000
,  // measure 275
3200
0320
0032
2003
,  // measure 276
3200
0320
0032
2003
,  // measure 277
3200
0320
0032
2003
,  // measure 278
3200
0320
0032
2003
,  // measure 279
3200
0320
0032
0000
2003
0000
3200
0320
,  // measure 280
0032
0000
2003
0000
3200
0320
0032
2003
,  // measure 281
3200
0320
0032
2003
3200
0320
2M32
0000
,  // measure 282
30M3
2M02
30M3
1000
,  // measure 283
0010
0000
0100
0000
0001
0000
1000
0100
,  // measure 284
0010
0100
1000
0010
,  // measure 285
0100
0000
1000
0000
0100
0000
0001
0010
,  // measure 286
0100
1000
0001
0010
0100
1000
0001
0000
,  // measure 287
1000
0000
0001
0000
0010
0000
0001
0100
,  // measure 288
0010
1000
0001
0001
,  // measure 289
1100
0000
1000
0000
0101
0000
1000
0001
,  // measure 290
1000
0001
0100
0000
0100
0000
0001
0000
,  // measure 291
0001
1000
1000
0010
,  // measure 292
0010
1000
1000
0100
,  // measure 293
0100
1000
1000
0011
,  // measure 294
0100
0010
1100
1100
,  // measure 295
1100
0000
0000
0000
0001
0000
0000
0000
1010
0000
0000
0000
0000
0000
0101
1010
,  // measure 296
0101
0000
0000
0000
1MM1
0000
0000
0000
1000
0100
0010
0001
1100
0000
0000
0000
,  // measure 297
0010
0000
0101
0000
0010
0000
1100
0001
,  // measure 298
1010
0001
0200
0310
,  // measure 299
0200
0000
0000
0000
0000
0000
0000
0000
0000
0000
0000
0000
0000
0000
0000
0000
0000
0000
0000
0000
0000
0000
0000
0000
0000
0000
0000
0000
0000
0000
0000
0000
0000
0000
0000
0000
0000
0000
0000
0000
0000
0000
0000
0000
0000
0000
0000
0000
0310
0000
0000
0000
0000
0000
0000
0000
0000
0000
0000
0000
0000
0000
0000
0000
0000
0000
0000
0000
0000
0000
0000
0000
0000
0000
0000
0000
0000
0000
0000
0000
0000
0000
0000
0000
0000
0000
0000
0000
0000
0000
0000
0000
0000
0000
0000
0000
0200
0000
0000
0000
0000
0000
0000
0000
0000
0000
0000
0000
0000
0000
0000
0000
0000
0000
0000
0000
0000
0000
0000
0000
0000
0000
0000
0000
0000
0000
0000
0000
0000
0000
0000
0000
0000
0000
0000
0000
0000
0000
0000
0000
0000
0000
0000
0300
0200
0000
0000
0000
0000
0000
0000
0000
0000
0000
0000
0000
0000
0000
0000
0000
0000
0000
0000
0000
0000
0000
0000
0000
0000
0000
0000
0000
0000
0000
0000
0000
0000
0000
0000
0000
0000
0000
0000
0000
0000
0000
0000
0000
0000
0000
0000
0000
,  // measure 300
0310
0200
0310
2000
,  // measure 301
3002
2003
3002
1003
,  // measure 302
0220
0330
2002
3003
,  // measure 303
0220
0330
2002
3223
,  // measure 304
0330
0000
0000
0000
0000
0000
0000
0000
0000
0000
0000
0000
0000
0000
0000
0000
0000
0000
0000
0000
0000
0000
0000
0000
0000
0000
0000
0000
0000
0000
0000
0000
0000
0000
0000
0000
0000
0000
0000
0000
0000
0000
0000
0000
0000
0000
0000
0000
2MM2
0MM0
0MM0
0MM0
0MM0
0MM0
0MM0
0MM0
0MM0
0MM0
0MM0
0MM0
0MM0
0MM0
0MM0
0MM0
0MM0
0MM0
0MM0
0MM0
0MM0
0MM0
0MM0
0MM0
0MM0
0MM0
0MM0
0MM0
0MM0
0MM0
0MM0
0MM0
0MM0
0MM0
0MM0
0MM0
0MM0
0MM0
0MM0
0MM0
0MM0
0MM0
0MM0
0MM0
0MM0
0MM0
0MM0
0MM0
0MM0
0MM0
0MM0
0MM0
0MM0
0MM0
0MM0
0MM0
0MM0
0MM0
0MM0
0MM0
0MM0
0MM0
0MM0
0MM0
0MM0
0MM0
0MM0
0MM0
0MM0
0MM0
0MM0
0MM0
0MM0
0MM0
0MM0
0MM0
0MM0
0MM0
0MM0
0MM0
0MM0
0MM0
0MM0
0MM0
0MM0
0MM0
0MM0
0MM0
0MM0
0MM0
0MM0
0MM0
0MM0
0MM0
0MM0
3MM3
1MM1
0000
0000
0000
0000
0000
0000
0000
0000
0000
0000
0000
0000
0000
0000
0000
0000
0000
0000
0000
0000
0000
0000
0000
0000
0000
0000
0000
0000
0000
0000
0000
0000
0000
0000
0000
0000
0000
0000
0000
0000
0000
0000
0000
0000
0000
0000
0000
,  // measure 305
1000
0001
1000
0000
0001
0000
1001
0000
,  // measure 306
0001
1000
0001
0000
1000
0000
1001
0000
,  // measure 307
1000
1001
0001
1001
,  // measure 308
1000
1001
0001
1001
,  // measure 309
0100
0010
0001
1000
,  // measure 310
0100
0000
0000
0000
0000
0000
0000
0000
0010
0000
0000
0000
0000
0000
0000
0000
0001
0000
0000
0000
0000
0000
0000
0000
001M
000M
000M
0000
000M
0000
000M
0000
,  // measure 311
000M
0000
000M
0000
100M
0100
001M
0001
2000
0000
0000
0000
0000
0000
0000
0000
3020
0000
0000
0000
0000
0000
0000
0000
0230
0000
0000
0000
0000
0000
0000
0000
,  // measure 312
0302
2003
3020
0230
,  // measure 313
0302
0023
0032
2003
,  // measure 314
3200
0320
0032
2003
,  // measure 315
3200
0302
2003
3002
,  // measure 316
2003
3002
2003
3002
,  // measure 317
2003
3020
0230
0320
,  // measure 318
0230
0320
0230
0320
,  // measure 319
0230
2300
3002
2003
,  // measure 320
3200
2300
3002
2003
,  // measure 321
3200
2300
3002
0203
,  // measure 322
0302
2003
3002
0203
,  // measure 323
0302
2003
3200
0320
,  // measure 324
0032
0203
0320
2030
,  // measure 325
3002
20M3
3M02
20M3
,  // measure 326
3M02
20M3
3M02
1103
,  // measure 327
0010
0001
1100
0001
,  // measure 328
0010
0000
1000
0010
0100
0001
1000
0000
,  // measure 329
0001
1000
0001
0000
0100
0000
0020
0000
,  // measure 330
0032
2003
3200
0302
,  // measure 331
0023
0230
0320
0230
,  // measure 332
0320
0230
0320
0032
,  // measure 333
2003
3200
0302
2003
,  // measure 334
3200
0302
0023
1130
,  // measure 335
0001
0001
1010
0001
,  // measure 336
0001
0101
1000
1000
,  // measure 337
0011
1000
1000
1001
,  // measure 338
0001
0000
1000
0000
0001
0000
2MM2
3003
,  // measure 339
0000
0000
M22M
0330
0000
0000
2MM2
3003
,  // measure 340
0000
0000
M22M
0330
0000
0000
10M0
0000
,  // measure 341
0M01
10M0
0M01
10M0
,  // measure 342
0M01
0000
10M0
0000
0M01
0000
40M4
0M00
,  // measure 343
00M0
0M00
00M0
0M00
00M0
0M00
00M0
0M00
,  // measure 344
00M0
0000
0M00
0000
00M0
0000
0M00
0000
00M0
0000
0M00
0000
00M0
0M00
00M0
0M00
,  // measure 345
00M0
0M00
00M0
0M00
00M0
0000
0000
0000
0M00
00M0
0M00
00M0
0M00
00M0
0M00
00M0
,  // measure 346
0M00
0000
0000
0000
00M0
0000
0M00
0000
00M0
0000
0M00
0000
00M0
0M00
00M0
0M00
,  // measure 347
00M0
0M00
00M0
0M00
00M0
0M00
00M0
0M00
00M0
0M00
00M0
0M00
00M0
0M00
00M0
0M00
,  // measure 348
00M0
0000
0M00
0000
00M0
0000
0M00
0000
00M0
0000
0M00
0000
00M0
0000
0M00
0000
00M0
0000
0M00
0000
00M0
0000
0M00
0000
00M0
0M00
00M0
0M00
00M0
0M00
00M0
0M00
,  // measure 349
00M0
0M00
00M0
0M00
00M0
0M00
00M0
0M00
00M0
0000
0M00
0000
00M0
0000
0M00
0000
00M0
0M00
00M0
0M00
00M0
0M00
00M0
0M00
00M0
0M00
00M0
0M00
00M0
0M00
00M0
0M00
,  // measure 350
00M0
0M00
00M0
3M00
20M3
0000
0000
0000
0000
0000
0000
0000
300M
0000
0000
0000
,  // measure 351
00M0
0M00
M000
0M00
,  // measure 352
00M0
000M
1001
0010
,  // measure 353
0100
0010
0100
0001
,  // measure 354
1000
0100
0010
0000
1111
0000
0000
0000
,  // measure 355
1111
0000
1111
0000
,  // measure 356
1111
0000
1010
0001
,  // measure 357
1100
0011
1100
0001
,  // measure 358
1010
0100
0011
0100
,  // measure 359
1010
0101
1010
0100
,  // measure 360
0011
0100
2000
3002
,  // measure 361
0203
0320
2030
3002
,  // measure 362
0023
0230
0320
0230
2300
0000
3002
0000
,  // measure 363
2003
0000
3002
0000
2003
3020
0230
0302
,  // measure 364
2003
3020
0230
0302
2003
0000
3020
0000
,  // measure 365
0230
0302
0023
0032
,  // measure 366
2003
3200
2320
3032
,  // measure 367
2023
3032
2023
3032
,  // measure 368
2203
3302
2003
3002
,  // measure 369
0203
0320
2030
3002
0203
0000
0320
0000
,  // measure 370
2030
3002
0203
0320
2030
0000
3002
0000
,  // measure 371
0023
0032
0023
0032
,  // measure 372
0203
0302
2003
3020
,  // measure 373
0230
0302
0203
0302
2003
3200
0320
0032
,  // measure 374
2003
0000
3002
0000
2023
3030
2020
3030
,  // measure 375
2020
3030
2020
3030
0022
0033
0022
0033
,  // measure 376
0022
0033
0022
0033
2022
0000
3033
0000
,  // measure 377
2202
3303
2022
3033
,  // measure 378
2202
3303
2220
3330
,  // measure 379
0222
0333
2220
3330
,  // measure 380
0222
0333
2000
3002
,  // measure 381
0023
0230
0302
2003
,  // measure 382
3020
0000
0230
0000
2300
3002
2003
3002
,  // measure 383
2003
3002
2003
3002
2003
3002
2003
3002
,  // measure 384
1003
0000
1001
0000
,  // measure 385
0110
0000
0000
0000
1010
1100
1010
0000
,  // measure 386
0000
0011
0000
0101
,  // measure 387
0000
0110
1001
0000
,  // measure 388
0000
0000
1001
0000
,  // measure 389
0110
0000
0000
0000
0011
0101
0011
0000
,  // measure 390
0000
1010
0000
1100
,  // measure 391
0000
0110
1001
0000
,  // measure 392
0000
0000
1001
0000
,  // measure 393
0110
0000
0000
0000
1111
1111
1111
0000
,  // measure 394
0000
1111
0000
1111
,  // measure 395
0000
0110
1001
0000
,  // measure 396
0000
0000
1111
0000
,  // measure 397
1111
0000
0000
0000
1111
1111
1111
0000
;
