#TITLE:The Limbo;
#SUBTITLE:;
#ARTIST:STN;
#TITLETRANSLIT:;
#SUBTITLETRANSLIT:;
#ARTISTTRANSLIT:;
#GENRE:;
#CREDIT:;
#BANNER:;
#BACKGROUND:;
#LYRICSPATH:;
#CDTITLE:;
#MUSIC:The Limbo.mp3;
#OFFSET:-0.409;
#SAMPLESTART:25.640;
#SAMPLELENGTH:10.800;
#SELECTABLE:YES;
#BPMS:0.000=200.000
,32.000=100.000
,44.000=200.000
,76.000=400.000
,82.500=200.000
,92.000=400.000
,98.500=200.000
,140.000=400.000
,148.000=200.000
,152.000=400.000
,160.000=200.000
,164.000=400.000
,172.000=200.000
,176.000=400.000
,184.000=200.000
,188.000=100.000
,189.000=300.000
,192.000=100.000
,228.000=400.000
,484.000=100.000
;
#STOPS:76.000=0.075,
76.500=0.075,
77.000=0.075,
77.500=0.075,
78.000=0.075,
78.500=0.075,
79.000=0.075,
79.500=0.075,
80.000=0.075,
80.500=0.075,
81.000=0.075,
81.500=0.075,
82.000=0.075,
92.000=0.075,
92.500=0.075,
93.000=0.075,
93.500=0.075,
94.000=0.075,
94.500=0.075,
95.000=0.075,
95.500=0.075,
96.000=0.075,
96.500=0.075,
97.000=0.075,
97.500=0.075,
98.000=0.075
;
#BGCHANGES:;
#KEYSOUNDS:;
#ATTACKS:;

//---------------dance-single - Blank----------------
#NOTES:
     dance-single:
     :
     Challenge:
     15:
     1.000,1.000,0.999,1.000,0.899,1022.000,124.000,208.000,66.000,66.000,0.000,1.000,1.000,0.999,1.000,0.899,1022.000,124.000,208.000,66.000,66.000,0.000: // measure 0
1001
0000
0000
0000
1000
0100
0010
0001
1000
0000
1000
0000
0001
0000
0100
0010
,  // measure 1
1000
0100
0001
0000
M22M
0000
0330
0000
1000
0000
0001
0000
2MM2
0000
3003
0000
,  // measure 2
0010
0000
0010
0000
1001
0000
1000
0001
0000
0001
1000
0000
1001
0000
1000
0001
,  // measure 3
1000
0000
1000
0000
0010
0100
0001
0010
0100
1000
0010
0000
0110
0000
0100
0000
,  // measure 4
1001
2000
3002
0023
2030
3020
0032
0000
,  // measure 5
1003
1000
0002
0000
0000
2003
0000
0000
,  // measure 6
3001
0010
0100
1000
0001
0000
1000
0010
0000
0010
0000
0100
0010
0000
0100
0000
,  // measure 7
2000
0010
3001
0002
0010
1003
2000
3001
,  // measure 8
2022
0230
0320
0M30
00M0
0M00
00M0
0M00
00M0
0M00
00M0
0M00
0020
0230
0320
0M30
,  // measure 9
0020
0230
0320
0230
03M0
0M00
00M0
0M00
00M0
0M00
00M0
0M00
0020
0230
0320
0230
,  // measure 10
0320
0000
0230
0000
0320
0000
0230
0000
03M0
0000
0M00
0000
00M0
0000
0M00
0000
0020
0000
0230
0000
0320
0000
0230
0000
0320
0000
3233
0000
1300
0001
1000
0001
,  // measure 11
1110
0000
0100
0000
1000
0100
0010
0001
0010
0100
1000
0001
2000
3000
0002
0003
,  // measure 12
1100
0000
1100
0000
0011
0000
0100
0010
1000
0001
0010
0000
1001
0000
0100
0000
,  // measure 13
0100
0000
MMMM
0000
0010
0001
1000
0100
0010
0000
0010
0000
0100
0000
0010
0000
,  // measure 14
2000
0000
0100
0000
0010
0000
3001
0000
1000
0010
0100
0001
1000
0010
0100
0001
,  // measure 15
1000
0100
1000
0100
1000
0000
0100
0000
0022
0033
1000
0000
0100
0000
0022
0033
,  // measure 16
1000
0100
0001
0100
1000
0100
0001
0100
1000
0000
2000
0000
0100
0000
3001
0000
,  // measure 17
1000
0010
0100
0010
1000
0001
1000
0000
0001
0010
0100
0010
0001
1000
0001
0000
,  // measure 18
1000
0010
1000
0000
0001
0010
0001
0000
1000
0001
1000
0001
2000
3002
2003
3002
,  // measure 19
2203
3300
2200
3300
2200
3300
2200
3300
2200
3300
2200
3300
2200
3300
2200
3300
,  // measure 20
2200
3300
2200
3300
2200
3300
2200
3300
0020
0000
MM02
0000
0000
0000
0033
0000
,  // measure 21
1000
0010
1000
0001
1000
0000
0001
0000
0010
0001
1000
0001
0100
0000
0001
0000
,  // measure 22
0010
0001
0010
0001
2000
0000
0200
3300
0010
0001
0100
0001
1000
0000
0001
0000
,  // measure 23
0202
0303
0202
0303
0202
0303
0202
0303
0202
0303
0202
0303
0202
0303
0202
0303
,  // measure 24
0202
0303
0202
0303
0202
0303
0202
0303
0020
0000
2M0M
0000
0000
0000
3030
0000
,  // measure 25
1001
0100
0010
0100
1001
0010
0100
0010
,  // measure 26
1001
0000
1000
0000
1001
0000
0001
0000
2002
3003
0220
0330
2002
3003
0220
0330
,  // measure 27
1000
0100
0010
0001
1000
0000
1000
0000
0001
0010
0100
1000
0001
0000
0001
0000
,  // measure 28
1000
0100
0010
0001
1000
0100
0010
0000
0001
0010
0100
1000
0001
0010
0100
0000
,  // measure 29
1000
0010
1000
0010
1000
0000
0001
0100
0001
0100
0001
0000
0010
0001
0010
0001
,  // measure 30
0010
0000
0100
1000
0100
1000
0100
0000
1000
0001
1000
0000
0001
1000
0001
0000
,  // measure 31
2000
3000
2000
3000
0010
0100
0001
0010
0002
0003
0002
0003
0010
0100
1000
0010
,  // measure 32
1000
0010
0100
0000
0001
0010
0100
0000
1000
0010
0100
0001
0010
0100
1000
0001
,  // measure 33
1000
0010
0100
0001
1000
0010
0100
0001
0010
0001
1000
0100
0010
0001
1000
0100
,  // measure 34
1000
0100
1000
0010
0100
1000
0100
0010
1000
0100
0001
0100
0010
0001
1000
0001
,  // measure 35
1001
0110
MMMM
0110
,  // measure 36
1001
MMMM
1001
0110
,  // measure 37
1000
0000
0001
0000
0010
0001
0000
0100
0010
0000
1000
0100
0000
1000
0001
0000
,  // measure 38
0110
1001
MMMM
1001
,  // measure 39
0110
MMMM
0110
1001
,  // measure 40
1000
0001
0100
0010
1000
0001
0010
0100
1000
0001
0100
0010
1000
0001
0010
0100
,  // measure 41
1110
0111
MMMM
0111
,  // measure 42
1110
MMMM
1110
0111
,  // measure 43
1000
0010
0100
0001
0000
1010
0000
0010
0001
1000
0100
0000
0011
0000
1001
0000
,  // measure 44
1111
1111
MMMM
1111
,  // measure 45
1111
MMMM
1111
1111
,  // measure 46
1000
0100
0001
0100
1000
0010
0001
0010
1000
0100
0001
0100
1000
0010
0001
0010
,  // measure 47
1000
0000
1000
0000
0001
0000
1000
0001
0010
0000
0100
0000
0010
0000
0100
0000
0010
0000
0100
0000
0010
0000
0100
0000
0010
0000
0100
0000
0010
0000
0100
0000
,  // measure 48
2002
0000
0000
0000
0000
0000
3003
0110
2002
0000
0000
0000
0000
0000
3003
0110
,  // measure 49
2002
0000
0000
0000
0000
0000
3003
0110
2002
0000
0000
0000
0000
0000
3003
0110
,  // measure 50
0220
0000
0000
0000
0000
0000
0330
1001
0220
0000
0000
0000
0000
0000
0330
1001
,  // measure 51
0220
0000
0000
0000
0000
0000
0330
1001
0220
0000
0000
0000
0000
0000
0330
1001
,  // measure 52
2000
3200
0320
0032
2003
3200
0320
0032
2003
3200
0320
0032
2003
3200
0320
0032
,  // measure 53
0000
0023
0230
2300
3002
0023
0230
2300
3002
0023
0230
2300
3002
0023
0230
2300
,  // measure 54
0000
3200
0320
0032
2003
3200
0320
0032
0000
0023
0230
2300
3002
0023
0230
2300
,  // measure 55
0000
3200
0320
0032
0000
0023
0230
2300
0000
3200
0320
0032
0000
0023
0230
2300
,  // measure 56
3002
0000
0023
0000
0230
0000
2300
0000
3002
0023
0230
2300
3002
0020
0200
2000
0000
0000
0000
0000
0000
0000
0000
0000
0000
0000
0000
0000
0000
0000
3333
0000
,  // measure 57
1001
0000
1000
0100
0010
0001
0010
0100
,  // measure 58
1000
0100
0010
0001
0010
0000
1001
0000
,  // measure 59
0110
0000
1000
0010
0100
0001
0100
0010
,  // measure 60
1000
0010
0100
0001
0010
0000
0110
0000
,  // measure 61
1010
0000
0100
0001
1000
0010
0100
0001
,  // measure 62
1000
0010
0100
0001
1000
0000
1010
0000
,  // measure 63
0011
0000
1000
0100
0010
0001
1000
0100
,  // measure 64
0010
0001
1000
0100
0010
0000
0011
0000
,  // measure 65
1011
0000
1000
0100
0001
0100
1000
0100
,  // measure 66
0001
0100
1000
0100
0001
0000
1011
0000
,  // measure 67
1101
0000
1000
0010
0001
0010
1000
0010
,  // measure 68
0001
0010
1000
0010
0001
0000
1101
0000
,  // measure 69
1110
0000
0100
0001
0010
0001
0100
0001
,  // measure 70
0010
0001
0100
0001
0010
0000
1110
0000
,  // measure 71
0111
0000
1000
0100
1000
0010
1000
0100
,  // measure 72
1000
0010
1000
0100
1000
0000
0111
0000
,  // measure 73
1111
0000
1000
0010
0100
0010
0001
1000
,  // measure 74
0100
0001
0010
1000
0010
0000
1111
0000
,  // measure 75
1111
0000
0100
1000
0010
1000
0100
0001
,  // measure 76
0010
1000
0010
0100
1000
0000
1111
0000
,  // measure 77
1111
0000
0001
0100
0010
1000
0010
0001
,  // measure 78
0100
1000
0100
0010
1000
0000
1111
0000
,  // measure 79
1111
0000
1000
0010
0100
1000
0100
0001
,  // measure 80
0010
1000
0001
0100
1000
0000
1111
0000
,  // measure 81
1111
0000
1000
0100
0010
0001
0100
0010
,  // measure 82
0100
0001
1000
0010
0100
0000
1111
0000
,  // measure 83
1111
0000
1000
0001
0010
1000
0010
0100
,  // measure 84
1000
0001
0100
1000
0100
0000
1111
0000
,  // measure 85
1111
0000
0010
0001
0100
1000
0100
0010
,  // measure 86
0100
0001
1000
0100
0010
0000
1111
0000
,  // measure 87
1111
0000
1000
0100
0001
0010
0001
0100
,  // measure 88
1000
0001
0100
1000
0100
0000
1111
0000
,  // measure 89
1111
0000
1000
0100
0010
0001
1000
0001
,  // measure 90
1000
0010
0100
0001
1000
0010
0100
0001
,  // measure 91
0010
0001
1000
0100
0010
0001
1000
0100
,  // measure 92
1000
0001
0100
0010
1000
0001
0100
0010
,  // measure 93
0100
0010
1000
0001
0010
0100
1000
0001
,  // measure 94
0010
0001
1000
0010
1000
0001
0010
0001
,  // measure 95
1000
0100
0001
0100
1000
0100
0001
0100
,  // measure 96
1000
0010
0001
0010
1000
0010
0001
0010
,  // measure 97
1000
0100
1000
0001
0010
0001
1000
0010
,  // measure 98
1000
0001
0100
0001
1000
0100
0010
0001
,  // measure 99
1000
0001
0010
0100
1000
0010
0100
0001
,  // measure 100
0010
1000
0010
0001
0100
1000
0100
0010
,  // measure 101
1000
0100
0001
0100
0010
0001
1000
0010
,  // measure 102
0100
1000
0100
0010
0100
0001
0100
0010
,  // measure 103
1000
0001
0010
0100
1000
0010
0100
0010
,  // measure 104
0100
0001
0010
0100
1000
0010
0100
0001
0010
0100
1000
0010
,  // measure 105
1000
0100
1000
0100
0010
0001
0010
0001
,  // measure 106
1000
0100
0010
0001
1000
0100
0010
0001
,  // measure 107
0100
0001
0100
0001
1000
0010
1000
0010
,  // measure 108
0100
0001
1000
0010
0100
0001
1000
0010
,  // measure 109
1000
0010
1000
0010
0100
0001
0100
0001
,  // measure 110
1000
0010
0100
0001
1000
0010
0100
0001
,  // measure 111
0010
0001
0010
0001
1000
0100
1000
0100
,  // measure 112
0010
0001
1000
0100
0010
0001
1000
0100
,  // measure 113
1000
0010
1000
0010
1000
0010
0100
0001
,  // measure 114
0100
0001
0100
0001
0010
0001
0010
0001
,  // measure 115
0010
0001
1000
0100
1000
0100
1000
0100
,  // measure 116
1000
0001
1000
0001
1000
0001
0010
0100
,  // measure 117
0010
0100
0010
0100
1000
0001
1000
0001
,  // measure 118
1000
0001
0100
0010
0100
0010
0100
0010
,  // measure 119
1000
0010
0100
0001
0010
0001
1000
0100
,  // measure 120
1000
0100
0010
0001
1000
0100
0010
0001
1000
0100
0010
0001
1000
0100
0010
0001
,  // measure 121
2222
0000
0000
0000
,  // measure 122
3333
0000
0000
0000
;
