#TITLE:The Dirty Side of the Street;
#SUBTITLE:;
#ARTIST:Caravan Palace;
#TITLETRANSLIT:;
#SUBTITLETRANSLIT:;
#ARTISTTRANSLIT:;
#GENRE:;
#CREDIT:;
#BANNER:;
#BACKGROUND:;
#LYRICSPATH:;
#CDTITLE:;
#MUSIC:The Dirty Side of the Street.mp3;
#OFFSET:-0.045;
#SAMPLESTART:87.150;
#SAMPLELENGTH:14.887;
#SELECTABLE:YES;
#BPMS:0.000=266.000
,60.000=133.000
,64.000=266.000
,120.000=133.000
,122.000=399.000
,128.000=266.000
,192.000=133.000
,224.000=199.500
,266.000=133.000
,268.000=399.000
,274.000=266.000
,336.000=1064.000
,344.000=532.000
,456.000=133.000
,460.000=199.500
,496.000=266.000
,500.000=532.000
,508.000=1064.000
,524.000=2128.000
,540.000=4256.000
,572.000=266.000
,574.000=798.000
,580.000=266.000
,634.000=798.000
,640.000=66.500
,648.000=133.000
,660.000=266.000
,854.000=1330.000
,864.000=532.000
,992.000=399.000
,993.500=133.000
,994.000=399.000
,995.500=133.000
,996.000=399.000
,997.500=133.000
,998.000=399.000
,999.500=133.000
,1000.000=399.000
,1001.500=133.000
,1002.000=399.000
,1003.500=133.000
,1004.000=399.000
,1005.500=133.000
,1006.000=399.000
,1007.500=133.000
,1008.000=598.500
,1010.250=199.500
,1011.000=598.500
,1013.250=199.500
,1014.000=598.500
,1016.250=199.500
,1017.000=598.500
,1019.250=199.500
,1020.000=598.500
,1022.250=199.500
,1023.000=598.500
,1025.250=199.500
,1026.000=598.500
,1028.250=199.500
,1029.000=598.500
,1031.250=199.500
,1032.000=798.000
,1035.000=266.000
,1036.000=798.000
,1039.000=266.000
,1040.000=798.000
,1043.000=266.000
,1044.000=798.000
,1047.000=266.000
,1048.000=798.000
,1051.000=266.000
,1052.000=798.000
,1055.000=266.000
,1056.000=798.000
,1059.000=266.000
,1060.000=798.000
,1063.000=266.000
,1064.000=399.000
,1065.500=133.000
,1066.000=399.000
,1067.500=133.000
,1068.000=199.500
,1068.750=66.500
,1069.000=199.500
,1069.750=66.500
,1070.000=99.750
,1070.375=33.250
,1070.500=99.750
,1070.875=33.250
,1071.000=49.875
,1071.188=16.625
,1071.250=49.875
,1071.438=16.625
,1071.500=133.000
;
#STOPS:572.000=0.916,
660.000=0.883
;
#BGCHANGES:;
#KEYSOUNDS:;
#ATTACKS:;

//---------------dance-single - Blank----------------
#NOTES:
     dance-single:
     :
     Challenge:
     12:
     1.000,1.000,0.699,1.000,1.000,1391.000,152.000,279.000,0.000,0.000,0.000,1.000,1.000,0.699,1.000,1.000,1391.000,152.000,279.000,0.000,0.000,0.000: // measure 0
0000
0000
0000
0001
1000
0001
1000
0000
0000
0001
0000
0000
,  // measure 1
1000
0000
1000
0001
0000
0100
0010
0000
0010
0100
0000
0001
,  // measure 2
1000
0000
1000
0010
0000
0100
0000
0000
0001
1000
0000
0001
,  // measure 3
1000
0000
0100
0010
0000
0001
0100
0000
0010
1000
0000
0100
,  // measure 4
0010
0000
0000
0000
0001
0000
0100
0000
0000
0000
0010
0000
0100
0000
0000
0000
0010
0000
2002
0000
0000
3003
0000
0000
,  // measure 5
0100
0000
0001
1000
0000
0010
1000
0000
0100
0010
0000
0100
,  // measure 6
1000
0000
0001
0100
0000
0001
0000
0000
0000
0100
0000
0001
,  // measure 7
0010
0000
0001
1000
0000
0001
1000
0000
0010
1000
0000
0001
,  // measure 8
0100
0000
0001
0010
0000
0100
0010
0000
0100
1000
0000
0001
,  // measure 9
1000
0100
1000
0100
0000
0010
0001
0000
0100
0001
0000
0100
,  // measure 10
0010
0100
0001
1000
0000
0100
0010
0000
0001
0100
0001
0010
,  // measure 11
0001
0000
1000
0100
0000
0010
0001
0000
0100
0010
0000
1000
,  // measure 12
0001
0000
0010
0001
0000
0010
0001
0100
0010
1000
0100
0010
,  // measure 13
0001
0000
0100
0001
0000
0100
0010
0000
1000
0100
0000
0001
,  // measure 14
0100
0000
0000
0000
1000
0010
0100
0000
0000
0000
0001
0000
0000
0000
0000
0000
1000
0000
0010
0000
0000
0000
0100
0000
,  // measure 15
0001
0000
0010
0001
0000
0010
0001
0000
1000
0001
0000
1000
0001
0000
0100
0001
0000
1000
0000
0000
0001
1000
0000
0001
,  // measure 16
1100
0100
0110
0100
,  // measure 17
0101
0100
0110
0100
,  // measure 18
1100
0100
0110
0100
,  // measure 19
0101
0100
0110
0100
,  // measure 20
1100
0000
1000
0100
0000
0000
0110
0000
0010
0100
0000
0000
,  // measure 21
0101
0000
0001
0100
0000
0000
0110
0000
0010
0100
0000
0000
,  // measure 22
1001
0000
1000
0001
0000
0000
1010
0000
0000
0101
0000
0000
,  // measure 23
2000
0000
0000
0000
0000
0002
0000
0000
0000
3003
0000
0000
,  // measure 24
1100
0100
0110
0100
,  // measure 25
0101
0100
0110
0100
,  // measure 26
1100
0100
0110
0100
,  // measure 27
0101
0100
0110
0100
,  // measure 28
1100
0100
0110
0100
,  // measure 29
0101
0100
0110
0100
,  // measure 30
1000
0000
0100
0010
0000
0001
0200
0300
0002
2003
3000
0020
2030
0000
0000
0000
0000
0000
3200
0000
0000
0020
0000
0000
,  // measure 31
0300
0032
0000
0000
0000
0000
0000
0000
,  // measure 32
1003
0100
1000
0100
0000
0000
0010
0001
0010
0001
0000
0000
,  // measure 33
1000
0100
0010
0001
0000
2000
0000
0000
3001
1000
0000
0001
,  // measure 34
0100
0000
0000
0000
0010
1000
0001
0000
0000
0000
0000
0000
1000
0000
0000
0000
1000
0000
0001
0000
0000
0000
0001
0000
,  // measure 35
1000
0100
0010
0001
0000
2000
0000
0000
3001
0010
0100
1000
,  // measure 36
0110
1001
0110
1001
,  // measure 37
1000
0010
1000
0100
0000
0022
0033
0000
1000
0001
0000
0100
,  // measure 38
1010
0101
0011
1100
,  // measure 39
2000
0000
0000
0000
0000
3002
1000
0000
0000
1000
0000
0000
,  // measure 40
1003
0000
0000
0000
0010
0100
0010
0000
0000
0000
0000
0000
1010
0000
0000
0000
0000
0000
0101
0000
0000
0000
0000
0000
,  // measure 41
1000
0000
0000
0000
0100
0000
0010
0000
0000
0000
0100
0000
1000
0000
0000
0000
0010
0000
0100
0000
0000
0000
0001
0010
,  // measure 42
0100
1100
0100
0101
,  // measure 43
2000
0000
0000
3002
0000
2003
0000
0000
0001
0000
0000
0001
,  // measure 44
3001
1100
0001
1010
,  // measure 45
1000
0010
1000
0010
0000
0202
0303
0000
0001
1000
0000
0001
,  // measure 46
1000
0000
1000
0100
0000
1000
0100
0000
0020
0032
0000
2003
,  // measure 47
3002
0000
0000
0000
0000
2003
0001
0000
0000
0001
0000
0000
,  // measure 48
3001
1001
0001
1010
0001
1001
0001
1100
,  // measure 49
0001
1001
0001
1010
0001
1001
0001
1100
,  // measure 50
0001
1001
0001
1010
0001
1001
0001
1100
,  // measure 51
0001
0000
0000
1001
0000
0000
0001
0000
0000
1010
0000
0000
0001
0000
0000
1001
0000
0000
0001
0000
0000
1000
0100
0010
,  // measure 52
0001
1001
0001
1010
0001
1001
0001
1100
,  // measure 53
0001
1001
0001
1010
0001
1001
0001
1100
,  // measure 54
0001
1001
0001
1010
0001
1001
0001
1100
,  // measure 55
0001
0010
0100
1000
0000
0000
1000
0100
0010
0001
0000
0000
0001
0010
0100
1000
0000
0000
1000
0100
0010
0001
0000
0000
,  // measure 56
0002
0000
0000
0203
0000
0000
0000
0000
0000
0320
0000
0000
0000
0000
0000
0000
,  // measure 57
0000
0000
0230
0000
0000
0000
0000
0000
0302
0000
0000
2003
0000
0000
0000
0000
,  // measure 58
0000
3200
0000
0000
0000
0000
0000
0000
0000
0000
0302
0000
0000
0203
0000
0000
,  // measure 59
0000
0000
0000
2300
0000
0000
0000
0000
0000
3002
0000
0000
0000
0000
0000
0000
,  // measure 60
0000
0000
0023
0000
0000
0000
0000
0000
0230
0000
0000
2300
0000
0000
0000
0000
,  // measure 61
0000
3020
0000
0000
0000
0000
0000
0000
0000
0000
0230
0000
0000
0000
0000
0000
,  // measure 62
0302
0000
0000
0023
0000
0000
0000
0000
0000
2030
0000
0000
0000
0000
0000
0000
,  // measure 63
0000
0000
3020
0000
0000
0000
0000
0000
0032
0000
0000
0203
0000
0000
0000
0000
,  // measure 64
0000
2300
0000
0000
0000
0000
0000
0000
0000
0000
3200
0000
0000
0320
0000
0000
,  // measure 65
0000
0000
0000
0230
0000
0000
0000
0000
0000
0320
0000
0000
0000
0000
0000
0000
,  // measure 66
0000
0000
0000
0230
0000
0000
0000
0000
0000
0000
0000
0000
0301
0000
0001
0100
0000
0100
0010
0000
0010
1000
0000
1000
,  // measure 67
2200
0000
0000
3300
0000
0022
0000
0000
,  // measure 68
0000
0000
0000
0000
0000
0000
0033
0000
0000
0000
0000
0000
0000
0000
0000
0000
0000
0000
0000
0000
0000
0000
0000
0000
0000
0000
0000
0000
0000
0000
0000
0000
0000
0000
0000
0000
0000
0000
0000
0000
0000
0000
0000
0000
0000
0000
0000
0000
0000
0000
0000
0000
0000
0000
0000
0000
0000
0000
0000
0000
0000
0000
0000
0000
0000
0000
0000
0000
0000
0000
0000
0000
0000
0000
0000
0000
0000
0000
0000
0000
0000
0000
0000
0000
0000
0000
0000
0000
0000
0000
0000
0000
0000
0000
0000
0000
1000
0000
0000
0000
0000
0000
0000
0000
0000
0000
0000
0000
0000
0000
0000
0000
0100
0000
0000
0000
0000
0000
0000
0000
0000
0000
0000
0000
0000
0000
0000
0000
0010
0000
0000
0000
0000
0000
0000
0000
0000
0000
0000
0000
0000
0000
0000
0000
0001
0000
0000
0000
0000
0000
0000
0000
0000
0000
0000
0000
0000
0000
0000
0000
0100
0000
0000
0000
0000
0000
0000
0000
0000
0000
0000
0000
0000
0000
0000
0000
0010
0000
0000
0000
0000
0000
0000
0000
0000
0000
0000
0000
0000
0000
0000
0000
,  // measure 69
1000
0100
0010
0001
0100
0010
1000
0000
0001
0100
0000
0010
,  // measure 70
1000
0000
0001
0010
0000
0100
1000
0010
0100
0001
0000
0000
,  // measure 71
0010
0001
1000
0100
0000
0000
2020
0000
3030
0202
0000
0303
,  // measure 72
0022
0000
0000
0000
0033
0000
2200
0000
0000
0000
3300
0000
1000
0000
0000
0000
0001
0000
0100
0000
0000
0000
0001
1000
,  // measure 73
0010
0000
1000
0010
0000
0001
2020
0000
3030
0202
0000
0303
,  // measure 74
2020
0000
3030
0202
0000
0303
0010
0000
0010
1010
0000
0000
,  // measure 75
0011
0000
0000
1010
0000
0000
0022
0000
0000
0033
0000
0022
,  // measure 76
0000
0000
0000
0000
0000
0033
1000
0100
1000
0100
1000
0100
,  // measure 77
1000
0100
1000
0100
1000
0100
0010
0001
0010
0001
0010
0001
,  // measure 78
0010
0001
0010
0001
0010
0001
0100
0001
0100
0001
0100
0001
,  // measure 79
0100
0001
0100
0001
0100
0001
1000
0010
1000
0010
1000
0010
,  // measure 80
1000
0010
1000
0010
1000
0010
1000
0100
0010
0001
0000
0000
,  // measure 81
1000
0100
0010
0001
0000
0000
1000
0100
0010
0001
1000
0100
,  // measure 82
0010
0001
1000
0100
0000
0000
0011
0000
0011
1100
0000
0000
,  // measure 83
0011
1100
2002
3003
,  // measure 84
0220
0000
0000
0000
,  // measure 85
0000
0000
0000
0000
0000
0000
0000
0000
0330
0000
0000
0000
,  // measure 86
1000
0000
0000
0001
0000
1000
0000
0000
0000
0001
0000
0000
,  // measure 87
0000
0001
0000
0001
,  // measure 88
0000
0001
0000
1000
,  // measure 89
0020
0000
0000
0000
0000
0000
1030
0000
0001
0000
0100
0000
,  // measure 90
0010
0000
0000
0000
0010
0000
2000
0000
0000
0000
3001
0000
,  // measure 91
1000
0000
0100
0000
0010
0000
0001
0000
0010
0000
0100
0000
,  // measure 92
1000
0000
0001
0000
1000
0000
0001
0000
1000
0000
0001
0000
,  // measure 93
2200
0000
0000
0000
3300
0000
0022
0000
0000
0000
0033
0000
,  // measure 94
0100
0000
0000
0000
0001
0000
0010
0000
0000
1100
0000
0000
,  // measure 95
0000
0000
0000
0011
0000
0000
1000
0000
0100
0000
0010
0000
,  // measure 96
0001
0000
0000
0000
0000
0000
0002
0003
0000
0000
0000
0000
,  // measure 97
0002
0000
0003
0000
0000
0000
0002
0000
0000
0003
0000
0000
,  // measure 98
0002
0000
0000
0000
0003
0000
0002
0000
0000
0000
0000
0003
,  // measure 99
1000
0000
0010
0000
0100
0000
0010
0000
0100
0000
0001
0000
,  // measure 100
2200
0000
0000
0000
0000
0000
0000
0000
0000
0000
3300
0000
,  // measure 101
0020
0030
0002
0003
0200
0300
0020
0030
2000
3000
0200
0300
,  // measure 102
1000
0000
0000
0000
0010
0100
0001
0000
0000
0000
0100
0010
,  // measure 103
1000
0000
0000
0000
0010
0100
0001
0000
0000
0000
0100
0010
,  // measure 104
1000
0000
0000
0000
1000
0000
0001
0000
0000
0000
0001
0000
,  // measure 105
2000
0000
0000
0000
3000
0000
0002
0000
0000
0000
0003
0000
,  // measure 106
1100
0000
0000
0000
1100
0000
0000
0000
1100
0000
0000
0000
,  // measure 107
0110
0000
0000
0000
0110
0000
0000
0000
0110
0000
0000
0000
,  // measure 108
0011
0000
0000
0000
0011
0000
0000
0000
0011
0000
0000
0000
,  // measure 109
0110
0000
0000
0000
0110
0000
0000
0000
0110
0000
0000
0000
,  // measure 110
1000
0000
0010
0000
1000
0000
0100
0000
0000
0000
0000
0000
,  // measure 111
0010
0000
0100
0000
0010
0000
0100
0000
0000
0000
0000
0000
,  // measure 112
0010
0000
0001
0000
0100
0000
0001
0000
0000
0000
0000
0000
,  // measure 113
1000
0000
0001
0000
1000
0000
0001
0000
1000
0000
0001
0000
,  // measure 114
1000
0000
1000
0100
0000
0100
0010
0000
0010
0001
0000
0001
1000
0000
1000
0100
0000
0100
0010
0000
0010
0001
0000
0001
,  // measure 115
2000
0000
0000
3200
0000
0000
0320
0000
0000
0230
0000
0000
0320
0000
0000
0032
,  // measure 116
0000
0000
0203
0000
0000
0320
0000
0000
0230
0000
0000
0302
0000
0000
0203
0000
,  // measure 117
0000
2300
0000
0000
3200
0000
0000
0320
0000
0000
2030
0000
0000
3002
0000
0000
,  // measure 118
2003
0000
0000
3200
0000
0000
2300
0000
0000
3020
0000
0000
0032
0000
0000
0023
,  // measure 119
0000
0000
2030
0000
0000
3020
0000
0000
2030
0000
0000
3200
0000
0000
0320
0000
,  // measure 120
0000
0032
0000
0000
2003
0000
0000
3200
0000
0000
0320
0000
0000
0032
0000
0000
,  // measure 121
2003
0000
0000
3002
0000
0000
0203
0000
0000
0320
0000
0000
0032
0000
0000
2003
,  // measure 122
0000
0000
3020
0000
0000
0230
0000
0000
2300
0000
0000
3002
0000
0000
0203
0000
,  // measure 123
0000
0320
0000
0000
0032
0000
0000
2003
0000
0000
3020
0000
0000
0230
0000
0000
,  // measure 124
2300
3002
2003
3002
,  // measure 125
2003
0000
3002
0000
,  // measure 126
2003
0000
3002
0000
,  // measure 127
2003
0000
0000
0000
,  // measure 128
3002
0000
0000
0000
,  // measure 129
2003
0000
0000
0000
,  // measure 130
3002
0000
0000
0000
,  // measure 131
2003
0000
0000
0000
,  // measure 132
0000
0000
0000
0000
,  // measure 133
3002
0000
0000
0000
,  // measure 134
0000
0000
0000
0000
,  // measure 135
2003
0000
0000
0000
,  // measure 136
0000
0000
0000
0000
,  // measure 137
0000
0000
0000
0000
,  // measure 138
0000
0000
0000
0000
,  // measure 139
3002
0000
0000
0000
,  // measure 140
0000
0000
0000
0000
,  // measure 141
0000
0000
0000
0000
,  // measure 142
0000
0000
0000
0000
,  // measure 143
2003
0000
0000
0000
,  // measure 144
0000
0000
0000
0000
,  // measure 145
3001
1100
0001
1010
,  // measure 146
0001
0000
0001
1000
0000
1000
2002
0000
0000
3003
0000
0000
,  // measure 147
1000
0100
0010
0001
0010
0100
1000
0100
0010
0001
0010
0100
,  // measure 148
1000
0000
1000
0100
0000
0100
1000
0000
1000
0010
0000
0010
,  // measure 149
2000
3200
0320
0032
,  // measure 150
1003
0000
0000
0000
0000
0022
0000
0000
0000
0033
0000
0000
,  // measure 151
1000
0000
0000
0202
0303
0000
1000
0000
0000
0022
0033
0000
,  // measure 152
1000
0000
0000
0000
0010
0000
0100
0000
0000
0000
0001
0000
0000
0000
0000
0000
1000
0000
0010
0000
0000
0000
1000
0010
,  // measure 153
0100
0101
0100
1100
,  // measure 154
0100
0220
0000
0330
,  // measure 155
1100
0000
0000
1010
0000
0000
0101
0000
0000
0011
0000
1000
,  // measure 156
0010
0000
0100
0001
0000
1100
0000
0000
0010
0001
0000
0100
,  // measure 157
0001
0000
0001
0100
0000
0000
0010
0000
0000
0100
0000
0000
,  // measure 158
0002
0000
0000
0000
0000
0003
0220
0000
0000
0000
0000
0000
,  // measure 159
0000
0000
0000
0330
,  // measure 160
2000
3001
2000
3001
2000
3001
2000
3001
2000
3001
2000
3001
2000
3001
2000
3001
,  // measure 161
0002
1003
0002
1003
0002
1003
0002
1003
0002
1003
0002
1003
0002
1003
0002
1003
,  // measure 162
2000
3010
0200
0301
0020
0031
2000
3100
,  // measure 163
2000
3010
0200
0301
0020
0031
2000
3100
,  // measure 164
2000
0000
3000
1000
0000
0000
0002
0000
0003
0001
0000
0000
2000
0000
3000
1000
0000
0000
0002
0000
0003
0001
0000
0000
,  // measure 165
2002
0000
0000
3003
,  // measure 166
1000
0000
1000
0010
0000
0010
1000
0000
1000
0100
0000
0100
,  // measure 167
0010
0000
0010
0001
0000
0001
0100
0000
0100
0010
1000
0100
,  // measure 168
0010
0000
0010
0001
0000
0001
1000
0000
1000
0100
0000
0100
,  // measure 169
0010
0000
0001
1000
0000
0100
0011
0000
0000
1100
0000
0000
,  // measure 170
0010
0001
0010
0001
0000
1000
0010
0100
0010
0100
0000
0001
,  // measure 171
1000
0000
0100
0010
0000
0001
0010
0000
0100
1000
0000
0001
,  // measure 172
1000
0001
1000
0001
0000
0000
1000
0001
1000
0001
0000
0000
,  // measure 173
0100
0010
0100
0010
0000
0000
1000
0001
1000
0001
0000
0000
,  // measure 174
1000
0000
0100
0010
0000
0100
0010
0000
0001
0010
0000
0100
,  // measure 175
0010
0000
0010
0001
0000
0001
1000
0000
1000
0100
0000
0100
,  // measure 176
1000
0000
0010
0000
0000
0100
0000
0000
0001
0000
0000
1000
,  // measure 177
0000
0000
0100
0000
0000
0010
0000
0000
0001
0000
0000
1000
,  // measure 178
0001
0000
0000
0001
0000
0000
1000
0010
0100
0001
0000
0000
,  // measure 179
1000
0000
0000
1000
0000
0000
0001
0010
0100
1000
0000
0000
,  // measure 180
1000
0000
0000
0000
0001
0000
0000
0000
0000
0000
1000
0000
0001
0000
0000
0000
0000
0000
1000
0000
0000
0000
0001
0010
,  // measure 181
0100
0000
0000
0100
0000
0000
1000
0100
0010
0001
0010
0100
,  // measure 182
1000
0000
0100
1000
0000
0100
0000
0000
0010
0001
0000
0000
,  // measure 183
1010
1010
0101
0101
,  // measure 184
1000
0000
0100
0000
0010
0000
0001
0000
0010
0000
0100
0000
,  // measure 185
0010
0000
0001
0000
1000
0000
0020
0000
0000
0000
0000
0000
,  // measure 186
1030
0000
0000
1000
0000
0000
0001
0010
0001
0010
0001
0010
,  // measure 187
0001
0000
0000
0001
0000
0000
1000
0100
0010
0001
0100
0001
,  // measure 188
1000
0000
1000
0000
0000
2000
0000
3000
0002
0000
0003
0002
,  // measure 189
1003
0010
0100
0001
0010
0001
1000
0000
0000
1001
0000
0000
,  // measure 190
0120
1000
1000
1000
,  // measure 191
0100
0001
0001
0001
,  // measure 192
0100
1000
1000
1000
,  // measure 193
0100
0001
0001
0001
,  // measure 194
0100
1000
0100
0001
,  // measure 195
0100
1000
0100
0001
,  // measure 196
0100
0000
0000
0100
0000
0000
0100
0000
0000
0100
0000
0030
,  // measure 197
2002
0000
0000
0000
3003
0220
0000
0000
0000
0000
0000
0330
,  // measure 198
1000
0000
0010
0000
0100
0000
1000
0000
0100
0000
0001
0000
,  // measure 199
1000
0010
0100
1000
0100
0001
1000
0010
0100
1000
0100
0001
,  // measure 200
0010
0000
0001
0000
0100
0000
0010
0000
1000
0000
0100
0000
,  // measure 201
0010
0001
0100
0010
1000
0100
0010
0001
0100
0010
1000
0100
,  // measure 202
0010
0000
0001
0000
0010
0000
0100
0000
1000
0000
0100
0000
,  // measure 203
0010
0001
0010
0100
1000
0100
0010
0001
0010
0100
1000
0100
,  // measure 204
0010
0000
0010
0001
0000
0001
0100
0000
0100
1000
0000
1000
,  // measure 205
0220
0000
0000
0000
0330
0202
0000
0000
0000
0000
0000
0303
,  // measure 206
1000
0000
0000
1000
0000
1000
0010
0000
0000
0010
0000
0010
,  // measure 207
0100
0000
0000
0100
0000
0100
0001
0000
0000
0001
0000
0001
,  // measure 208
1000
0000
1000
0100
0000
0100
0010
0000
0010
0001
0000
0001
,  // measure 209
1000
0001
0100
0010
0000
0100
0000
0000
0010
0000
0000
0100
,  // measure 210
0001
0000
0000
0000
0000
0000
0001
0000
0000
0000
0000
0000
0001
0000
0000
0000
0000
0000
0001
0000
0000
0000
0010
0100
,  // measure 211
1000
0000
0000
0000
0000
0000
1000
0000
0000
0000
0000
0000
1000
0000
0000
0000
0000
0000
1000
0000
0000
0000
0100
0010
,  // measure 212
0001
0010
0100
1000
0001
0010
0100
1000
0001
0010
0100
1000
,  // measure 213
0022
0000
0000
0000
0000
0033
2200
0000
0000
0000
0000
0000
,  // measure 214
0000
0000
0000
0000
,  // measure 215
0000
0000
0000
0000
0000
0000
0000
3300
0000
0000
0000
0000
,  // measure 216
1000
0000
0100
0000
0010
0000
0001
0000
1000
0000
0100
0000
,  // measure 217
0010
0000
0001
0000
1000
0000
0100
0000
0010
0000
0001
0000
,  // measure 218
1000
0000
0100
0000
0010
0000
0001
0000
1000
0000
0100
0000
,  // measure 219
0010
0000
0001
0000
1000
0000
0100
0000
0010
0000
0001
0000
,  // measure 220
1000
0000
0100
0000
0010
0000
0001
0000
1000
0000
0100
0000
,  // measure 221
0010
0000
0001
0000
1000
0000
0100
0000
0010
0000
0001
0000
,  // measure 222
1000
0000
0001
0000
1000
0000
0001
0000
1000
0000
0001
0000
,  // measure 223
2000
0000
0000
0000
,  // measure 224
3001
0000
0010
0000
0100
0000
1000
0000
0100
0000
0010
0000
,  // measure 225
0001
0000
0010
0000
0100
0000
1000
0000
0100
0000
0010
0000
,  // measure 226
0001
0000
0010
0000
0100
0000
1000
0000
0100
0000
0010
0000
,  // measure 227
0001
0000
0010
0000
0100
0000
1000
0000
0100
0000
0010
0000
,  // measure 228
0001
0000
0010
0000
0100
0000
1000
0000
0100
0000
0010
0000
,  // measure 229
0001
0000
0010
0000
0100
0000
1000
0000
0100
0000
0010
0000
,  // measure 230
0002
0000
0023
0000
0230
0000
2300
0000
3002
0000
0023
0000
,  // measure 231
0230
0000
2300
0000
3002
0000
0023
0000
0230
0000
2300
0000
,  // measure 232
3001
0000
1001
0000
,  // measure 233
1000
0000
1010
0000
,  // measure 234
0010
0000
0110
0000
,  // measure 235
0101
0000
0001
0000
,  // measure 236
1001
0000
1010
0000
,  // measure 237
1001
0000
1100
0000
,  // measure 238
1001
0000
0011
0000
,  // measure 239
0110
0000
1100
0000
,  // measure 240
1000
0000
0010
0000
0100
0000
0001
0000
0010
0000
0100
0000
,  // measure 241
1000
0000
0010
0000
0100
0000
0001
0000
0010
0000
0100
0000
,  // measure 242
1000
0000
0010
0000
0100
0000
0001
0000
0010
0000
0100
0000
,  // measure 243
1000
0000
0010
0000
0100
0000
0001
0000
0010
0000
0100
0000
,  // measure 244
1000
0000
0001
0000
1000
0000
0001
0000
1000
0000
0001
0000
,  // measure 245
0100
0000
0010
0000
0100
0000
0010
0000
0100
0000
0010
0000
,  // measure 246
1000
0000
0010
0000
1000
0000
0010
0000
1000
0000
0010
0000
,  // measure 247
0010
0001
0010
0001
0010
0001
0010
0001
,  // measure 248
2000
0000
0000
3001
0002
0000
0000
1003
,  // measure 249
2000
0000
0000
3001
0002
0000
0000
1003
,  // measure 250
2000
0000
0000
3001
0002
0000
0000
1003
,  // measure 251
2000
0000
0000
3001
0002
0000
0000
1003
,  // measure 252
2000
0000
0000
0000
0000
0000
0000
0000
0000
3001
0000
0000
0002
0000
0000
0000
,  // measure 253
0000
0000
0000
0000
0000
1003
0000
0000
2000
0000
0000
0000
0000
0000
0000
0000
,  // measure 254
0000
3001
0000
0000
0002
0000
0000
0000
0000
0000
0000
0000
0000
1003
0000
0000
,  // measure 255
2000
0000
0000
0000
0000
0000
0000
0000
0000
3001
0000
0000
0002
0000
0000
0000
,  // measure 256
0000
0000
0000
0000
0000
1003
0000
0000
2000
0000
0000
0000
0000
0000
0000
0000
,  // measure 257
0000
3001
0000
0000
0002
0000
0000
0000
0000
0000
0000
0000
0000
1003
0000
0000
,  // measure 258
2000
0000
0000
3001
,  // measure 259
0002
0000
0000
1003
,  // measure 260
2000
0000
0000
3001
,  // measure 261
0002
0000
0000
1003
,  // measure 262
2000
0000
0000
3001
,  // measure 263
0002
0000
0000
1003
,  // measure 264
2000
0000
0000
3001
,  // measure 265
0002
0000
0000
1003
,  // measure 266
2000
0000
0000
3001
0002
0000
0000
1003
,  // measure 267
2000
0000
0000
0000
0000
0000
0000
0000
0000
0000
0000
0000
3001
0000
0000
0000
0002
0000
0000
0000
0000
0000
0000
0000
0000
0000
0000
0000
1003
0000
0000
0000
2000
0000
0000
0000
0000
0000
3001
0000
0002
0000
0000
0000
0000
0000
1003
0000
2000
0000
0000
3001
0002
0000
0000
1003
0000
0000
0000
0000
0000
0000
0000
0000
;
