#TITLE:少年は空を辿る;
#SUBTITLE:;
#ARTIST:Power Of Nature;
#TITLETRANSLIT:Shounen wa Sora wo Tadoru;
#SUBTITLETRANSLIT:;
#ARTISTTRANSLIT:;
#GENRE:MURAKUMO;
#CREDIT:;
#BANNER:;
#BACKGROUND:;
#LYRICSPATH:;
#CDTITLE:;
#MUSIC:Shounen wa Sora wo Tadoru.mp3;
#OFFSET:-1.770;
#SAMPLESTART:33.780;
#SAMPLELENGTH:15.643;
#SELECTABLE:YES;
#BPMS:0.000=280.000
,40.000=560.000
,42.000=280.000
,44.000=560.000
,46.000=280.000
,47.500=560.000
,49.500=280.000
,51.500=560.000
,53.500=280.000
,54.500=560.000
,56.500=280.000
,58.500=560.000
,60.500=280.000
,62.000=560.000
,94.000=280.000
,116.000=140.000
,147.000=560.000
,179.000=280.000
,207.000=560.000
,289.000=140.000
,293.000=280.000
,306.000=560.000
,312.000=280.000
,325.000=560.000
,331.000=280.000
,344.000=560.000
,350.000=140.000
,354.000=280.000
,359.000=560.000
,365.000=280.000
,378.000=560.000
,412.000=280.000
,428.000=140.000
,444.000=280.000
,476.000=420.000
,560.000=280.000
,571.000=560.000
,576.000=280.000
,587.000=560.000
,592.000=280.000
,603.000=560.000
,608.000=280.000
,619.000=560.000
,624.000=140.000
;
#STOPS:90.000=0.429,
571.000=0.107,
572.000=0.107,
573.000=0.107,
574.000=0.107,
575.000=0.107,
587.000=0.107,
588.000=0.107,
589.000=0.107,
590.000=0.107,
591.000=0.107,
603.000=0.107,
604.000=0.107,
605.000=0.107,
606.000=0.107,
607.000=0.107,
619.000=0.107,
620.000=0.107,
621.000=0.107,
622.000=0.107,
623.000=0.107
;
#BGCHANGES:;
#KEYSOUNDS:;
#ATTACKS:;

//---------------dance-single - ----------------
#NOTES:
     dance-single:
     :
     Challenge:
     14:
     1.000,1.000,1.000,0.883,0.422,956.000,138.000,111.000,0.000,0.000,0.000,1.000,1.000,1.000,0.883,0.422,956.000,138.000,111.000,0.000,0.000,0.000:
1000
0100
0010
0001
0100
0010
1000
0100
0010
0001
0100
0010
,
1000
0100
0010
0001
0100
0010
1000
0100
0010
0001
0100
0010
,
1000
0010
0100
0001
0010
0100
1000
0010
0100
0001
0010
0100
,
1000
0010
0100
0001
0010
0100
1000
0010
0100
0001
0010
0100
,
1000
0002
0003
0001
2000
3000
1001
0000
,
0010
0200
0300
0100
0020
0030
0110
0000
,
0001
2000
3000
1000
0002
0003
1001
0000
,
0100
0020
0030
0010
0200
0300
0110
0000
,
1000
0020
0030
0100
0002
0003
1010
0000
,
0010
0002
0003
1000
0200
0300
0011
0000
,
1010
0000
1010
0000
0000
0200
0301
0000
,
0011
0000
0011
0000
0000
2000
3100
1100
,
0000
1100
0000
0000
0020
0031
0000
0101
,
0000
0101
0000
2000
3010
1001
0000
1001
,
0000
0000
0020
0130
0000
1001
0000
1001
,
0000
0000
0200
0310
0110
0000
0000
0000
,
1001
0000
1000
1001
,
0010
0011
0000
1100
,
0000
0010
0011
1001
,
1010
0000
0110
0000
,
1000
1010
0010
0110
,
0100
0101
0000
1000
,
1010
0011
2020
0000
,
3030
0000
0000
0000
0100
0001
0010
1000
,
0010
0000
0000
0001
0000
0000
0100
0000
0010
0000
1000
0000
0100
0000
0000
0010
0000
0000
0001
0000
0000
0100
0000
0000
,
0001
0010
1000
0010
0100
1000
0001
0100
,
1000
0100
0010
1000
0100
0001
0100
0010
,
0001
1000
0100
0010
0001
0100
1000
0100
,
0010
1000
0100
0001
0100
0010
0001
1000
,
0002
0003
0002
0003
2000
3002
0003
0002
0003
0002
0003
0200
0302
0003
1100
0000
,
0002
0003
0002
0003
2000
3200
0320
0032
0003
0002
2003
3002
2003
3000
2000
3000
,
2000
3000
0002
2003
3000
2000
3000
2000
3000
2000
3000
0002
2003
3000
0101
0000
,
2000
3020
0230
0302
0003
2000
3020
0230
0302
0003
0002
0003
0002
0003
2002
3003
,
0010
0001
0000
1000
0010
0000
0220
0330
1000
0010
0100
0001
0010
0000
2002
3003
,
1000
0001
1000
0001
0010
0100
0220
0330
0100
0010
1000
0010
0100
0001
0010
0100
,
1000
0010
0100
0001
0010
0100
1000
0010
0100
0001
0010
0100
1000
0010
0100
0001
,
0010
0100
1000
0010
0100
0001
0010
0100
1000
0100
0010
0001
1010
0000
0000
0000
,
0000
0101
0000
0010
,
0011
0000
1100
0000
,
1001
0000
0001
0110
,
0000
1010
0110
0101
,
0000
1001
0000
0010
,
0011
0000
0110
0000
,
0100
0110
0000
1100
,
0000
0000
0110
0000
1001
0000
1000
0100
,
0001
0100
1000
0010
0001
0010
1000
0100
,
0001
0100
1000
0010
0001
0010
1000
0100
,
1000
0010
0100
0001
0010
0001
1000
0100
,
0010
0001
1000
0010
1000
0100
0010
0001
,
0100
0001
1000
0010
1000
0100
0010
0001
,
0100
0001
1000
0010
0100
0001
0010
0001
,
1000
0100
1000
0001
1000
0001
1001
0000
,
0000
0100
0001
0100
,
1000
0100
0110
0000
,
0100
0110
0000
1001
,
0000
0000
1000
0001
0100
0000
0010
0000
,
1000
0001
0100
0010
,
0200
0000
0310
0001
,
0010
0100
1000
1100
,
0000
0100
0010
0100
,
0001
1000
0002
0000
,
0000
1003
0010
0100
,
1000
0100
0001
0010
,
0100
0010
0001
1000
,
0020
0000
0000
0000
0000
0000
1030
0010
,
1000
0001
0010
0100
,
1000
0011
0000
0011
,
0000
1100
0000
1100
,
0000
1010
0000
1010
,
0000
0101
0101
0101
,
0101
1001
0000
1001
,
0000
0220
0000
0330
,
0000
2002
0000
0000
,
3003
0000
0000
0000
2000
3000
0020
0030
0200
0300
0002
0003
0020
0030
0002
0003
,
2000
3000
0200
0300
2000
3000
0020
0030
0200
0300
0002
0003
0200
0300
0020
0030
,
2000
3000
0002
0003
2000
3000
0200
0300
2000
3000
0020
0030
0200
0300
0020
0030
,
0200
0300
0002
0003
0020
0030
0002
0003
1100
0000
0000
0000
0000
0000
1010
0000
,
0000
1100
1001
0110
,
1000
0100
0010
0100
0001
0100
0010
2000
,
0000
3010
0001
0100
0010
1000
0100
0020
,
0000
0130
1000
0010
0100
1000
0100
0010
,
1000
0001
1001
0000
0000
1010
0000
0000
,
0011
0000
1001
0000
1001
0000
0010
1000
,
0001
1000
0010
0001
0100
2000
0000
3100
,
0010
1000
0100
0001
0100
0020
0000
0031
,
0010
0100
0010
0001
0100
1000
0100
0010
,
1001
0000
0000
1100
0000
0000
0011
0000
,
1001
0000
0000
0000
1001
0000
0000
0000
1000
0010
0100
0001
0000
0010
0100
1000
,
0000
0010
0100
0001
0010
1000
0010
0001
1000
0000
0100
0000
0001
0000
0100
0000
,
1000
0010
0001
0010
1000
0100
1010
0000
,
0000
1100
0000
0000
0110
0000
1001
0000
,
1001
0000
1000
0100
0010
0001
0100
0010
,
0100
0002
0000
1003
0100
0001
0100
0010
,
0001
2000
0000
3001
0010
0100
1000
0100
,
0010
0001
0010
0100
0011
0000
0000
0101
,
0000
0110
1001
1001
,
1010
0000
0101
0000
,
0010
0011
0000
1100
,
0000
1001
0000
0010
,
1010
0110
0011
0000
,
0110
0000
1000
1001
,
0000
0110
0000
1001
,
0000
0001
0011
1010
,
1001
0010
0100
0010
0001
0010
0100
0010
,
1000
0000
0000
0010
0000
0000
0001
0000
0000
0010
0000
0000
1000
0000
0100
0000
0010
0000
0001
0000
0010
0000
0100
0000
,
1000
0100
0010
0001
0010
0100
1000
0100
0010
0001
0010
0100
,
1000
0100
0010
0001
0010
0100
1000
0100
0010
0001
0010
0100
,
1000
0001
0010
0100
1000
0001
2000
3200
,
0320
0000
0032
0000
,
1003
0001
0010
0100
1000
0001
2000
3000
,
2000
0000
3002
0000
,
1003
0010
0000
0100
0001
0000
1001
0000
,
1000
0010
0000
0100
0001
0000
1001
0000
,
0010
0001
0000
1000
0100
0000
1001
0000
,
0010
0001
0000
1000
0100
0000
1001
0000
,
1000
0010
1000
0100
0010
0001
0100
0001
,
1000
0010
1000
0100
0010
0001
0100
0001
,
1000
0100
0010
0001
1000
0100
0010
0001
,
1000
0000
0000
0100
0000
0000
0010
0000
0000
0001
0000
0000
1000
0000
0000
0000
1000
0000
0000
0000
1000
0000
0000
0000
,
1000
0010
0100
0001
,
0010
0001
1000
0100
1000
0000
0100
0000
,
0001
0000
0100
0000
0010
0001
0100
0010
,
1000
0100
1000
0010
,
1000
0100
0010
0001
1000
0000
0001
0000
,
1000
0000
0001
0000
0010
0100
0010
0100
,
1000
1000
0001
0001
,
0010
0001
1000
0010
1000
0000
0100
0000
,
0010
0000
0001
0000
0010
0001
0010
1000
,
0010
0100
0010
0100
,
1000
0010
0100
0010
1000
0000
0100
0000
,
1000
0000
0100
0000
0010
0001
0010
0001
,
1000
0010
0100
1000
0100
0001
0010
0100
,
0010
1000
0010
0001
0100
1000
0100
0010
,
1000
0100
0001
0100
0010
0100
1000
0010
,
0001
0010
1000
0100
0010
0001
0100
0010
,
1000
0100
0010
0001
1000
0010
0100
1000
,
0100
0001
0010
0100
1000
0010
0100
0001
,
1000
0010
1000
0010
0100
0001
0100
0001
,
0010
0001
0010
0001
1000
0100
1000
0100
,
1000
0001
1000
0001
1000
0001
1000
0001
,
1000
0100
0010
0001
0100
0010
1000
0100
,
0001
0100
0010
0001
1000
0010
0100
0001
,
0010
0100
1000
0010
0100
0001
1010
0000
,
0101
0011
1100
1001
,
0010
0100
1000
0001
0100
0010
1000
0001
,
0010
0100
1000
0001
0100
0010
1000
0001
,
1000
0100
0010
0100
1000
0001
1010
0000
,
0101
0011
1100
1001
,
1000
0100
0001
0100
0010
0001
0100
0010
,
0100
1000
0100
0010
1000
0100
1000
0010
,
0100
0001
0010
0001
1000
0010
1010
0000
,
0101
0011
1100
1001
,
1000
0010
0100
0001
0010
0001
1000
0100
,
1000
0100
0010
0001
0010
0100
1000
0010
,
1000
0010
0100
0001
1000
0010
1010
0000
,
0101
0011
1100
1001
,
1000
1000
1000
0001
0001
0001
0001
0001
,
0001
0001
0001
1000
1000
1000
1000
1000
,
1000
1000
1000
0001
0001
0001
0001
0001
,
0001
0001
0001
1000
1000
1000
1000
1000
;

//---------------dance-single - ----------------
#NOTES:
     dance-single:
     :
     Hard:
     13:
     1.000,1.000,1.000,0.883,0.302,934.000,140.000,111.000,0.000,0.000,0.000,1.000,1.000,1.000,0.883,0.302,934.000,140.000,111.000,0.000,0.000,0.000: // measure 0
1000
0100
0010
0001
0100
0010
1000
0001
,  // measure 1
1000
0000
0000
0100
0000
0000
0010
0000
0000
0001
0000
0000
0100
0000
0000
0000
0010
0000
0000
0000
0100
0000
0000
0000
,  // measure 2
0010
1001
0010
1001
,  // measure 3
1000
0001
0010
0100
1000
0000
1000
0001
,  // measure 4
1000
0002
0003
0001
2000
3000
1001
0000
,  // measure 5
0010
0200
0300
0100
0020
0030
0110
0000
,  // measure 6
0001
2000
3000
1000
0002
0003
1001
0000
,  // measure 7
0100
0020
0030
0010
0200
0300
0110
0000
,  // measure 8
1000
0020
0030
0100
0002
0003
1010
0000
,  // measure 9
0010
0002
0003
1000
0200
0300
0011
0000
,  // measure 10
1010
0000
1010
0000
0000
0200
0301
0000
,  // measure 11
0011
0000
0011
0000
0000
2000
3100
1100
,  // measure 12
0000
1100
0000
0000
0020
0031
0000
0101
,  // measure 13
0000
0101
0000
2000
3010
1001
0000
1001
,  // measure 14
0000
0000
0020
0130
0000
1001
0000
1001
,  // measure 15
0000
0000
0200
0310
0110
0000
0000
0000
,  // measure 16
1001
0000
1000
1001
,  // measure 17
0010
0011
0000
1100
,  // measure 18
0000
0010
0011
1001
,  // measure 19
1010
0000
0110
0000
,  // measure 20
1000
1010
0010
0110
,  // measure 21
0100
0101
0000
1000
,  // measure 22
1010
0011
2020
0000
,  // measure 23
3030
0000
0000
0000
0100
0001
0010
1000
,  // measure 24
0010
0000
0000
0001
0000
0000
0100
0000
0010
0000
1000
0000
0100
0000
0000
0010
0000
0000
0001
0000
0000
0100
0000
0000
,  // measure 25
0001
0010
1000
0010
0100
1000
0001
0100
,  // measure 26
1000
0100
0010
1000
0100
0001
0100
0010
,  // measure 27
0001
1000
0100
0010
0001
0100
1000
0100
,  // measure 28
0010
1000
0100
0001
0100
0010
0001
1000
,  // measure 29
0002
0003
0002
0003
2000
3002
0003
0002
0003
0002
0003
0200
0302
0003
1100
0000
,  // measure 30
0002
0003
0002
0003
2000
3200
0320
0032
0003
0002
2003
3002
2003
3000
2000
3000
,  // measure 31
2000
3000
0002
2003
3000
2000
3000
2000
3000
2000
3000
0002
2003
3000
0101
0000
,  // measure 32
2000
3020
0230
0302
0003
2000
3020
0230
0302
0003
0002
0003
0002
0003
2002
3003
,  // measure 33
0010
0001
0000
1000
0010
0000
0220
0330
1000
0010
0100
0001
0010
0000
2002
3003
,  // measure 34
1000
0001
1000
0001
0010
0100
0220
0330
0100
0010
1000
0010
0100
0001
0010
0100
,  // measure 35
1000
0010
0100
0001
0010
0100
1000
0010
0100
0001
0010
0100
1000
0010
0100
0001
,  // measure 36
0010
0100
1000
0010
0100
0001
0010
0100
1000
0100
0010
0001
1010
0000
0000
0000
,  // measure 37
0000
0101
0000
0010
,  // measure 38
0011
0000
1100
0000
,  // measure 39
1001
0000
0001
0110
,  // measure 40
0000
1010
0110
0101
,  // measure 41
0000
1001
0000
0010
,  // measure 42
0011
0000
0110
0000
,  // measure 43
0100
0110
0000
1100
,  // measure 44
0000
0000
0110
0000
1001
0000
1000
0100
,  // measure 45
0001
0100
1000
0010
0001
0010
1000
0100
,  // measure 46
0001
0100
1000
0010
0001
0010
1000
0100
,  // measure 47
1000
0010
0100
0001
0010
0001
1000
0100
,  // measure 48
0010
0001
1000
0010
1000
0100
0010
0001
,  // measure 49
0100
0001
1000
0010
1000
0100
0010
0001
,  // measure 50
0100
0001
1000
0010
0100
0001
0010
0001
,  // measure 51
1000
0100
1000
0001
1000
0001
1001
0000
,  // measure 52
0000
0100
0001
0100
,  // measure 53
1000
0100
0110
0000
,  // measure 54
0100
0110
0000
1001
,  // measure 55
0000
0000
1000
0001
0100
0000
0010
0000
,  // measure 56
1000
0001
0100
0010
,  // measure 57
0200
0000
0310
0001
,  // measure 58
0010
0100
1000
1100
,  // measure 59
0000
0100
0010
0100
,  // measure 60
0001
1000
0002
0000
,  // measure 61
0000
1003
0010
0100
,  // measure 62
1000
0100
0001
0010
,  // measure 63
0100
0010
0001
1000
,  // measure 64
0020
0000
0000
0000
0000
0000
1030
0010
,  // measure 65
1000
0001
0010
0100
,  // measure 66
1000
0011
0000
0011
,  // measure 67
0000
1100
0000
1100
,  // measure 68
0000
1010
0000
1010
,  // measure 69
0000
0101
0101
0101
,  // measure 70
0101
1001
0000
1001
,  // measure 71
0000
0220
0000
0330
,  // measure 72
0000
2002
0000
0000
,  // measure 73
3003
0000
0000
0000
2000
3000
0020
0030
0200
0300
0002
0003
0020
0030
0002
0003
,  // measure 74
2000
3000
0200
0300
2000
3000
0020
0030
0200
0300
0002
0003
0200
0300
0020
0030
,  // measure 75
2000
3000
0002
0003
2000
3000
0200
0300
2000
3000
0020
0030
0200
0300
0020
0030
,  // measure 76
0200
0300
0002
0003
0020
0030
0002
0003
1100
0000
0000
0000
0000
0000
1010
0000
,  // measure 77
0000
1100
1001
0110
,  // measure 78
1000
0100
0010
0100
0001
0100
0010
2000
,  // measure 79
0000
3010
0001
0100
0010
1000
0100
0020
,  // measure 80
0000
0130
1000
0010
0100
1000
0100
0010
,  // measure 81
1000
0001
1001
0000
0000
1010
0000
0000
,  // measure 82
0011
0000
1001
0000
1001
0000
0010
1000
,  // measure 83
0001
1000
0010
0001
0100
2000
0000
3100
,  // measure 84
0010
1000
0100
0001
0100
0020
0000
0031
,  // measure 85
0010
0100
0010
0001
0100
1000
0100
0010
,  // measure 86
1001
0000
0000
1100
0000
0000
0011
0000
,  // measure 87
1001
0000
0000
0000
1001
0000
0000
0000
1000
0010
0100
0001
0000
0010
0100
1000
,  // measure 88
0000
0010
0100
0001
0010
1000
0010
0001
1000
0000
0100
0000
0001
0000
0100
0000
,  // measure 89
1000
0010
0001
0010
1000
0100
1010
0000
,  // measure 90
0000
1100
0000
0000
0110
0000
1001
0000
,  // measure 91
1001
0000
1000
0100
0010
0001
0100
0010
,  // measure 92
0100
0002
0000
1003
0100
0001
0100
0010
,  // measure 93
0001
2000
0000
3001
0010
0100
1000
0100
,  // measure 94
0010
0001
0010
0100
0011
0000
0000
0101
,  // measure 95
0000
0110
1001
1001
,  // measure 96
1010
0000
0101
0000
,  // measure 97
0010
0011
0000
1100
,  // measure 98
0000
1001
0000
0010
,  // measure 99
1010
0110
0011
0000
,  // measure 100
0110
0000
1000
1001
,  // measure 101
0000
0110
0000
1001
,  // measure 102
0000
0001
0011
1010
,  // measure 103
1001
0010
0100
0010
0001
0010
0100
0010
,  // measure 104
1000
0000
0000
0010
0000
0000
0001
0000
0000
0010
0000
0000
1000
0000
0100
0000
0010
0000
0001
0000
0010
0000
0100
0000
,  // measure 105
1000
0100
0010
0001
0010
0100
1000
0100
0010
0001
0010
0100
,  // measure 106
1000
0100
0010
0001
0010
0100
1000
0100
0010
0001
0010
0100
,  // measure 107
1000
0001
0010
0100
1000
0001
2000
3200
,  // measure 108
0320
0000
0032
0000
,  // measure 109
1003
0001
0010
0100
1000
0001
2000
3000
,  // measure 110
2000
0000
3002
0000
,  // measure 111
1003
0010
0000
0100
0001
0000
1001
0000
,  // measure 112
1000
0010
0000
0100
0001
0000
1001
0000
,  // measure 113
0010
0001
0000
1000
0100
0000
1001
0000
,  // measure 114
0010
0001
0000
1000
0100
0000
1001
0000
,  // measure 115
1000
0010
1000
0100
0010
0001
0100
0001
,  // measure 116
1000
0010
1000
0100
0010
0001
0100
0001
,  // measure 117
1000
0100
0010
0001
1000
0100
0010
0001
,  // measure 118
1000
0000
0000
0100
0000
0000
0010
0000
0000
0001
0000
0000
1000
0000
0000
0000
1000
0000
0000
0000
1000
0000
0000
0000
,  // measure 119
1000
0010
0100
0001
,  // measure 120
0010
0001
1000
0100
1000
0000
0100
0000
,  // measure 121
0001
0000
0100
0000
0010
0001
0100
0010
,  // measure 122
1000
0100
1000
0010
,  // measure 123
1000
0100
0010
0001
1000
0000
0001
0000
,  // measure 124
1000
0000
0001
0000
0010
0100
0010
0100
,  // measure 125
1000
1000
0001
0001
,  // measure 126
0010
0001
1000
0010
1000
0000
0100
0000
,  // measure 127
0010
0000
0001
0000
0010
0001
0010
1000
,  // measure 128
0010
0100
0010
0100
,  // measure 129
1000
0010
0100
0010
1000
0000
0100
0000
,  // measure 130
1000
0000
0100
0000
0010
0001
0010
0001
,  // measure 131
1000
0010
0100
1000
0100
0001
0010
0100
,  // measure 132
0010
1000
0010
0001
0100
1000
0100
0010
,  // measure 133
1000
0100
0001
0100
0010
0100
1000
0010
,  // measure 134
0001
0010
1000
0100
0010
0001
0100
0010
,  // measure 135
1000
0100
0010
0001
1000
0010
0100
1000
,  // measure 136
0100
0001
0010
0100
1000
0010
0100
0001
,  // measure 137
1000
0010
1000
0010
0100
0001
0100
0001
,  // measure 138
0010
0001
0010
0001
1000
0100
1000
0100
,  // measure 139
1000
0001
1000
0001
1000
0001
1000
0001
,  // measure 140
1000
0100
0010
0001
0100
0010
1000
0100
,  // measure 141
0001
0100
0010
0001
1000
0010
0100
0001
,  // measure 142
0010
0100
1000
0010
0100
0001
1010
0000
,  // measure 143
0101
0011
1100
1001
,  // measure 144
0010
0100
1000
0001
0100
0010
1000
0001
,  // measure 145
0010
0100
1000
0001
0100
0010
1000
0001
,  // measure 146
1000
0100
0010
0100
1000
0001
1010
0000
,  // measure 147
0101
0011
1100
1001
,  // measure 148
1000
0100
0001
0100
0010
0001
0100
0010
,  // measure 149
0100
1000
0100
0010
1000
0100
1000
0010
,  // measure 150
0100
0001
0010
0001
1000
0010
1010
0000
,  // measure 151
0101
0011
1100
1001
,  // measure 152
1000
0010
0100
0001
0010
0001
1000
0100
,  // measure 153
1000
0100
0010
0001
0010
0100
1000
0010
,  // measure 154
1000
0010
0100
0001
1000
0010
1010
0000
,  // measure 155
0101
0011
1100
1001
,  // measure 156
1000
1000
1000
0001
0001
0001
0001
0001
,  // measure 157
0001
0001
0001
1000
1000
1000
1000
1000
,  // measure 158
1000
1000
1000
0001
0001
0001
0001
0001
,  // measure 159
0001
0001
0001
1000
1000
1000
1000
1000
;
