#TITLE:Ofcourse you Need and nEed and neEd and neeD and NEED ME?;
#SUBTITLE:;
#ARTIST:t+pazolite;
#TITLETRANSLIT:;
#SUBTITLETRANSLIT:;
#ARTISTTRANSLIT:;
#GENRE:;
#CREDIT:;
#BANNER:;
#BACKGROUND:;
#LYRICSPATH:;
#CDTITLE:;
#MUSIC:Ofcourse you Need and nEed and neEd and neeD and NEED ME.mp3;
#OFFSET:-0.082;
#SAMPLESTART:208.117;
#SAMPLELENGTH:9.500;
#SELECTABLE:YES;
#BPMS:0.000=480.000
,380.000=960.000
,384.000=1920.000
,392.000=60.000
,408.000=480.000
,988.000=120.000
,995.000=240.000
,996.000=120.000
,1003.000=240.000
,1004.000=120.000
,1011.000=240.000
,1012.000=120.000
,1018.000=360.000
,1024.000=480.000
,1276.000=960.000
,1280.000=3840.000
,1296.000=60.000
,1304.000=480.000
,1360.000=960.000
,1368.000=480.000
,1752.000=1920.000
,1756.000=3840.000
;
#STOPS:984.000=0.375,
985.000=0.125,
995.000=0.250,
1003.000=0.250,
1011.000=0.250,
1360.000=0.063,
1361.000=0.063,
1362.000=0.063,
1363.000=0.063,
1364.000=0.063,
1365.000=0.063,
1366.000=0.063,
1367.000=0.063,
1752.000=0.469,
1753.000=0.219,
1754.000=0.094,
1755.000=0.094
;
#BGCHANGES:;
#KEYSOUNDS:;
#ATTACKS:;

//---------------dance-single - Blank----------------
#NOTES:
     dance-single:
     :
     Challenge:
     18:
     1.000,1.000,1.000,1.000,0.118,2111.000,320.000,525.000,160.000,83.000,0.000,1.000,1.000,1.000,1.000,0.118,2111.000,320.000,525.000,160.000,83.000,0.000: // measure 0
1111
0000
1000
0000
0001
0000
0100
0010
,  // measure 1
1000
0000
0001
0000
0100
0000
0010
0001
,  // measure 2
0010
0000
0001
0000
0100
0000
0001
1000
,  // measure 3
0010
0100
2002
3003
,  // measure 4
1000
0000
1000
0000
0001
0000
0010
0100
,  // measure 5
1000
0000
0001
0000
0100
0000
0010
0100
,  // measure 6
0001
0000
1000
0000
0010
0000
0100
0001
,  // measure 7
1000
0010
0100
0001
1001
0000
0000
0000
,  // measure 8
1001
0000
0010
0000
0100
1000
0001
1000
,  // measure 9
0001
1000
0001
1000
,  // measure 10
0001
0000
0010
0000
0100
1000
0001
0010
,  // measure 11
1000
0010
2002
3003
,  // measure 12
1000
0000
0010
0000
0100
0000
0001
0010
,  // measure 13
1000
0010
0001
0000
1000
0000
0001
0000
,  // measure 14
1000
0100
0010
0001
,  // measure 15
2202
3303
2022
3033
,  // measure 16
1010
0000
0010
0000
1000
0000
0001
0100
,  // measure 17
0010
1000
0001
0000
2000
0000
3010
0000
,  // measure 18
0100
0000
0100
0000
0010
0000
1000
0001
,  // measure 19
0100
0010
1000
0000
0001
0000
1000
0000
,  // measure 20
0001
0001
1000
1000
,  // measure 21
0010
0001
0010
0001
1000
0100
1000
0100
,  // measure 22
0010
0010
0001
0001
,  // measure 23
2000
3200
0320
0032
2003
3200
0320
0032
,  // measure 24
2003
3001
0010
0100
,  // measure 25
2000
3001
0100
0010
,  // measure 26
2000
3001
0010
0010
,  // measure 27
2000
3001
0100
0100
,  // measure 28
1000
0010
1000
0010
1000
0010
1000
0000
,  // measure 29
0010
0001
0010
0001
0010
0001
0010
0000
,  // measure 30
1000
0001
1000
0001
1000
0001
1000
0001
,  // measure 31
1000
0010
0100
0001
1000
0010
0100
0001
,  // measure 32
1010
0000
0101
0000
,  // measure 33
0011
0000
1100
0000
,  // measure 34
1001
0000
0110
0000
,  // measure 35
1001
0000
0110
0110
,  // measure 36
1010
1000
0010
1000
,  // measure 37
0011
0010
0001
0010
,  // measure 38
1100
1000
0100
1000
,  // measure 39
0101
0100
0001
0100
,  // measure 40
1000
0010
1000
0000
0010
0000
0100
0000
,  // measure 41
0001
0010
0100
1000
,  // measure 42
0001
0100
0001
0000
0010
0000
0100
0000
,  // measure 43
0001
0010
0001
0100
,  // measure 44
1010
1010
1010
1010
,  // measure 45
0011
0011
0011
0011
,  // measure 46
1001
1001
1001
1001
,  // measure 47
1000
0001
1000
0001
1000
0001
1000
0001
,  // measure 48
0011
0000
1000
0100
0001
0000
0100
0000
,  // measure 49
1000
0010
0010
1000
,  // measure 50
0010
0000
0100
0001
0100
0000
0010
0000
,  // measure 51
1000
0000
1000
0000
0010
0100
0001
0000
,  // measure 52
1010
0000
0101
0000
,  // measure 53
1001
1001
0000
1011
,  // measure 54
0000
0000
1000
0100
1000
0000
0010
0001
,  // measure 55
0010
0001
1000
0100
,  // measure 56
1010
1000
1100
0000
,  // measure 57
0011
0001
0101
0000
,  // measure 58
1010
0010
0011
0000
,  // measure 59
1100
0100
0101
0000
,  // measure 60
1001
1001
1001
0000
,  // measure 61
0110
0110
0110
0000
,  // measure 62
2000
3000
2000
3000
0200
0300
2000
3000
,  // measure 63
0200
0300
0000
0000
0020
0030
0200
0300
,  // measure 64
1000
0000
0100
0000
0010
0001
0010
0000
,  // measure 65
0100
0000
1000
0000
0001
0010
0001
0000
,  // measure 66
0010
0001
0100
0010
,  // measure 67
1000
0100
1000
0001
,  // measure 68
1000
0010
0001
0010
,  // measure 69
1000
0100
0001
0100
,  // measure 70
2000
3002
2003
3002
,  // measure 71
0203
0320
0230
0320
,  // measure 72
1030
0001
1000
0001
1000
0000
0001
0000
,  // measure 73
1000
0100
0010
0001
,  // measure 74
1000
0100
1000
0010
1000
0000
0001
0000
,  // measure 75
1000
0010
0100
0001
,  // measure 76
1000
0100
0010
1000
,  // measure 77
0010
0100
1000
0001
,  // measure 78
2000
3001
0002
1003
,  // measure 79
0001
0010
0100
1000
0001
0010
0100
1000
,  // measure 80
1100
0001
1000
0001
,  // measure 81
0101
1000
0001
1000
,  // measure 82
1001
0001
1000
0001
,  // measure 83
2000
0000
0002
3003
,  // measure 84
1000
0000
0010
0000
0100
0000
0010
0100
,  // measure 85
0001
0000
0010
0000
0100
0000
0010
0100
,  // measure 86
1000
0010
1000
0010
0100
0000
0001
0000
,  // measure 87
0011
0000
1100
0000
,  // measure 88
1000
0000
0010
0000
1000
0010
1000
0010
,  // measure 89
0010
0000
0001
0000
0010
0001
0010
0001
,  // measure 90
1000
0000
0100
0000
1000
0100
1000
0100
,  // measure 91
0100
0000
0001
0000
0100
0001
0100
0001
,  // measure 92
1000
1000
0001
0001
,  // measure 93
1000
0000
1000
0000
0001
0010
0100
1000
,  // measure 94
0001
0100
0010
1000
0010
0100
0001
1000
,  // measure 95
1001
0000
0000
0000
,  // measure 96
0110
0000
0000
0000
,  // measure 97
0000
0000
0000
0000
,  // measure 98
2222
0000
0000
0000
,  // measure 99
0000
0000
0000
0000
,  // measure 100
0000
0000
0000
0000
,  // measure 101
0000
0000
0000
0000
0000
0000
0000
3333
,  // measure 102
1000
0100
1000
0002
,  // measure 103
0000
1003
0001
0020
,  // measure 104
0000
0031
1000
0010
,  // measure 105
1000
0001
0100
0000
0001
0000
0010
0000
,  // measure 106
0001
0100
0001
2000
,  // measure 107
0000
3001
1000
0020
,  // measure 108
0000
1030
0001
0010
,  // measure 109
0001
1000
0100
0000
1000
0000
0010
0000
,  // measure 110
1000
0100
1000
0002
,  // measure 111
0000
1003
0001
0020
,  // measure 112
0000
0031
1000
0010
,  // measure 113
1000
0001
0100
0000
0001
0000
0010
0000
,  // measure 114
0001
0100
0001
2000
,  // measure 115
0000
3001
1000
0020
,  // measure 116
0000
1030
0001
0010
,  // measure 117
0001
1000
0100
0000
1000
0000
0010
0000
,  // measure 118
1001
0002
2003
3002
,  // measure 119
2003
3002
2003
3002
,  // measure 120
2003
3002
2003
3002
,  // measure 121
2003
3002
2003
3002
,  // measure 122
2003
3002
2003
3002
,  // measure 123
2003
3002
2003
3002
2003
0000
3002
0000
,  // measure 124
2003
3002
2003
3002
,  // measure 125
2003
3002
2003
3002
2003
0000
3002
0000
,  // measure 126
1003
0010
1000
0000
0001
0010
0001
0000
,  // measure 127
1000
0100
1000
0000
0001
0100
0001
0000
,  // measure 128
1000
0010
1000
0000
0001
0010
0001
0000
,  // measure 129
1000
0100
1000
0000
0001
0100
0001
0000
,  // measure 130
1000
0010
1000
0010
0100
0001
0100
0001
,  // measure 131
0010
0001
0010
0001
1000
0100
1000
0100
,  // measure 132
1000
0010
0100
0001
0010
0001
1000
0100
,  // measure 133
1000
0010
0100
0001
0010
0001
1000
0100
,  // measure 134
222M
000M
333M
0000
0000
0000
0000
0000
0000
0000
0000
0000
0000
0000
0000
0000
,  // measure 135
2000
0000
0000
0000
0000
0000
3002
0003
,  // measure 136
22M2
00M0
00M0
00M0
00M0
00M0
33M3
0000
0000
0000
0000
0000
0000
0000
0000
0000
,  // measure 137
0002
0000
0000
0000
0000
0000
2003
3000
,  // measure 138
2M22
0M00
0M00
0M00
0M00
0M00
0M00
0M00
0M00
0M00
3M33
0000
0000
0000
0000
0000
,  // measure 139
2000
0000
0000
0000
0000
0000
3002
0003
,  // measure 140
M222
M000
M000
M000
M000
M000
M000
M000
M000
M000
M000
M000
M000
M000
M333
0000
,  // measure 141
0002
0000
0000
0000
0000
0000
2003
3000
,  // measure 142
222M
000M
000M
000M
333M
0000
0000
0000
2002
0000
0000
0000
3003
0000
0000
0000
,  // measure 143
22M2
00M0
00M0
00M0
33M3
0000
0000
0000
0220
0000
0000
0000
0330
0000
0000
0000
,  // measure 144
2M22
0M00
0M00
0M00
3M33
0000
0000
0000
2002
0000
0000
0000
3003
0000
0000
0000
,  // measure 145
M222
M000
M000
M000
M333
0000
0000
0000
2222
0000
0000
0000
3333
0000
0000
0000
,  // measure 146
222M
000M
000M
000M
333M
0000
0000
0000
22M2
00M0
00M0
00M0
33M3
0000
0000
0000
,  // measure 147
2M22
0M00
0M00
0M00
3M33
0000
0000
0000
M222
M000
M000
M000
M333
0000
0000
0000
,  // measure 148
1010
0101
1010
0101
1100
0011
1100
0011
,  // measure 149
2MM0
32MM
M32M
MM32
,  // measure 150
2MM3
3200
0302
0203
,  // measure 151
0000
0320
0032
0203
,  // measure 152
0000
0320
2030
3020
,  // measure 153
0230
0302
2003
0000
3002
0000
0023
0000
,  // measure 154
0032
2003
3200
2300
,  // measure 155
0000
3020
0230
0320
,  // measure 156
0000
2030
3002
2003
,  // measure 157
3002
0023
0230
0000
2300
0000
3002
0000
,  // measure 158
2003
3200
0320
0032
,  // measure 159
0000
0023
0230
2300
,  // measure 160
0000
3020
0230
0320
,  // measure 161
2030
3002
2003
0000
3020
0000
0230
0000
,  // measure 162
0320
2030
3002
0203
,  // measure 163
0000
0302
2003
3002
,  // measure 164
0000
0023
0032
0023
,  // measure 165
0230
2300
3002
0000
0023
0000
0032
0000
,  // measure 166
1003
0100
0010
0100
,  // measure 167
1000
0010
0100
0010
,  // measure 168
1000
0001
1000
0100
,  // measure 169
1000
0010
0100
0000
0010
0000
0010
0000
,  // measure 170
1000
0010
0100
0001
,  // measure 171
0010
0100
0010
0100
,  // measure 172
0010
0001
0100
1000
,  // measure 173
0100
1000
0100
0000
0001
0000
0001
0000
,  // measure 174
0010
1000
0010
0100
,  // measure 175
0010
0001
0010
0100
,  // measure 176
1000
0100
0010
0001
,  // measure 177
0100
0010
0100
0000
1000
0000
1000
0000
,  // measure 178
0100
0001
1000
0100
,  // measure 179
1000
0010
0100
0001
,  // measure 180
1010
0101
0011
1100
,  // measure 181
1001
0000
0110
0000
,  // measure 182
1000
0100
1000
0000
0010
0000
0100
0000
,  // measure 183
0001
1000
0001
0000
0100
0000
1000
0000
,  // measure 184
0100
0001
0010
0000
0001
0000
1000
0000
,  // measure 185
0010
0100
1000
0100
0010
1000
0001
0000
,  // measure 186
0010
1000
0010
0000
0100
0000
1000
0000
,  // measure 187
0001
0100
0010
0000
0100
0000
0010
0000
,  // measure 188
1000
0010
0100
0000
0001
0000
1000
0000
,  // measure 189
0001
0010
0100
1000
0100
0010
0001
0000
,  // measure 190
1000
0100
1000
0000
0010
0000
0100
0000
,  // measure 191
0010
0100
0010
0000
0100
0000
0001
0000
,  // measure 192
0100
0001
0100
0000
0001
0000
0010
0000
,  // measure 193
0001
0010
0001
0100
0001
0010
0001
0000
,  // measure 194
1000
0001
1000
0000
0001
0000
0001
0000
,  // measure 195
0100
0010
0100
0000
0010
0000
0010
0000
,  // measure 196
1000
0001
1000
0000
0001
0000
0001
0000
,  // measure 197
1000
0010
0100
0001
1000
0010
0100
0001
,  // measure 198
22MM
0000
3311
0000
,  // measure 199
M22M
0000
1331
0000
,  // measure 200
MM22
0000
1133
0000
,  // measure 201
1111
0000
1111
0000
,  // measure 202
2M2M
0000
3131
0000
,  // measure 203
M2M2
0000
1313
0000
,  // measure 204
2MM2
0000
3113
0000
,  // measure 205
1111
0000
1111
0000
,  // measure 206
2220
3331
2202
3313
,  // measure 207
2022
3133
0222
1333
,  // measure 208
0222
1333
2022
3133
,  // measure 209
2202
3313
2220
3331
,  // measure 210
1000
0100
1000
0100
1000
0010
0100
0001
,  // measure 211
0100
0001
0100
0001
0010
0001
1000
0100
,  // measure 212
1000
0010
1000
0010
0100
0001
0010
0001
,  // measure 213
0010
0001
0010
0001
1000
0100
1000
0010
,  // measure 214
1000
1000
0100
0100
,  // measure 215
0010
0010
0001
0001
,  // measure 216
0100
0100
0010
0010
,  // measure 217
2002
3003
0220
0330
,  // measure 218
0001
0001
0010
0010
,  // measure 219
0100
0100
1000
1000
,  // measure 220
0001
0000
0100
1000
0100
0000
0010
0000
,  // measure 221
0220
0000
1331
0000
,  // measure 222
1000
0010
0100
1000
,  // measure 223
0001
1000
0100
0010
,  // measure 224
2002
3003
0220
0330
,  // measure 225
2002
3223
0330
0000
,  // measure 226
0001
0010
0100
0001
,  // measure 227
1000
0000
0001
0000
0100
0010
0100
0000
,  // measure 228
2002
3003
0220
0330
,  // measure 229
2000
3200
2300
3000
0002
0203
0302
0003
,  // measure 230
1000
0100
1000
0000
0001
0100
0001
0000
,  // measure 231
1000
0010
1000
0000
0001
0010
0001
0000
,  // measure 232
1000
0001
1000
0000
0001
1000
0001
0000
,  // measure 233
2002
0000
3113
0000
,  // measure 234
1000
0100
0010
0000
0001
0100
0010
0000
,  // measure 235
1000
0010
0100
0000
0001
0010
0100
0000
,  // measure 236
1000
0000
0010
0100
0010
0000
0100
0000
,  // measure 237
0002
0000
1113
0000
,  // measure 238
1000
0100
0010
0001
1000
0010
0100
0001
,  // measure 239
1000
0100
0010
0001
1000
0010
0100
0001
,  // measure 240
1000
0010
0100
0001
0100
0010
1000
0010
,  // measure 241
0100
0001
0100
0010
1000
0001
1000
0001
,  // measure 242
1000
0001
0100
0010
1000
0001
0010
0100
,  // measure 243
1000
0001
0100
0010
1000
0001
0010
0100
,  // measure 244
2000
3000
2000
3000
0002
0003
2000
3000
,  // measure 245
0002
0003
0220
0330
,  // measure 246
1111
1001
1001
0110
,  // measure 247
1000
0000
1000
0000
0110
0000
1000
0100
0010
0001
1000
0000
1000
0010
0101
0000
,  // measure 248
0010
0000
1001
0000
1001
0000
0100
0010
0100
0001
1010
0000
0101
0000
0000
0000
,  // measure 249
0001
0000
0001
0000
0110
0000
0001
0010
0100
1000
0001
0000
0001
0100
1010
0000
,  // measure 250
0100
0000
1001
0000
1001
0000
0010
0100
0010
1000
0101
0000
1010
0000
0000
0000
,  // measure 251
1001
0000
1000
0000
0110
0000
1000
0100
0010
0001
1000
0000
1000
0010
0101
0000
,  // measure 252
0010
0000
1001
0000
1001
0000
0100
0010
0100
0001
1010
0000
0101
0000
0000
0000
,  // measure 253
0001
0000
0001
0000
0110
0000
0001
0010
0100
1000
0001
0000
0001
0100
1010
0000
,  // measure 254
0100
0000
0000
0000
1001
0000
0000
0000
1001
0000
0000
0000
0010
0000
0100
0000
0110
0000
0000
0000
0000
0000
1000
0000
0000
0001
0000
0000
1000
0000
0000
0000
,  // measure 255
0000
0000
0110
0000
0000
0000
0000
0000
0001
0000
0000
1000
0000
0000
0001
0000
0000
0000
0000
0000
1010
0000
0000
0101
0000
0000
1100
0000
0000
0011
0000
0000
,  // measure 256
1000
0000
1000
0000
0001
0000
0010
0001
,  // measure 257
0100
0010
0100
0000
0011
0000
1000
0010
,  // measure 258
1000
0000
0101
0000
0010
0100
1000
0000
,  // measure 259
0110
0000
0010
0001
0010
0000
1001
0000
,  // measure 260
0010
0100
1000
0001
0100
0000
0010
1000
,  // measure 261
0001
0000
0010
0001
2000
0000
3002
0000
,  // measure 262
1003
0100
1000
0100
1000
0000
0001
0100
,  // measure 263
0001
0100
0001
0000
0220
0000
0000
0330
,  // measure 264
1000
0100
0010
0000
0001
0100
0010
0000
,  // measure 265
1000
0010
0100
0000
0001
0010
0100
0000
,  // measure 266
1000
0010
1000
0100
0010
0001
0100
0000
,  // measure 267
0001
0010
0001
0100
0001
1000
0100
0000
,  // measure 268
2020
3030
0202
0303
0010
0001
1000
0010
,  // measure 269
1000
0000
0220
0000
0330
0000
2002
3003
,  // measure 270
1001
0000
0100
0010
0100
0000
1001
0000
,  // measure 271
0010
0100
0010
0000
1000
0001
1000
0001
,  // measure 272
1000
0000
0010
0100
0001
0100
0010
0000
,  // measure 273
1000
0100
0010
0100
0010
0001
0100
1000
,  // measure 274
0100
0010
0100
0000
0001
1000
0001
0000
,  // measure 275
2020
3030
2002
3003
2200
3300
2002
3003
,  // measure 276
1000
0010
0001
0010
0100
1000
0100
0001
,  // measure 277
0010
0100
1000
0001
2000
0000
3002
0000
,  // measure 278
1003
0100
0010
0001
0010
0100
1000
0010
,  // measure 279
0100
0001
0100
0010
2002
0000
0000
3003
,  // measure 280
0020
0000
0031
1000
0100
0000
0020
0000
,  // measure 281
0130
1000
0001
0000
0200
0000
0310
0100
,  // measure 282
0010
0000
0020
0000
0130
0010
0100
0000
,  // measure 283
1000
0100
0010
0000
0100
0010
0001
0000
,  // measure 284
1000
1000
0001
0001
,  // measure 285
1000
0000
0220
0000
0330
0000
2002
3003
,  // measure 286
0100
0010
0100
0010
1000
0001
1000
0001
,  // measure 287
0010
0100
0010
0100
1000
0002
2000
3003
,  // measure 288
1000
0100
1000
0000
0010
1000
0010
0000
,  // measure 289
1000
0100
1000
0000
0010
1000
0010
0000
,  // measure 290
2002
3003
2002
3003
,  // measure 291
0220
0000
0330
0000
2002
3003
0220
0330
,  // measure 292
0001
0100
0001
0000
0010
0001
0010
0000
,  // measure 293
0001
0100
0001
0000
0010
0001
0010
0000
,  // measure 294
0022
0033
2200
3300
2020
3030
0202
0303
,  // measure 295
2002
3003
0220
0330
,  // measure 296
1000
0010
1000
0000
0001
0100
0001
0000
,  // measure 297
1000
0010
1000
0000
0001
0100
0001
0000
,  // measure 298
2020
3030
0022
0000
0033
0000
0220
0000
,  // measure 299
0330
0000
0220
0330
2200
3300
0202
0303
,  // measure 300
0010
0001
0010
0000
0100
1000
0100
0000
,  // measure 301
0010
0001
0010
0000
0100
1000
0100
0000
,  // measure 302
2000
0000
0000
0000
0000
0000
0000
0000
0000
0000
0000
0000
0000
0000
0000
0000
0000
0000
0000
0000
0000
0000
0000
0000
0000
0000
0000
0000
0000
0000
0000
0000
0000
0000
0000
0000
0000
0000
0000
0000
0000
0000
0000
0000
0000
0000
0000
0000
0200
0000
0000
0000
0000
0000
0000
0000
0000
0000
0000
0000
0000
0000
0000
0000
0000
0000
0000
0000
0000
0000
0000
0000
0000
0000
0000
0000
0000
0000
0000
0000
0000
0000
0000
0000
0000
0000
0000
0000
0000
0000
0000
0000
0000
0000
0000
0000
0020
0000
0000
0000
0000
0000
0000
0000
0000
0000
0000
0000
0000
0000
0000
0000
0000
0000
0000
0000
0000
0000
0000
0000
0000
0000
0000
0000
0000
0000
0000
0000
0000
0000
0000
0000
0000
0000
0000
0000
0000
0000
0000
0000
0000
0000
0000
0000
0002
0000
0000
0000
0000
0000
0000
0000
0000
0000
0000
0000
0000
0000
0000
0000
0000
0000
0000
0000
0000
0000
0000
0000
0000
0000
0000
0000
0000
0000
0000
0000
0000
0000
0000
0000
0000
0000
0000
0000
0000
0000
0000
0000
0000
0000
0000
3300
,  // measure 303
1100
0000
0000
0000
0000
0000
0000
0000
0000
0000
0000
0000
0000
0000
0000
0000
0000
0000
0000
0000
0000
0000
0000
0000
0000
0000
0000
0000
0000
0000
0000
0000
0000
0000
0000
0000
0000
0000
0000
0000
0000
0000
0000
0000
0000
0000
0000
0000
0000
0000
0000
0000
0000
0000
0000
0000
0000
0000
0000
0000
0000
0000
0000
0000
0000
0000
0000
0000
0000
0000
0000
0000
0000
0000
0000
0000
0000
0000
0000
0000
0000
0000
0000
0000
0000
0000
0000
0000
0000
0000
0000
0000
0000
0000
0000
0033
0011
0000
0000
0000
0000
0000
0000
0000
0000
0000
0000
0000
0000
0000
0000
0000
0000
0000
0000
0000
0000
0000
0000
0000
0000
0000
0000
0000
0000
0000
0000
0000
0000
0000
0000
0000
0000
0000
0000
0000
0000
0000
0000
0000
0000
0000
0000
0000
0000
0000
0000
0000
0000
0000
0000
0000
0000
0000
0000
0000
0000
0000
0000
0000
0000
0000
0000
0000
0000
0000
0000
0000
0000
0000
0000
0000
0000
0000
0000
0000
0000
0000
0000
0000
0000
0000
0000
0000
0000
0000
0000
0000
0000
0000
0000
0000
,  // measure 304
2200
3300
2200
3300
,  // measure 305
0202
0303
0202
0303
,  // measure 306
2200
3300
0202
0303
,  // measure 307
2002
3003
MMMM
0000
,  // measure 308
2200
3300
2200
3300
,  // measure 309
2020
3030
2020
3030
,  // measure 310
2200
3300
2020
3030
,  // measure 311
0220
0330
MMMM
0000
,  // measure 312
0202
0303
0202
0303
,  // measure 313
0022
0033
0022
0033
,  // measure 314
0202
0303
0022
0033
,  // measure 315
0220
0330
MMMM
0000
,  // measure 316
2020
3030
2020
3030
,  // measure 317
0022
0033
0022
0033
,  // measure 318
2020
3030
0022
0033
,  // measure 319
2002
0000
3003
0000
,  // measure 320
0220
0000
0000
0000
,  // measure 321
0000
0000
0000
0000
,  // measure 322
0330
0000
0000
0000
,  // measure 323
0000
0000
0000
0000
,  // measure 324
2222
0000
0000
0000
,  // measure 325
0000
0000
0000
0000
0000
0000
0000
0000
0000
0000
0000
0000
0000
0000
0000
3333
,  // measure 326
1010
0100
0010
0001
,  // measure 327
1000
0100
0010
0001
,  // measure 328
1000
0100
0010
0001
,  // measure 329
1000
0100
0022
0033
,  // measure 330
1000
0010
0100
0001
,  // measure 331
1000
0010
0100
0001
,  // measure 332
1000
0010
0100
0001
,  // measure 333
1000
0010
0202
0303
,  // measure 334
1000
0010
1000
0010
1000
0010
1000
0010
,  // measure 335
1000
0100
1000
0100
1000
0100
1000
0100
,  // measure 336
0010
0001
0010
0001
0010
0001
0010
0001
,  // measure 337
0100
0001
0100
0001
0100
0001
0100
0001
,  // measure 338
1000
0010
1000
0010
1000
0100
1000
0100
,  // measure 339
0010
0001
0010
0001
0100
0001
0100
0001
,  // measure 340
1M1M
M11M
MM11
M11M
,  // measure 341
1MM1
1MM1
11M1
1M11
,  // measure 342
1000
0100
0010
0001
1000
0100
0010
0001
,  // measure 343
1000
0100
0010
0001
1000
0100
0010
0001
,  // measure 344
1000
0010
0100
0001
1000
0010
0100
0001
,  // measure 345
1000
0010
0100
0001
1000
0010
0100
0001
,  // measure 346
1000
0100
0010
0001
0010
0100
1000
0100
,  // measure 347
0010
0001
0010
0100
1000
0100
0010
0001
,  // measure 348
0010
0100
1000
0100
0010
0001
0010
0100
,  // measure 349
1000
0001
1000
0001
1000
0001
1000
0001
,  // measure 350
1000
0010
1000
0000
0001
1000
0001
0000
,  // measure 351
0010
0001
0010
0000
0001
0100
0001
0000
,  // measure 352
0010
0100
0010
0000
0001
1000
0001
0000
,  // measure 353
0100
1000
0100
0000
0010
0100
0010
0000
,  // measure 354
1000
0100
0010
0000
0010
0100
1000
0000
,  // measure 355
1000
0010
0100
0000
0100
0010
1000
0000
,  // measure 356
0001
0010
0100
0000
0100
0010
0001
0000
,  // measure 357
0001
0100
0010
0000
0010
0100
0001
0000
,  // measure 358
1000
0010
0100
0010
1000
0001
0100
0001
,  // measure 359
0010
0100
1000
0010
0100
0001
1000
0010
,  // measure 360
0100
0010
1000
0001
0100
0010
1000
0100
,  // measure 361
0010
0001
0100
0001
1000
0010
0100
0001
,  // measure 362
0010
0001
0100
0010
1000
0001
0010
0100
,  // measure 363
1000
0001
0100
0010
1000
0100
0010
0001
,  // measure 364
0100
0010
0100
0010
0100
0010
1000
0001
,  // measure 365
1000
0100
0010
0001
0100
0010
1000
0001
,  // measure 366
0100
0010
0100
0010
1000
0001
1000
0001
,  // measure 367
0100
0010
0100
0010
1000
0001
1000
0001
,  // measure 368
1000
0100
1000
0010
0100
0001
0010
0001
,  // measure 369
1000
0010
1000
0001
1000
0100
1000
0001
,  // measure 370
0100
1000
0100
0001
0100
1000
0100
0001
,  // measure 371
0010
1000
0010
0001
0010
1000
0010
0001
,  // measure 372
2MMM
3000
22MM
3300
222M
3330
2222
3333
,  // measure 373
2222
3333
M222
0333
MM22
0033
MMM2
0003
,  // measure 374
1000
0010
0100
0010
0001
0010
0001
0010
,  // measure 375
1000
0100
0001
0100
0001
0010
0001
0100
,  // measure 376
0010
0001
1000
0100
0010
0001
0100
1000
,  // measure 377
0100
0010
0100
0001
1000
0010
0100
1000
,  // measure 378
0100
1000
0100
0010
1000
0100
1000
0010
,  // measure 379
0100
0001
0010
0100
0010
0001
1000
0010
,  // measure 380
1000
0001
0010
0100
1000
0001
0100
0010
,  // measure 381
1000
0100
0010
0100
0010
0001
1000
0100
,  // measure 382
1000
0010
0100
0001
0010
0100
1000
0100
,  // measure 383
0010
0001
0100
1000
0100
0010
0100
1000
,  // measure 384
0100
0001
1000
0100
0010
0001
0100
0001
,  // measure 385
1000
0010
0100
1000
0100
0010
0100
0001
,  // measure 386
0010
0100
1000
0010
0100
0001
0010
0100
,  // measure 387
1000
0001
0100
0010
0100
1000
0100
0010
,  // measure 388
0001
0010
0100
0001
0010
1000
0010
0001
,  // measure 389
1000
0001
1000
0001
1000
0001
1000
0001
,  // measure 390
2200
3300
1010
1010
,  // measure 391
0202
0303
0011
0011
,  // measure 392
2202
3303
1011
1011
,  // measure 393
2220
3330
0222
0333
,  // measure 394
2002
3003
0110
0110
,  // measure 395
0220
0330
1001
1001
,  // measure 396
2222
3333
1111
1111
,  // measure 397
2222
3333
2222
3333
,  // measure 398
1000
0001
0010
0100
,  // measure 399
0001
1000
0100
0010
,  // measure 400
1000
0001
0010
0100
,  // measure 401
0001
1000
0100
0010
,  // measure 402
1000
0100
1000
0010
1000
0100
1000
0010
,  // measure 403
0001
0100
0001
0010
0001
0100
0001
0010
,  // measure 404
1010
0101
1100
0011
1010
0101
1100
0011
,  // measure 405
1010
0101
1100
0011
1010
0101
1100
0011
,  // measure 406
2000
3020
0032
0023
,  // measure 407
0230
0320
2030
3002
,  // measure 408
2003
3200
0302
0203
,  // measure 409
2320
0000
3232
0000
,  // measure 410
2303
3020
0230
2300
,  // measure 411
3200
0302
0023
0230
,  // measure 412
2300
0000
3020
0230
0302
0000
0023
0000
,  // measure 413
0230
0000
0000
0000
0000
0000
0000
0000
0000
0000
0000
0000
0000
0000
0000
0000
0000
0000
0000
0000
0000
0000
0000
0000
0000
0000
0000
0000
0000
0000
0000
0000
0000
0000
0000
0000
0000
0000
0000
0000
0000
0000
0000
0000
0000
0000
0000
0000
0000
0000
0000
0000
0000
0000
0000
0000
0000
0000
0000
0000
0000
0000
0000
0000
0000
0000
0000
0000
0000
0000
0000
0000
0000
0000
0000
0000
0000
0000
0000
0000
0000
0000
0000
0000
0000
0000
0000
0000
0000
0000
0000
0000
0000
0000
0000
0000
2022
3333
0000
0000
0000
0000
0000
0000
0000
0000
0000
0000
0000
0000
0000
0000
0000
0000
0000
0000
0000
0000
0000
0000
0000
0000
0000
0000
0000
0000
0000
0000
0000
0000
0000
0000
0000
0000
0000
0000
0000
0000
0000
0000
0000
0000
0000
0000
0000
0000
0000
0000
0000
0000
0000
0000
0000
0000
0000
0000
0000
0000
0000
0000
0000
0000
0000
0000
0000
0000
0000
0000
0000
0000
0000
0000
0000
0000
0000
0000
0000
0000
0000
0000
0000
0000
0000
0000
0000
0000
0000
0000
0000
0000
0000
0000
,  // measure 414
0100
0100
1000
1000
,  // measure 415
0100
0100
0001
0001
,  // measure 416
2000
0000
0200
0000
,  // measure 417
0020
0000
0002
3333
MMMM
0000
0110
0000
,  // measure 418
1001
1000
0100
0001
,  // measure 419
1001
1000
0010
0001
,  // measure 420
2020
3030
0022
0033
,  // measure 421
2002
3003
2002
3003
0220
0330
2002
3003
,  // measure 422
1000
0010
1000
0000
0100
1000
0100
0000
,  // measure 423
0010
0001
0010
0000
0001
0100
0001
0000
,  // measure 424
1100
1010
1100
0000
0011
0101
0011
0000
,  // measure 425
2000
0200
0020
0002
3000
0300
0030
0003
,  // measure 426
1010
0011
1100
0101
,  // measure 427
1010
0011
1100
0101
,  // measure 428
1010
0000
1000
0100
0001
0000
0011
0000
,  // measure 429
1001
0000
0000
0000
2222
0330
3003
0000
,  // measure 430
1000
0010
1000
0010
1000
0010
1000
0010
,  // measure 431
1000
0100
1000
0100
1000
0100
1000
0100
,  // measure 432
0010
0001
0010
0001
0010
0001
0010
0001
,  // measure 433
0100
0001
0100
0001
0100
0001
0100
0001
,  // measure 434
1000
0010
1000
0010
1000
0100
1000
0100
,  // measure 435
0010
0001
0010
0001
0100
0001
0100
0001
,  // measure 436
1000
0010
1000
0100
0010
0001
0100
0001
,  // measure 437
1000
0000
0100
0000
0010
0000
0001
0000
0010
0000
0100
0000
1000
0100
0010
0001
,  // measure 438
11M1
M111
111M
1M11
,  // measure 439
2222
0000
0000
0000
,  // measure 440
0000
0000
0000
0000
,  // measure 441
0000
0000
0000
0000
,  // measure 442
0000
0000
0000
0000
,  // measure 443
0000
0000
0000
0000
,  // measure 444
0000
0000
0000
0000
,  // measure 445
0000
0000
0000
0000
,  // measure 446
0000
0000
0000
0000
,  // measure 447
0000
0000
0000
0000
,  // measure 448
0000
0000
0000
0000
,  // measure 449
0000
0000
0000
0000
,  // measure 450
0000
0000
0000
0000
,  // measure 451
0000
0000
0000
0000
,  // measure 452
0000
0000
0000
0000
,  // measure 453
0000
0000
0000
0000
,  // measure 454
0000
0000
0000
0000
0000
0000
0000
0000
0000
0000
0000
0000
0000
0000
0000
0000
0000
0000
0000
0000
0000
0000
0000
0000
0000
0000
0000
0000
0000
0000
0000
0000
0000
0000
0000
0000
0000
0000
0000
0000
0000
0000
0000
0000
0000
0000
0000
0000
0000
0000
0000
0000
0000
0000
0000
0000
0000
0000
0000
0000
0000
0000
0000
0000
0000
0000
0000
0000
0000
0000
0000
0000
0000
0000
0000
0000
0000
0000
0000
0000
0000
0000
0000
0000
0000
0000
0000
0000
0000
0000
0000
0000
0000
0000
0000
0000
0000
0000
0000
0000
0000
0000
0000
0000
0000
0000
0000
0000
0000
0000
0000
0000
0000
0000
0000
0000
0000
0000
0000
0000
0000
0000
0000
0000
0000
0000
0000
0000
0000
0000
0000
0000
0000
0000
0000
0000
0000
0000
0000
0000
0000
0000
0000
0000
0000
0000
0000
0000
0000
0000
0000
0000
0000
0000
0000
0000
0000
0000
0000
0000
0000
0000
0000
0000
0000
0000
0000
0000
0000
0000
0000
0000
0000
0000
0000
0000
0000
0000
0000
0000
0000
0000
0000
0000
0000
0000
0000
0000
0000
0000
0000
3333
,  // measure 455
MMMM
MMMM
MMMM
MMMM
;
