#TITLE:君のハートにロックオン;
#SUBTITLE:;
#ARTIST:Dr.Honda;
#TITLETRANSLIT:Kimi no Heart ni Lock-On;
#SUBTITLETRANSLIT:;
#ARTISTTRANSLIT:;
#GENRE:;
#CREDIT:;
#BANNER:Kimi no Heart ni Lock-On-bn.png;
#BACKGROUND:Kimi no Heart ni Lock-On-bg.png;
#LYRICSPATH:;
#CDTITLE:;
#MUSIC:Kimi no Heart ni Lock On.mp3;
#OFFSET:0.984;
#SAMPLESTART:52.551;
#SAMPLELENGTH:7.385;
#SELECTABLE:YES;
#BPMS:0.000=130.000
,4.000=260.000
,36.000=520.000
,164.000=130.000
,180.000=520.000
,308.021=130.000
,323.000=260.000
,324.021=1040.000
,328.000=520.000
,392.000=130.000
,408.000=260.000
,440.000=520.000
,696.000=130.000
,710.000=260.000
,712.000=1040.000
,784.000=1560.000
,832.000=520.000
,834.000=1560.000
,840.000=520.000
,842.000=1560.000
,848.000=520.000
,850.000=1560.000
;
#STOPS:868.000=53124.000
;
#BGCHANGES:;
#KEYSOUNDS:;
#ATTACKS:;

//---------------dance-single - ----------------
#NOTES:
     dance-single:
     :
     Challenge:
     17:
     1.000,1.000,0.437,1.000,1.000,999.000,56.000,393.000,139.000,129.000,0.000,1.000,1.000,0.437,1.000,1.000,999.000,56.000,393.000,139.000,129.000,0.000: // measure 0
M00M
0000
MMMM
0000
M00M
0000
1001
0110
,  // measure 1
1000
0001
0100
0010
1000
0001
1000
0010
,  // measure 2
1000
0001
1000
0001
0100
1000
0100
0010
,  // measure 3
1000
0001
0100
0010
1000
0001
1000
0010
,  // measure 4
1000
0001
1000
0001
0220
0000
0330
0000
,  // measure 5
1000
0001
0100
0010
1000
0001
1000
0010
,  // measure 6
1000
0001
1000
0001
0100
1000
0100
0010
,  // measure 7
2MM0
0000
3MM2
0000
2MM3
0MM0
3MM2
0MM0
,  // measure 8
2MM3
0000
0MM0
0000
0MM0
0000
0MM0
0000
3MM2
0000
0MM0
0000
0MM0
0000
0MM0
0000
2MM3
0MM0
0MM0
0MM0
0MM0
0MM0
0MM0
0MM0
3MM2
0MM0
0MM0
0MM0
0MM0
0MM0
0MM0
0MM0
,  // measure 9
1MM3
0000
0010
0000
1000
0000
0010
0000
1000
0000
0010
0000
,  // measure 10
0100
0000
0001
0000
0100
0000
0001
0000
0100
0000
0001
0000
,  // measure 11
0010
0000
0001
0000
0010
0000
0001
0000
0010
0000
0001
0000
,  // measure 12
1000
0000
0100
0000
1000
0000
0100
0000
1000
0000
0100
0000
,  // measure 13
1000
0000
0001
0000
1000
0000
0001
0000
1000
0000
0001
0000
,  // measure 14
1010
0000
0101
0000
1010
0000
0101
0000
1010
0000
0101
0000
,  // measure 15
1100
0000
0011
0000
1100
0000
0011
0000
1100
0000
0011
0000
,  // measure 16
2MM2
0MM0
0MM0
3MM3
,  // measure 17
1000
0000
0010
0000
1000
0000
0001
0000
0100
0000
0001
0000
,  // measure 18
0010
0000
0001
0000
0010
0000
0100
0000
1000
0000
0100
0000
,  // measure 19
1000
0000
0010
0000
1000
0000
0001
0000
0100
0000
0001
0000
,  // measure 20
0010
0000
0001
0000
0010
0000
0100
0000
1000
0000
0100
0000
,  // measure 21
1000
0000
0100
0000
0010
0000
0001
0000
1000
0000
0100
0000
,  // measure 22
0010
0000
0001
0000
1000
0000
0100
0000
0010
0000
0001
0000
,  // measure 23
1000
0000
0001
0000
1000
0000
0001
0000
1000
0000
0001
0000
,  // measure 24
1000
0000
0001
0000
1000
0000
0001
0000
1000
0000
0001
0000
,  // measure 25
1200
0000
0010
0000
1000
0000
0010
0000
1000
0000
0010
0000
,  // measure 26
0010
0000
0001
0000
0010
0000
0001
0000
0010
0000
0001
0000
,  // measure 27
1000
0000
0010
0000
1000
0000
0010
0000
1000
0000
0010
0000
,  // measure 28
0010
0000
0001
0000
0010
0000
0001
0000
0010
0000
0001
0000
,  // measure 29
1000
0000
0001
0000
1000
0000
0001
0000
1000
0000
0001
0000
,  // measure 30
1000
0000
0001
0000
1000
0000
0001
0000
1000
0000
0001
0000
,  // measure 31
1000
0000
0001
0000
1000
0000
0001
0000
1000
0000
0001
0000
,  // measure 32
20M2
00M0
00M0
30M3
,  // measure 33
1000
0000
0010
0000
1000
0000
0001
0000
0010
0000
0001
0000
,  // measure 34
1000
0000
0010
0000
1000
0000
0001
0000
0010
0000
0001
0000
,  // measure 35
1000
0000
0010
0000
1000
0000
0001
0000
0010
0000
0001
0000
,  // measure 36
1000
0000
0010
0000
1000
0000
0001
0000
0010
0000
0001
0000
,  // measure 37
1000
0000
0010
0000
1000
0000
0001
0000
0010
0000
0001
0000
,  // measure 38
1000
0000
0010
0000
1000
0000
0001
0000
0010
0000
0001
0000
,  // measure 39
1000
0000
0001
0000
1000
0000
0001
0000
1000
0000
0001
0000
,  // measure 40
1000
0000
0001
0000
1000
0000
0001
0000
1000
0000
0001
0000
,  // measure 41
2022
0000
0000
0000
0000
0000
0000
0000
0000
0000
0000
0000
0000
0000
0000
0000
0000
0000
0000
0000
0000
0000
0000
0000
0000
0000
0000
0000
0000
0000
0000
0000
0000
0000
0000
3000
2000
0000
0000
0000
0000
0000
0000
0000
0000
0000
0000
0000
0000
0000
0000
0000
0000
0000
0000
0000
0000
0000
0000
3000
2000
0000
0000
0000
0000
0000
0000
0000
0000
0000
0000
0000
0000
0000
0000
0000
0000
0000
0000
0000
0000
0000
0000
0000
0000
0000
0000
0000
0000
0000
0000
0000
0000
0000
0000
0300
0200
0000
0000
0000
0000
0000
0000
0000
0000
0000
0000
0000
0000
0000
0000
0000
0000
0000
0000
0000
0000
0000
0000
0000
0000
0000
0000
0000
0000
0000
0000
0000
0000
0000
0000
0300
0200
0000
0000
0000
0000
0000
0000
0000
0000
0000
0000
0000
0000
0000
0000
0000
0000
0000
0000
0000
0000
0000
0000
0300
0200
0000
0000
0000
0000
0000
0000
0000
0000
0000
0000
0000
0000
0000
0000
0000
0000
0000
0000
0000
0000
0000
0000
0000
0000
0000
0000
0000
0000
0000
0000
0000
0000
0000
0000
0030
,  // measure 42
0020
0000
0000
0000
0000
0000
0000
0000
0000
0000
0000
0000
0000
0000
0000
0000
0000
0000
0000
0000
0000
0000
0000
0000
0000
0000
0000
0000
0000
0000
0000
0000
0000
0000
0000
0030
0020
0000
0000
0000
0000
0000
0000
0000
0000
0000
0000
0000
0000
0000
0000
0000
0000
0000
0000
0000
0000
0000
0000
0000
0000
0000
0000
0000
0000
0000
0000
0000
0000
0000
0000
0030
0020
0000
0000
0000
0000
0000
0000
0000
0000
0000
0000
0000
0000
0000
0000
0000
0000
0000
0000
0000
0000
0000
0000
0000
0000
0000
0000
0000
0000
0000
0000
0000
0000
0000
0000
0000
0000
0000
0000
0000
0000
0000
0000
0000
0000
0000
0000
0003
0002
0000
0000
0000
0000
0000
0000
0000
0000
0000
0000
0000
0000
0000
0000
0000
0000
0000
0000
0000
0000
0000
0000
0003
0002
0000
0000
0000
0000
0000
0000
0000
0000
0000
0000
0000
0000
0000
0000
0000
0000
0000
0000
0000
0000
0000
0000
0000
0000
0000
0000
0000
0000
0000
0000
0000
0000
0000
0000
0000
0000
0000
0000
0000
0000
0000
0000
0000
0000
0000
0000
3000
,  // measure 43
1000
0000
0000
0000
0000
0000
0000
0000
0000
0000
0000
0000
0000
0000
0000
0000
0000
0000
0000
0000
0000
0000
0000
0000
0000
0000
0000
0000
0000
0000
0000
0000
0000
0000
0000
0000
1000
0000
0000
0000
0000
0000
0000
0000
0000
0000
0000
0000
0000
0000
0000
0000
0000
0000
0000
0000
0000
0000
0000
0000
1000
0000
0000
0000
0000
0000
0000
0000
0000
0000
0000
0000
0000
0000
0000
0000
0000
0000
0000
0000
0000
0000
0000
0000
0000
0000
0000
0000
0000
0000
0000
0000
0000
0000
0000
0300
0100
0000
0000
0000
0000
0000
0000
0000
0000
0000
0000
0000
0000
0000
0000
0000
0000
0000
0000
0000
0000
0000
0000
0000
0000
0000
0000
0000
0000
0000
0000
0000
0000
0000
0000
0000
0100
0000
0000
0000
0000
0000
0000
0000
0000
0000
0000
0000
0000
0000
0000
0000
0000
0000
0000
0000
0000
0000
0000
0000
0100
0000
0000
0000
0000
0000
0000
0000
0000
0000
0000
0000
0000
0000
0000
0000
0000
0000
0000
0000
0000
0000
0000
0000
0000
0000
0000
0000
0000
0000
0000
0000
0000
0000
0000
0030
,  // measure 44
0010
0000
0000
0000
0000
0000
0000
0000
0000
0000
0000
0000
0000
0000
0000
0000
0000
0000
0000
0000
0000
0000
0000
0000
0000
0000
0000
0000
0000
0000
0000
0000
0000
0000
0000
0000
0010
0000
0000
0000
0000
0000
0000
0000
0000
0000
0000
0000
0000
0000
0000
0000
0000
0000
0000
0000
0000
0000
0000
0000
0000
0000
0000
0000
0000
0000
0000
0000
0000
0000
0000
0000
0010
0000
0000
0000
0000
0000
0000
0000
0000
0000
0000
0000
0000
0000
0000
0000
0000
0000
0000
0000
0000
0000
0000
0000
0000
0000
0000
0000
0000
0000
0000
0000
0000
0000
0000
0000
0000
0000
0000
0000
0000
0000
0000
0000
0000
0000
0000
0003
0001
0000
0000
0000
0000
0000
0000
0000
0000
0000
0000
0000
0000
0000
0000
0000
0000
0000
0000
0000
0000
0000
0000
0000
2002
3003
0000
0000
0000
0000
0000
0000
0000
0000
0000
0000
0000
0000
0000
0000
0000
0000
0000
0000
0000
0000
0000
0000
0220
0330
0000
0000
0000
0000
0000
0000
0000
0000
0000
0000
0000
0000
0000
0000
0000
0000
0000
0000
0000
0000
0000
0000
,  // measure 45
2000
3200
0320
0032
,  // measure 46
2003
3200
0320
0032
,  // measure 47
2003
3200
0320
0032
,  // measure 48
2003
3020
0230
0302
,  // measure 49
2003
3200
0320
0032
,  // measure 50
2003
3200
0320
0032
,  // measure 51
2003
3200
0320
0032
,  // measure 52
2003
3020
0230
0302
,  // measure 53
2003
0000
3200
0000
2300
0000
3002
0000
0023
0000
0032
0000
,  // measure 54
2003
0000
3200
0000
2300
0000
3002
0000
0023
0000
0032
0000
,  // measure 55
2003
0000
3200
0000
2300
0000
3002
0000
0023
0000
0032
0000
,  // measure 56
2003
0000
3020
0000
2030
0000
3002
0000
0203
0000
0302
0000
,  // measure 57
2003
0000
0000
0000
0000
0000
3020
0000
0230
0000
0320
0000
,  // measure 58
0032
0000
0000
0000
0000
0000
0023
0000
0230
0000
0320
0000
,  // measure 59
2030
0000
0000
0000
0000
0000
3020
0000
0230
0000
0320
0000
,  // measure 60
M23M
0000
M32M
0000
M23M
0000
M32M
0000
M23M
0000
M32M
0000
,  // measure 61
2230
3302
2023
3032
,  // measure 62
2203
3302
2023
3032
,  // measure 63
2203
3302
2023
3032
,  // measure 64
2203
3302
2023
3032
,  // measure 65
2003
3202
2303
3022
,  // measure 66
2033
3202
2303
3022
,  // measure 67
2033
3200
0320
0032
,  // measure 68
2003
3200
0320
0032
,  // measure 69
1003
0000
0010
0000
0100
0000
0001
0000
0010
0000
0100
0000
,  // measure 70
1000
0000
0010
0000
0100
0000
0001
0000
0010
0000
0100
0000
,  // measure 71
1000
0000
0010
0000
0100
0000
0001
0000
0010
0000
0100
0000
,  // measure 72
1000
0000
0010
0000
0100
0000
0001
0000
0010
0000
0100
0000
,  // measure 73
2002
3223
2332
3223
,  // measure 74
0330
2002
3223
2332
,  // measure 75
3223
0000
0330
0000
,  // measure 76
1M00
0000
00M1
0000
1M00
0000
00M1
0000
1M00
0000
00M1
0000
,  // measure 77
1001
0000
0100
1000
0100
0001
0100
1000
0000
0100
0001
0100
1000
0100
0001
0100
,  // measure 78
1000
0100
0001
0100
1000
0100
0001
0100
1000
0100
0001
0100
1000
0100
0001
0100
,  // measure 79
1000
0100
0001
0100
1000
0100
0001
0100
0000
1000
0100
0001
0100
1000
0100
0001
,  // measure 80
0100
0000
0000
0000
0000
0000
0010
0000
1000
0000
0010
0000
0100
0000
0000
0000
0000
0000
0010
0000
0001
0000
0010
0000
0100
0000
0000
0010
0000
0000
1000
0000
0000
0001
0000
0000
0010
0000
0000
0000
0000
0000
0100
0000
0000
0000
0000
0000
,  // measure 81
1MM0
0MM1
1MM0
0MM1
,  // measure 82
1000
0100
1000
0010
,  // measure 83
0001
0010
0001
0100
,  // measure 84
0010
1000
0010
0001
,  // measure 85
1000
0001
0010
1000
,  // measure 86
0002
0000
0000
0000
0000
0000
1003
0000
0010
0000
1000
0000
,  // measure 87
0002
0000
0000
0000
0000
0000
1003
0000
0100
0000
1000
0000
,  // measure 88
00M2
02M3
23M0
32M0
,  // measure 89
03M2
02M3
23M0
32M0
,  // measure 90
0322
2033
3020
0230
,  // measure 91
0302
0023
2030
3020
,  // measure 92
0032
2003
3020
0230
,  // measure 93
0302
0023
2030
3020
,  // measure 94
2202
0000
0000
0000
,  // measure 95
0000
0000
0000
0000
,  // measure 96
0000
0000
0000
0000
0000
0000
0000
0000
0000
0000
0000
0000
0000
0000
0000
0000
0000
0000
0000
0000
0000
0000
0000
0000
0000
0000
0000
0000
0000
0000
0000
0000
0000
0000
0000
0000
0000
0000
0000
0000
0000
0000
0000
0000
0000
0000
0000
0000
0000
0000
0000
0000
0000
0000
0000
0000
0000
0000
0000
0000
0000
0000
0000
0000
0000
0000
0000
0000
0000
0000
0000
0000
0000
0000
0000
0000
0000
0000
0000
0000
0000
0000
0000
0000
0000
0000
0000
0000
0000
0000
0000
0000
0000
0000
0000
0003
0001
0000
0000
0000
0000
0000
0000
0000
0000
0000
0000
0000
0000
0000
0000
0000
0000
0000
0000
0000
0000
0000
0000
0000
0000
0000
0000
0000
0000
0000
0000
0000
0000
0000
0000
0000
0000
0000
0000
0000
0000
0000
0000
0000
0000
0000
0000
0000
0000
0000
0000
0000
0000
0000
0000
0000
0000
0000
0000
0000
0000
0000
0000
0000
0000
0000
0000
0000
0000
0000
0000
0000
0000
0000
0000
0000
0000
0000
0000
0000
0000
0000
0000
0000
0000
0000
0000
0000
0000
0000
0000
0000
0000
0000
0000
0030
,  // measure 97
0010
0000
0000
0000
0000
0000
0000
0000
0000
0000
0000
0000
0000
0000
0000
0000
0000
0000
0000
0000
0000
0000
0000
0000
0000
0000
0000
0000
0000
0000
0000
0000
0000
0000
0000
0000
0000
0000
0000
0000
0000
0000
0000
0000
0000
0000
0000
0000
0000
0000
0000
0000
0000
0000
0000
0000
0000
0000
0000
0000
0000
0000
0000
0000
0000
0000
0000
0000
0000
0000
0000
0000
0000
0000
0000
0000
0000
0000
0000
0000
0000
0000
0000
0000
0000
0000
0000
0000
0000
0000
0000
0000
0000
0000
0000
0300
0100
0000
0000
0000
0000
0000
0000
0000
0000
0000
0000
0000
0000
0000
0000
0000
0000
0000
0000
0000
0000
0000
0000
0000
0000
0000
0000
0000
0000
0000
0000
0000
0000
0000
0000
0000
0000
0000
0000
0000
0000
0000
0000
0000
0000
0000
0000
0000
0000
0000
0000
0000
0000
0000
0000
0000
0000
0000
0000
0000
0000
0000
0000
0000
0000
0000
0000
0000
0000
0000
0000
0000
0000
0000
0000
0000
0000
0000
0000
0000
0000
0000
0000
0000
0000
0000
0000
0000
0000
0000
0000
0000
0000
0000
0000
3000
,  // measure 98
1000
0000
0000
0000
0000
0000
0100
0010
0100
0000
0000
0000
0000
0000
0001
0000
,  // measure 99
1000
0000
0001
0100
0000
0010
0000
1000
0100
0000
0000
0000
0000
0000
0010
0001
,  // measure 100
0010
0000
0000
0000
0000
0000
0000
0000
0000
0000
0000
0010
1000
0000
0010
0000
1000
0000
0001
0000
0000
0000
0100
0000
0000
0000
0000
0000
0100
0000
0010
0001
,  // measure 101
2000
0000
0000
0000
0000
0000
0002
0000
0000
0000
0000
0000
0100
0000
0000
0000
0010
0000
0000
0000
0100
0000
0000
0000
3013
0000
0000
0000
0000
0000
0000
0000
0000
0000
0000
0000
0000
0000
0000
0000
0000
0000
1000
0000
0000
0010
0000
0000
,  // measure 102
2000
0000
0000
0000
0000
0000
0000
0000
0000
0000
0000
0000
0000
0000
0000
0000
0000
0000
0000
0000
0000
0000
0000
3000
2000
0000
0000
0000
0000
0000
0000
0000
0000
0000
0000
0000
0000
0000
0000
0000
0000
0000
0000
0000
0000
0000
0000
3000
0001
0000
0000
0000
0000
0000
0000
0000
0000
0000
0000
0000
0000
0000
0000
0000
0000
0000
0000
0000
0000
0000
0000
0000
0000
0000
0000
0000
0000
0000
0000
0000
0000
0000
0000
0000
0000
0000
0000
0000
0000
0000
0000
0000
0000
0000
0000
0000
2000
0000
0000
0000
0000
0000
0000
0000
0000
0000
0000
0000
0000
0000
0000
0000
0000
0000
0000
0000
0000
0000
0000
3000
2000
0000
0000
0000
0000
0000
0000
0000
0000
0000
0000
0000
0000
0000
0000
0000
0000
0000
0000
0000
0000
0000
0000
3000
0001
0000
0000
0000
0000
0000
0000
0000
0000
0000
0000
0000
0000
0000
0000
0000
0000
0000
0000
0000
0000
0000
0000
0000
0000
0000
0000
0000
0000
0000
0000
0000
0000
0000
0000
0000
0000
0000
0000
0000
0000
0000
0000
0000
0000
0000
0000
0000
,  // measure 103
2000
0000
0000
0000
0000
0000
0000
0000
0000
0000
0000
0000
0000
0000
0000
0000
0000
0000
0000
0000
0000
0000
0000
3000
2000
0000
0000
0000
0000
0000
0000
0000
0000
0000
0000
0000
0000
0000
0000
0000
0000
0000
0000
0000
0000
0000
0000
3000
0001
0000
0000
0000
0000
0000
0000
0000
0000
0000
0000
0000
0000
0000
0000
0000
0000
0000
0000
0000
0000
0000
0000
0000
0000
0000
0000
0000
0000
0000
0000
0000
0000
0000
0000
0000
0000
0000
0000
0000
0000
0000
0000
0000
0000
0000
0000
0000
2000
0000
0000
0000
0000
0000
0000
0000
0000
0000
0000
0000
0000
0000
0000
0000
0000
0000
0000
0000
0000
0000
0000
3000
2000
0000
0000
0000
0000
0000
0000
0000
0000
0000
0000
0000
0000
0000
0000
0000
0000
0000
0000
0000
0000
0000
0000
3000
0001
0000
0000
0000
0000
0000
0000
0000
0000
0000
0000
0000
0000
0000
0000
0000
0000
0000
0000
0000
0000
0000
0000
0000
0000
0000
0000
0000
0000
0000
0000
0000
0000
0000
0000
0000
0000
0000
0000
0000
0000
0000
0000
0000
0000
0000
0000
0000
,  // measure 104
2000
0000
0000
0000
0000
0000
0000
0000
0000
0000
0000
0000
0000
0000
0000
0000
0000
0000
0000
0000
0000
0000
0000
3000
2000
0000
0000
0000
0000
0000
0000
0000
0000
0000
0000
0000
0000
0000
0000
0000
0000
0000
0000
0000
0000
0000
0000
3000
0001
0000
0000
0000
0000
0000
0000
0000
0000
0000
0000
0000
0000
0000
0000
0000
0000
0000
0000
0000
0000
0000
0000
0000
0000
0000
0000
0000
0000
0000
0000
0000
0000
0000
0000
0000
0000
0000
0000
0000
0000
0000
0000
0000
0000
0000
0000
0000
2000
0000
0000
0000
0000
0000
0000
0000
0000
0000
0000
0000
0000
0000
0000
0000
0000
0000
0000
0000
0000
0000
0000
3000
2000
0000
0000
0000
0000
0000
0000
0000
0000
0000
0000
0000
0000
0000
0000
0000
0000
0000
0000
0000
0000
0000
0000
3000
0001
0000
0000
0000
0000
0000
0000
0000
0000
0000
0000
0000
0000
0000
0000
0000
0000
0000
0000
0000
0000
0000
0000
0000
0000
0000
0000
0000
0000
0000
0000
0000
0000
0000
0000
0000
0000
0000
0000
0000
0000
0000
0000
0000
0000
0000
0000
0000
,  // measure 105
2000
0000
0000
0000
0000
0000
0000
0000
0000
0000
0000
0000
0000
0000
0000
0000
0000
0000
0000
0000
0000
0000
0000
3000
2000
0000
0000
0000
0000
0000
0000
0000
0000
0000
0000
0000
0000
0000
0000
0000
0000
0000
0000
0000
0000
0000
0000
3000
0001
0000
0000
0000
0000
0000
0000
0000
0000
0000
0000
0000
0000
0000
0000
0000
0000
0000
0000
0000
0000
0000
0000
0000
0000
0000
0000
0000
0000
0000
0000
0000
0000
0000
0000
0000
0000
0000
0000
0000
0000
0000
0000
0000
0000
0000
0000
0000
2000
0000
0000
0000
0000
0000
0000
0000
0000
0000
0000
0000
0000
0000
0000
0000
0000
0000
0000
0000
0000
0000
0000
3000
2000
0000
0000
0000
0000
0000
0000
0000
0000
0000
0000
0000
0000
0000
0000
0000
0000
0000
0000
0000
0000
0000
0000
3000
0001
0000
0000
0000
0000
0000
0000
0000
0000
0000
0000
0000
0000
0000
0000
0000
0000
0000
0000
0000
0000
0000
0000
0000
0000
0000
0000
0000
0000
0000
0000
0000
0000
0000
0000
0000
0000
0000
0000
0000
0000
0000
0000
0000
0000
0000
0000
0000
,  // measure 106
2000
0000
0000
0000
0000
0000
0000
0000
0000
0000
0000
0000
0000
0000
0000
0000
0000
0000
0000
0000
0000
0000
0000
3000
2000
0000
0000
0000
0000
0000
0000
0000
0000
0000
0000
0000
0000
0000
0000
0000
0000
0000
0000
0000
0000
0000
0000
3000
0001
0000
0000
0000
0000
0000
0000
0000
0000
0000
0000
0000
0000
0000
0000
0000
0000
0000
0000
0000
0000
0000
0000
0000
0000
0000
0000
0000
0000
0000
0000
0000
0000
0000
0000
0000
0000
0000
0000
0000
0000
0000
0000
0000
0000
0000
0000
0000
2000
0000
0000
0000
0000
0000
0000
0000
0000
0000
0000
0000
0000
0000
0000
0000
0000
0000
0000
0000
0000
0000
0000
3000
2000
0000
0000
0000
0000
0000
0000
0000
0000
0000
0000
0000
0000
0000
0000
0000
0000
0000
0000
0000
0000
0000
0000
3000
0001
0000
0000
0000
0000
0000
0000
0000
0000
0000
0000
0000
0000
0000
0000
0000
0000
0000
0000
0000
0000
0000
0000
0000
0000
0000
0000
0000
0000
0000
0000
0000
0000
0000
0000
0000
0000
0000
0000
0000
0000
0000
0000
0000
0000
0000
0000
0000
,  // measure 107
2000
0000
0000
0000
0000
0000
0000
0000
0000
0000
0000
0000
0000
0000
0000
0000
0000
0000
0000
0000
0000
0000
0000
3000
2000
0000
0000
0000
0000
0000
0000
0000
0000
0000
0000
0000
0000
0000
0000
0000
0000
0000
0000
0000
0000
0000
0000
3000
0001
0000
0000
0000
0000
0000
0000
0000
0000
0000
0000
0000
0000
0000
0000
0000
0000
0000
0000
0000
0000
0000
0000
0000
0000
0000
0000
0000
0000
0000
0000
0000
0000
0000
0000
0000
0000
0000
0000
0000
0000
0000
0000
0000
0000
0000
0000
0000
2000
0000
0000
0000
0000
0000
0000
0000
0000
0000
0000
0000
0000
0000
0000
0000
0000
0000
0000
0000
0000
0000
0000
3000
2000
0000
0000
0000
0000
0000
0000
0000
0000
0000
0000
0000
0000
0000
0000
0000
0000
0000
0000
0000
0000
0000
0000
3000
0001
0000
0000
0000
0000
0000
0000
0000
0000
0000
0000
0000
0000
0000
0000
0000
0000
0000
0000
0000
0000
0000
0000
0000
0000
0000
0000
0000
0000
0000
0000
0000
0000
0000
0000
0000
0000
0000
0000
0000
0000
0000
0000
0000
0000
0000
0000
0000
,  // measure 108
1000
0100
0010
1000
0010
0001
0100
0010
,  // measure 109
1000
0010
0100
0000
0001
0000
0010
0000
0001
0000
0100
0000
0010
0000
1000
0000
,  // measure 110
0001
0100
0010
1000
,  // measure 111
0010
0100
0001
0100
,  // measure 112
0010
1000
0010
0100
,  // measure 113
0001
0100
0010
1000
,  // measure 114
0010
0100
0001
0100
,  // measure 115
0010
1000
0010
0100
,  // measure 116
0MM2
MM23
M23M
23MM
,  // measure 117
3MM2
MM23
M23M
23MM
,  // measure 118
3MM1
0000
0100
0000
0010
0000
1000
0000
0010
0000
0100
0000
,  // measure 119
0001
0000
0100
0000
0010
0000
1000
0000
0010
0000
0100
0000
,  // measure 120
0001
0000
0100
0000
0010
0000
1000
0000
0010
0000
0100
0000
,  // measure 121
0001
0000
0100
0000
0010
0000
1000
0000
0010
0000
0100
0000
,  // measure 122
0002
0000
0000
0000
0000
0000
2003
0000
3020
0000
2030
0000
,  // measure 123
3002
0000
0000
0000
0000
0000
2003
0000
3200
0000
2300
0000
,  // measure 124
3002
0000
0000
0000
0000
0000
2003
0000
3020
0000
2030
0000
,  // measure 125
3020
0000
2030
0000
3002
0000
0203
0000
0320
0000
0032
0000
,  // measure 126
2120
0100
0100
0100
,  // measure 127
0100
0100
0100
0100
,  // measure 128
0100
0100
0100
0100
,  // measure 129
0100
0100
0100
0100
,  // measure 130
0100
0100
0100
0100
,  // measure 131
0100
0100
0100
0100
,  // measure 132
0100
0100
0100
0100
,  // measure 133
0100
0100
0100
0100
,  // measure 134
0100
0000
0100
0000
0100
0000
0100
0000
0100
0000
0100
0000
,  // measure 135
0100
0000
0100
0000
0100
0000
0100
0000
0100
0000
0100
0000
,  // measure 136
0100
0000
0100
0000
0100
0000
0100
0000
0100
0000
0100
0000
,  // measure 137
0100
0000
0100
0000
0100
0000
0100
0000
0100
0000
0100
0000
,  // measure 138
0100
0100
0100
0100
,  // measure 139
0000
0100
0100
0100
,  // measure 140
0200
0000
0000
0000
,  // measure 141
3333
0000
0000
0000
,  // measure 142
2020
3032
0203
2300
,  // measure 143
3200
0320
0230
0320
,  // measure 144
2030
3020
0230
0302
,  // measure 145
0023
0032
2003
3200
,  // measure 146
0320
0032
2003
3020
,  // measure 147
2030
3002
0023
0032
,  // measure 148
2003
3002
0203
0320
,  // measure 149
2030
3020
0230
0302
,  // measure 150
2203
3302
0023
0032
,  // measure 151
2003
3020
0230
0302
,  // measure 152
0023
0032
0023
0032
,  // measure 153
2003
0020
0032
0203
,  // measure 154
3322
0033
2200
3300
,  // measure 155
0022
0000
0000
0033
0202
0000
0000
0303
2200
0000
0000
3300
,  // measure 156
2M2M
000M
3M3M
0000
,  // measure 157
1000
0010
0100
0000
0001
0010
0100
0000
,  // measure 158
1000
0000
0100
0000
0010
0000
0001
0000
1000
0000
0100
0000
,  // measure 159
0010
0000
0001
0000
1000
0000
0100
0000
0010
0000
0001
0000
,  // measure 160
1000
0000
0100
0000
0010
0000
0001
0000
1000
0000
0100
0000
,  // measure 161
0010
0000
0001
0000
1000
0000
0100
0000
0010
0000
0001
0000
,  // measure 162
1000
0000
0100
0000
0010
0000
0001
0000
1000
0000
0100
0000
,  // measure 163
0010
0000
0001
0000
1000
0000
0100
0000
0010
0000
0001
0000
,  // measure 164
1000
0000
0100
0000
0010
0000
0001
0000
1000
0000
0100
0000
,  // measure 165
0010
0000
0001
0000
1000
0000
0100
0000
0010
0000
0001
0000
,  // measure 166
1000
0000
0010
0000
0100
0000
0001
0000
1000
0000
0010
0000
,  // measure 167
0100
0000
0001
0000
1000
0000
0010
0000
0100
0000
0001
0000
,  // measure 168
1000
0000
0010
0000
0100
0000
0001
0000
1000
0000
0010
0000
,  // measure 169
0100
0000
0001
0000
1000
0000
0010
0000
0100
0000
0001
0000
,  // measure 170
1000
0010
1000
0010
1000
0010
1000
0010
1000
0010
1000
0010
,  // measure 171
0001
0010
0001
0010
0001
0010
0001
0010
0001
0010
0001
0010
,  // measure 172
1000
0010
1000
0010
1000
0010
1000
0010
1000
0010
1000
0010
,  // measure 173
0001
0010
0001
0010
0001
0010
0001
0010
0001
0010
0001
0010
,  // measure 174
2002
0000
0000
0000
,  // measure 175
0000
0000
0000
0000
,  // measure 176
0000
0000
0000
0000
,  // measure 177
0000
0000
3003
0000
,  // measure 178
2002
0000
0000
0000
,  // measure 179
3223
0000
0000
0000
,  // measure 180
2330
0000
3002
0000
,  // measure 181
2003
0000
3002
0000
,  // measure 182
2003
0000
3002
0000
,  // measure 183
2003
0000
3002
0000
,  // measure 184
2003
0000
3002
0000
,  // measure 185
2003
0000
3002
0000
,  // measure 186
2003
0000
3002
0000
,  // measure 187
2003
0000
3002
0000
,  // measure 188
2003
0000
3002
0000
,  // measure 189
2003
0000
3002
0000
,  // measure 190
2003
0000
3002
0000
,  // measure 191
2003
0000
3002
0000
,  // measure 192
2003
0000
3002
0000
,  // measure 193
2003
0000
3002
0000
,  // measure 194
2003
0000
3002
0000
,  // measure 195
2003
0000
3002
0000
,  // measure 196
2003
0000
3002
0000
,  // measure 197
2003
0000
3002
0000
,  // measure 198
2003
0000
3002
0000
,  // measure 199
2003
0000
3002
0000
,  // measure 200
2003
0000
3002
0000
,  // measure 201
2003
0000
3002
0000
,  // measure 202
2003
0000
3002
0000
,  // measure 203
2003
0000
3002
0000
,  // measure 204
2003
0000
3002
0000
,  // measure 205
2003
0000
3002
0000
,  // measure 206
2003
0000
3002
0000
,  // measure 207
2003
0000
3002
0000
,  // measure 208
2003
0000
3002
0000
,  // measure 209
2003
0000
3002
0000
,  // measure 210
2003
0000
3002
0000
,  // measure 211
2003
0000
3002
0000
,  // measure 212
2003
0000
3002
0000
,  // measure 213
2003
0000
3002
0000
,  // measure 214
2003
0000
3002
0000
,  // measure 215
2003
0000
3002
0000
,  // measure 216
2003
0000
3002
0000
,  // measure 217
1003
0000
0000
0000
;
