#TITLE:HEAVENLY MOON;
#SUBTITLE:;
#ARTIST:Tatsh;
#TITLETRANSLIT:;
#SUBTITLETRANSLIT:;
#ARTISTTRANSLIT:;
#CREDIT:TensaiKashou;
#BANNER:HEAVENLY MOON-bn.png;
#BACKGROUND:HEAVENLY MOON-bg.png;
#LYRICSPATH:;
#CDTITLE:;
#MUSIC:HEAVENLY MOON.mp3;
#OFFSET:-1.757;
#SAMPLESTART:16.000;
#SAMPLELENGTH:10.380;
#SELECTABLE:YES;
#BPMS:0.000=370.000,72.000=185.000,104.000=92.500,106.750=-92.500,122.750=92.500,140.000=370.000,260.000=2220000.000,264.000=4440000.000,268.000=370.000,404.000=2960.000,468.000=370.000,476.000=740.000,988.000=370.000;
#STOPS:260.000=0.162
,261.000=0.162
,262.000=0.162
,263.000=0.162
,264.000=0.081
,264.500=0.081
,265.000=0.081
,265.500=0.081
,266.000=0.081
,266.500=0.081
,267.000=0.081
,267.500=0.081
;
#BGCHANGES:;

//---------------dance-single - Eh? Special----------------
#NOTES:
     dance-single:
     Eh? Special:
     Challenge:
     13:
     0.950,1.000,0.789,1.000,0.021: // measure 1
0000
0000
0000
0000
,  // measure 2
10M1
0M0M
M11M
0MM0
,  // measure 3
1000
0010
0100
0001
,  // measure 4
0010
0001
1000
0100
,  // measure 5
1000
0001
1000
0001
,  // measure 6
0000
0000
0000
0000
,  // measure 7
0010
0001
1000
0100
,  // measure 8
1000
0010
0100
0001
,  // measure 9
0100
0010
0100
0010
,  // measure 10
0000
0000
0000
0000
,  // measure 11
1000
0001
0100
0010
,  // measure 12
0001
1000
0010
0100
,  // measure 13
0010
0010
1000
0001
,  // measure 14
0000
0000
0000
0000
,  // measure 15
1001
1000
0001
0000
,  // measure 16
0110
0000
0100
0010
,  // measure 17
1000
0000
0000
0100
0000
0000
0001
0000
,  // measure 18
0010
0000
1000
0000
0001
1000
0002
0000
,  // measure 19
1003
2000
3002
0203
,  // measure 20
0320
0000
0000
0000
,  // measure 21
0000
0230
0302
2003
,  // measure 22
3200
0000
2300
3020
,  // measure 23
0230
0000
0302
0023
,  // measure 24
2030
0000
0000
0000
,  // measure 25
3020
0000
0000
0000
0000
0000
0230
2300
,  // measure 26
3002
0000
0000
0000
,  // measure 27
10M3
0000
0000
0000
00MM
0000
0000
0000
M01M
1000
0100
0MMM
0MMM
0MMM
0MMM
0MMM
,  // measure 28
0000
0000
0000
0000
,  // measure 29
0000
0000
0000
0000
,  // measure 30
0000
0000
0000
0000
,  // measure 31
0000
0000
0000
0000
,  // measure 32
0000
0000
0000
0000
,  // measure 33
0000
0000
0000
0000
,  // measure 34
0000
0000
0000
0000
,  // measure 35
0000
0000
0000
0000
0000
0000
0000
0000
0000
0000
0000
0222
0000
0000
0000
0333
,  // measure 36
1010
0000
0000
1100
0000
0000
0001
0000
,  // measure 37
1010
0000
0000
1100
0000
0000
0001
0000
,  // measure 38
0011
0000
0000
0101
0000
0000
1000
0000
,  // measure 39
0011
0000
0000
0101
0000
0000
1000
0000
,  // measure 40
1100
0000
0000
0101
0000
0000
0010
0000
,  // measure 41
1100
0000
0000
0101
0000
0000
0010
0000
,  // measure 42
1010
0000
0000
0011
0000
0000
0100
0000
,  // measure 43
1010
0000
0000
0011
0000
0000
0100
0000
,  // measure 44
0011
0000
0000
0101
0000
0000
1100
0000
,  // measure 45
1010
0000
0000
0011
0000
0000
1100
0000
,  // measure 46
1010
0000
0000
1100
0000
0000
0101
0000
,  // measure 47
0011
0000
0000
1010
0000
0000
0101
0000
,  // measure 48
1001
0110
1001
0000
,  // measure 49
1001
0000
0110
0000
1000
0100
0010
0001
,  // measure 50
1001
0110
1001
0000
,  // measure 51
1001
0000
0110
0000
0010
0010
0010
0010
,  // measure 52
2010
0000
0000
0001
,  // measure 53
0000
0000
0100
0000
,  // measure 54
3012
0000
0000
1000
,  // measure 55
0000
0000
0100
0000
,  // measure 56
0213
0000
0000
1000
,  // measure 57
0000
0000
0001
0000
,  // measure 58
2300
3020
0230
0302
,  // measure 59
0023
0032
2003
3200
,  // measure 60
2310
0000
0000
0001
,  // measure 61
0000
0000
0100
0000
,  // measure 62
3012
0000
0000
1000
,  // measure 63
0000
0000
0200
0000
,  // measure 64
0023
0000
0000
0000
,  // measure 65
0000
0000
0330
0000
,  // measure 66
0020
2030
3002
0203
,  // measure 67
2300
3002
0203
0320
2030
3002
0023
0230
,  // measure 68
0300
0000
00M0
000M
,  // measure 69
MM0M
0MM0
0000
0000
,  // measure 70
0010
1000
1000
0010
,  // measure 71
0001
0001
0020
0030
,  // measure 72
0010
0001
0001
0010
,  // measure 73
1000
1000
0020
0030
,  // measure 74
0010
1000
0010
0001
,  // measure 75
0010
0100
0020
0030
,  // measure 76
0100
0010
0100
0220
,  // measure 77
0330
1001
1001
0000
,  // measure 78
0010
0000
1000
0100
1000
0000
0010
0000
,  // measure 79
1000
0100
1000
0000
2220
0000
3330
0000
,  // measure 80
0010
0000
0100
0001
0100
0000
0010
0000
,  // measure 81
0100
0001
0100
0000
0222
0000
0333
0000
,  // measure 82
0010
0000
1000
0001
1000
0000
0100
0000
,  // measure 83
0001
1000
0001
0000
0010
0000
0100
0000
,  // measure 84
1001
1000
1001
0001
,  // measure 85
1000
0001
1000
0000
0110
0000
0000
0000
,  // measure 86
0220
0000
0000
0000
0330
MMMM
2002
0000
,  // measure 87
0000
0000
3003
MMMM
0220
0000
0000
0000
,  // measure 88
0000
0000
0000
0000
,  // measure 89
0000
0000
0330
0000
,  // measure 90
0010
0100
0001
1000
,  // measure 91
0010
0100
1000
0001
,  // measure 92
0110
1000
0001
0200
,  // measure 93
0000
0000
0300
0000
0001
0100
0010
1000
,  // measure 94
0010
1000
0100
0010
,  // measure 95
1000
0100
0010
0001
,  // measure 96
0100
0010
0001
0100
,  // measure 97
0001
0100
0001
0010
,  // measure 98
1010
1000
1100
0100
,  // measure 99
0101
0001
0011
0010
,  // measure 100
0011
0001
0101
0100
,  // measure 101
1100
1000
1010
0010
,  // measure 102
2222
0000
0000
0000
,  // measure 103
3333
0000
0000
0000
,  // measure 104
2222
0000
0000
0000
,  // measure 105
3333
0000
0000
0000
,  // measure 106
2222
0000
0000
0000
,  // measure 107
3333
0000
0000
0000
,  // measure 108
2222
0000
0000
0000
,  // measure 109
3333
0000
0000
0000
,  // measure 110
2222
0000
0000
0000
,  // measure 111
3333
0000
0000
0000
,  // measure 112
2222
0000
0000
0000
,  // measure 113
3333
0000
0000
0000
,  // measure 114
2222
0000
0000
0000
,  // measure 115
3333
0000
0000
0000
,  // measure 116
2222
0000
0000
0000
,  // measure 117
3333
0000
0000
0000
,  // measure 118
1111
0000
00M0
000M
,  // measure 119
M0MM
0MM0
0000
0000
,  // measure 120
1010
0000
0010
0000
,  // measure 121
0001
0000
0010
0000
,  // measure 122
0100
0000
0010
2000
,  // measure 123
0000
0000
3001
0000
,  // measure 124
0010
0000
0100
0000
,  // measure 125
0001
0000
0100
0000
,  // measure 126
1000
0000
0100
0002
,  // measure 127
0000
0000
1003
0000
,  // measure 128
0001
0000
0100
0000
,  // measure 129
1000
0000
0100
0000
,  // measure 130
0010
0000
0100
0002
,  // measure 131
0000
0000
1003
0000
,  // measure 132
1000
0000
0100
0000
,  // measure 133
1000
0000
0001
0000
,  // measure 134
0010
0000
0100
0000
,  // measure 135
0100
1000
0100
0001
,  // measure 136
0100
0000
0010
0000
,  // measure 137
1000
0000
0010
0000
,  // measure 138
0001
0000
0100
0002
,  // measure 139
0000
0000
0103
0000
,  // measure 140
0001
0000
0100
0000
,  // measure 141
1000
0000
0001
0000
,  // measure 142
0010
0000
0100
0001
,  // measure 143
1000
0100
0010
0001
,  // measure 144
2000
0000
3002
0000
,  // measure 145
0023
0000
0230
0000
,  // measure 146
2300
0000
3002
0000
,  // measure 147
0023
0000
0230
0000
,  // measure 148
1300
0010
0100
0001
,  // measure 149
0010
0001
1000
0100
,  // measure 150
1000
0010
0100
0001
,  // measure 151
0010
0001
1000
0100
,  // measure 152
0010
0000
0100
0000
,  // measure 153
0100
0000
1000
0000
,  // measure 154
0100
0000
0100
0000
,  // measure 155
0010
0000
0100
0000
,  // measure 156
0010
0000
0100
0000
,  // measure 157
0100
0000
0001
0000
,  // measure 158
0100
0000
0100
0000
,  // measure 159
0010
0000
0100
0000
,  // measure 160
1000
0000
0010
0000
,  // measure 161
0010
0000
0100
0000
,  // measure 162
0010
0000
0010
0000
,  // measure 163
0001
0000
0010
0000
,  // measure 164
0001
0000
0010
0000
,  // measure 165
0010
0000
0100
0000
,  // measure 166
0010
0000
0010
0000
,  // measure 167
1000
0100
0010
0001
,  // measure 168
1000
0000
0010
0000
,  // measure 169
0001
0000
1000
0000
,  // measure 170
0001
0000
0100
0000
,  // measure 171
1000
0000
0100
0000
,  // measure 172
0001
0000
0010
0000
,  // measure 173
1000
0000
0001
0000
,  // measure 174
1000
0000
0100
0000
,  // measure 175
0001
0010
0100
2000
,  // measure 176
3001
0000
0000
0000
,  // measure 177
0000
0000
0010
0000
,  // measure 178
1000
0001
0000
0001
,  // measure 179
1000
0001
1000
0000
,  // measure 180
1000
0100
1000
0100
,  // measure 181
0100
0001
0100
0001
,  // measure 182
1000
0010
1000
0010
,  // measure 183
0010
0001
0010
0001
,  // measure 184
1000
0000
0000
0000
,  // measure 185
2022
0000
3033
0000
,  // measure 186
1000
0000
0020
0000
,  // measure 187
0031
0000
0020
0000
,  // measure 188
1030
0000
0200
0000
,  // measure 189
0301
0000
0200
0000
,  // measure 190
0310
0000
1000
0000
,  // measure 191
0001
0000
0100
0000
,  // measure 192
0010
0000
1000
0000
,  // measure 193
0100
0000
0010
0000
,  // measure 194
0001
0000
0100
0000
,  // measure 195
0001
0000
1000
0000
,  // measure 196
0010
0000
0100
0000
,  // measure 197
0100
0000
0010
0000
,  // measure 198
0010
0001
1000
0001
,  // measure 199
0100
0001
0010
0002
,  // measure 200
0000
0000
0000
0000
,  // measure 201
1113
0000
1000
0000
,  // measure 202
0100
0000
0010
0000
,  // measure 203
0100
0000
0010
0000
,  // measure 204
0010
0000
0001
0000
,  // measure 205
1000
0000
0100
0000
,  // measure 206
0010
0000
1000
0000
,  // measure 207
0001
0000
0100
0000
,  // measure 208
2002
0000
0000
0000
,  // measure 209
0000
0000
0000
0000
,  // measure 210
0000
0000
0000
0000
,  // measure 211
0000
0000
0000
0000
,  // measure 212
0200
0000
0000
0000
,  // measure 213
0000
0000
0000
0000
,  // measure 214
0020
0000
0000
0000
,  // measure 215
0000
0000
3333
0000
,  // measure 216
0010
0000
0010
0000
,  // measure 217
0010
0000
0010
0000
,  // measure 218
0010
0000
0010
0000
,  // measure 219
0010
0000
0010
0000
,  // measure 220
0010
0000
0010
0000
,  // measure 221
0010
0000
0010
0000
,  // measure 222
0010
0000
0010
0000
,  // measure 223
0010
0000
0010
0000
,  // measure 224
1001
0000
1001
0000
,  // measure 225
1001
0000
1001
0000
,  // measure 226
1001
0000
1001
0000
,  // measure 227
1001
0000
1001
0000
,  // measure 228
0100
0000
0100
0000
,  // measure 229
0100
0000
0100
0000
,  // measure 230
0100
0000
0100
0000
,  // measure 231
0100
0000
0100
0000
,  // measure 232
0020
0030
1000
0001
,  // measure 233
1000
0000
0020
0030
,  // measure 234
0001
1000
0001
0000
,  // measure 235
2002
0000
0000
0000
,  // measure 236
0000
0000
0000
0000
,  // measure 237
0000
0000
0000
0000
,  // measure 238
0000
0000
3003
0000
,  // measure 239
0010
0100
0010
0100
,  // measure 240
2000
3000
0100
0010
,  // measure 241
0100
0000
0002
0003
,  // measure 242
0100
0010
0100
0000
,  // measure 243
2002
0000
0000
0000
,  // measure 244
0000
0000
0000
0000
,  // measure 245
0000
0000
0000
0000
,  // measure 246
0000
0000
0000
0000
,  // measure 247
0000
0000
3003
0000
,  // measure 248
0100
0000
0010
0000
,  // measure 249
0100
0000
0010
0000
,  // measure 250
1101
0000
1011
0000
,  // measure 251
10M1
011M
M11M
0MM0
;
