#TITLE:TWINKLE♡HEART;
#SUBTITLE:;
#ARTIST:jun;
#TITLETRANSLIT:;
#SUBTITLETRANSLIT:;
#ARTISTTRANSLIT:;
#GENRE:;
#CREDIT:;
#MENUCOLOR:;
#METERTYPE:DDR X;
#BANNER:TWINKLE HEART.png;
#BACKGROUND:TWINKLE HEART-bg.png;
#LYRICSPATH:;
#CDTITLE:./CDTitles/DanceDanceRevolution X3.png;
#MUSIC:TWINKLE HEART.mp3;
#OFFSET:0.000;
#SAMPLESTART:41.948;
#SAMPLELENGTH:15.000;
#SELECTABLE:YES;
#LISTSORT:;
#BPMS:0.000=185.000;
#STOPS:290.000=0.324
;
#BGCHANGES:;
#ATTACKS:;

//---------------dance-single - ----------------
#NOTES:
     dance-single:
     :
     Beginner:
     1:
     0.140,0.189,0.019,0.113,0.000:
0000
0000
0000
0000
,
0000
0000
0000
0000
,
0000
0000
0000
0000
,
0000
0000
0000
0000
,
0000
0000
0000
0000
,
0000
0000
0000
1000
,
0000
0000
0000
1000
,
0000
0000
0000
0001
,
0000
0000
0000
0001
,
0000
0000
0000
0000
,
0001
0000
0001
0000
,
0000
0000
0000
0000
,
1000
0000
1000
0000
,
0000
0000
0000
0000
,
0010
0000
0010
0000
,
0000
0000
0000
0000
,
0100
0000
0100
0000
,
0000
0000
0000
0000
,
1000
0000
0001
0000
,
0000
0000
0000
0000
,
0001
0000
1000
0000
,
0000
0000
0000
0000
,
0010
0000
0100
0000
,
0000
0000
0000
0000
,
0100
0000
0010
0000
,
2000
0000
3000
0000
,
0200
0000
0300
0000
,
0002
0000
0003
0000
,
0020
0000
0030
0000
,
2000
0000
3000
0000
,
0200
0000
0300
0000
,
0002
0000
0003
0000
,
0020
0000
0030
0000
,
0000
0000
0000
1000
,
0000
0000
0000
1000
,
0000
0000
0000
0001
,
0000
0000
0000
0001
,
0000
0000
1000
1000
,
0000
0000
0001
0001
,
0000
0000
1000
1000
,
0000
0000
0001
0001
,
0000
0000
0000
0010
,
0000
0000
0000
0010
,
0000
0000
0000
0100
,
0000
0000
0000
0100
,
0200
0000
0300
0000
,
0020
0000
0030
0000
,
1000
0000
1000
0000
,
0001
0001
0001
0000
,
1000
0000
0000
0000
,
0000
0000
0000
0000
,
0100
0000
0000
0000
,
0000
0000
0000
0000
,
0001
0000
0000
0000
,
0000
0000
0000
0000
,
0010
0000
0000
0000
,
0000
0000
0000
0000
,
1000
0000
1000
0000
,
0001
0000
0001
0000
,
1000
0000
0001
0000
,
1000
0000
0001
0000
,
0010
0000
0000
0000
,
0100
0000
0000
0000
,
0010
0000
0100
0000
,
0010
0010
0010
0000
,
1001
0000
0000
0000
,
0000
0000
0000
0000
,
1001
0000
0000
0000
,
0000
0000
0000
0000
,
0001
0000
0000
0000
,
1000
0000
0000
0000
,
0001
0000
1000
0000
,
0001
0000
1000
0000
,
0000
0000
1000
0000
,
0000
0000
0100
0000
,
0000
0000
0001
0000
,
0000
0000
0010
0020
,
0000
0030
0000
0002
,
0000
0003
0000
1000
,
0000
0001
0000
1000
,
1000
1000
1000
0000
;

//---------------dance-single - ----------------
#NOTES:
     dance-single:
     :
     Easy:
     4:
     0.226,0.265,0.019,0.094,0.000:
0000
0000
0000
0000
,
0000
0000
0000
0000
,
0000
0000
0000
0000
,
0000
0000
0000
0000
,
0000
0000
0000
0000
,
0000
0100
0000
0100
,
0000
1000
0000
1000
,
0000
0001
0000
0001
,
0000
1000
0001
0000
,
1000
0100
1000
0000
,
0002
0000
0000
0003
,
0100
0000
0100
0000
,
0010
0000
1000
0000
,
0001
0100
0001
0000
,
2000
0000
0000
3000
,
0001
0000
1000
0000
,
0001
1000
0001
0000
,
0001
0001
0100
0000
,
0002
0000
0000
0003
,
1000
0000
0010
0000
,
0100
0000
0001
0000
,
0010
0010
0100
0000
,
2000
0000
0000
3000
,
0010
0000
0100
0000
,
0001
0001
0001
0001
,
1000
0000
0000
1000
,
0100
0000
0000
0100
,
0010
0000
0000
0010
,
0001
0010
0001
0010
,
1000
0000
0000
1000
,
0001
0000
0000
0001
,
0100
0000
0010
0000
,
1000
0001
1000
0000
,
0001
1000
0010
0000
,
0100
0000
0100
0000
,
1000
0000
0010
0000
,
0100
0001
1000
0000
,
0001
0000
0100
0000
,
1000
0000
0100
0000
,
0001
0000
1000
0000
,
0001
1000
0001
0000
,
0001
1000
0100
0000
,
1000
0000
1000
0000
,
0001
0000
0100
0000
,
0010
0000
1000
0000
,
2000
0000
0000
3000
,
0002
0000
0000
0003
,
0010
0000
0010
0000
,
1000
0001
1000
0001
,
0000
0000
0100
0000
,
0000
0000
0001
0000
,
0000
0000
0010
0000
,
0000
0000
1000
0000
,
0000
0000
0010
0000
,
0000
0000
0100
0000
,
0000
0000
0010
0000
,
0000
0000
0001
0000
,
0000
0100
0000
0100
,
0000
0001
0000
1000
,
0000
0100
0000
0100
,
0000
1000
0000
0001
,
0000
0010
0000
0010
,
0000
0001
0000
0001
,
1000
0000
0001
0000
,
1000
0001
1000
0000
,
0020
0000
0000
0000
0030
0000
0000
0001
,
0000
0001
0000
0001
0000
0000
0000
0000
,
2000
0000
0000
0000
3000
0000
0000
0100
,
0000
0100
0000
0100
0000
0000
0000
0000
,
1000
0000
1000
0000
,
0001
0000
0001
0000
,
1000
0000
0001
0000
,
1000
0000
1001
1000
,
0001
0010
0000
0001
,
0000
0001
0000
1000
,
0000
0100
0000
0001
,
0000
0100
0000
0002
,
0000
0000
0003
2000
,
0000
0000
3000
0010
,
0000
0100
0000
0001
,
1000
0001
1001
0000
;

//---------------dance-single - ----------------
#NOTES:
     dance-single:
     :
     Medium:
     8:
     0.471,0.643,0.442,0.150,0.000:
0000
0000
0000
0000
,
0000
0000
0000
0000
,
0000
0000
0000
0000
,
0000
0000
0000
0000
,
0000
0000
0000
0000
,
0001
0100
1000
0100
,
0001
1000
0001
0000
1000
0000
0001
0000
,
0010
1000
0010
0001
,
1000
0001
1000
1001
,
0001
0000
0100
0000
0001
0100
0001
0000
,
2000
0010
0001
3010
,
0100
0001
0100
1000
,
0010
0001
1001
0000
,
1000
0000
0100
0000
1000
0100
1000
0000
,
0002
0010
1000
0013
,
0110
0000
1001
0000
,
0110
1001
0110
1001
,
0001
0000
0100
0000
0010
0100
0010
0000
,
2000
0100
0001
3100
,
1000
0010
0100
0001
,
1000
0100
0110
0000
,
0010
0000
0001
0000
1000
0001
1000
0000
,
0002
0100
1000
0103
,
0010
0000
0100
0000
,
1000
0001
1000
1001
,
0001
0000
1000
0010
0000
1000
0001
0000
,
0100
0000
0010
0100
0000
0001
0100
0000
,
0001
0000
1000
0100
0000
0010
0100
0000
,
1000
0101
1100
0101
,
0010
0000
0100
0001
0000
1000
0100
0000
,
0010
0000
0001
1000
0000
0001
0010
0000
,
0100
0000
0000
0010
0100
0000
0000
1000
,
0001
1000
0001
1001
,
0001
1000
0010
0100
,
1100
0101
1100
0101
,
0002
0023
0230
0320
,
0130
1000
0001
0000
,
1000
0100
0010
0000
0100
0000
0100
0000
,
0001
0100
0010
0000
0100
0000
0100
0000
,
1000
0010
0001
0100
,
1000
0000
0010
0100
0010
0000
1001
0000
,
1000
0001
0010
0100
,
0101
1100
0101
1100
,
2000
3020
0230
0320
,
0130
0001
1000
0000
,
0001
0100
0010
0000
0100
0000
0100
0000
,
1000
0100
0010
0000
0100
0000
0100
0000
,
1001
0000
0110
0000
,
1001
0110
1001
0110
,
0001
0010
0100
0000
,
0010
0100
1000
0000
,
0001
1000
0010
0000
,
1000
0010
0100
0000
,
0001
0000
0010
0000
,
1000
0000
0100
0000
,
0001
0000
0010
0000
,
1000
0000
0100
0000
,
0001
0100
1000
0100
,
0001
0000
0100
0000
1000
0100
0001
0000
,
1000
0100
0001
0100
,
1000
0000
0100
0000
0001
0100
1000
0000
,
0001
0100
1000
0010
,
1000
0100
0001
0010
,
0110
0000
1001
0000
,
0110
1001
0110
0000
,
0001
0000
0000
1000
0100
0000
0000
0001
,
0000
1000
0000
1001
0000
0000
0000
0000
,
0010
0000
0000
0100
0000
0000
0000
0010
,
0000
0100
0000
0110
0000
0000
0000
0000
,
0001
0001
0100
0100
,
1000
1000
0010
0010
,
0001
0000
0000
1000
0000
0000
0001
0000
,
0010
0100
0110
0001
,
1000
0010
0100
1100
,
0101
1100
0101
0002
,
0023
0230
0320
0130
,
1000
0000
0001
0000
0000
0000
1000
0100
,
0010
0000
0100
0000
0100
0000
0001
0100
,
0010
0100
0100
1001
,
0000
0110
0000
1001
,
0110
1001
0110
0000
;

//---------------dance-single - ----------------
#NOTES:
     dance-single:
     :
     Hard:
     11:
     0.609,0.605,0.385,0.507,0.000:
0000
0000
0000
0000
,
0000
0000
0000
0000
,
0000
0000
0000
0000
,
0000
0000
0000
0000
,
0000
0000
0000
0000
,
0001
1000
0100
0001
0000
0100
1000
0100
,
0000
1000
0001
0100
1000
0000
0001
0000
,
0010
1000
0010
0001
0000
0010
1000
0010
,
0000
1000
0001
0010
1000
0000
0010
0000
,
0001
0010
0100
0010
0000
1001
0000
0120
,
0000
1030
0001
0100
0000
0010
1000
0100
,
0010
0000
0100
1000
0000
0101
0000
0011
,
0000
1100
0000
0110
1001
0000
0100
0000
,
0010
1000
0001
0010
0000
1100
0000
0201
,
0000
0310
0100
0010
0000
1000
0001
0010
,
0110
0000
1001
0000
,
0110
1001
0110
1001
,
0001
0100
1000
0200
0000
0302
0000
0023
,
0000
0130
1000
0100
0000
0010
0100
1000
,
0010
0000
0100
0002
0000
2003
0000
3200
,
0000
0310
0000
0001
1000
0000
0010
0000
,
1000
0100
0001
0200
0000
2300
0000
3002
,
0000
0103
0010
0100
0000
0001
1000
0001
,
0100
0000
0010
0000
,
1000
0001
1000
1001
,
0001
0000
2000
0010
0000
3001
0100
0010
,
1000
0000
0200
0010
0000
0301
0100
1000
,
0001
0000
2000
0010
0000
3100
0010
0001
,
1000
0101
1100
0101
,
0010
0000
0200
0001
0000
0310
1000
0010
,
0100
0000
0002
1000
0000
0013
0001
1000
,
0100
0000
0000
0010
0100
0000
0000
1000
,
0001
0000
1000
0100
0000
0010
0100
0010
,
0002
0000
1003
0001
0010
0000
0100
2000
,
0000
3002
0000
0103
0010
0000
1000
0001
,
0200
0000
1300
0200
0000
0302
0000
0023
,
0000
0130
1000
0001
0100
0000
0010
0000
,
1000
0100
0010
0100
0000
0100
0010
0001
,
1000
0010
0100
0001
0000
0001
1000
0001
,
2000
0000
3000
0001
1000
0100
0010
0001
,
1000
0000
0010
0100
0010
0000
1001
0000
,
2000
0000
3001
1000
0010
0000
0100
0002
,
0000
2003
0000
3100
0010
0000
0001
1000
,
0200
0000
0301
0200
0000
2300
0000
3020
,
0000
0130
0001
1000
0100
0000
0010
0000
,
0001
0100
0010
0000
0010
1000
0100
0000
,
0100
0010
0001
0000
0001
1000
0100
0000
,
0001
0000
0000
0100
1000
0000
0000
0001
,
1001
0110
1001
0110
,
0001
0010
0100
0000
,
0010
0100
1000
0000
,
0001
1000
0010
0000
,
1000
0010
0100
0000
,
0002
0000
0023
0000
,
2030
0000
3200
0000
,
0302
0000
0023
0000
,
2030
0000
3200
0000
,
0301
1000
0100
0000
0001
0100
1000
0000
,
0001
1000
0010
1000
0000
0001
0010
0100
,
0010
0001
0100
0000
0010
1000
0100
0000
,
1000
0001
0100
0010
0000
0010
0100
0001
,
2000
0100
3002
0013
,
0002
0100
2003
3010
,
0110
0000
1001
0000
,
0110
1001
0110
0000
,
0001
0000
0000
1000
0100
0000
0000
0011
,
0000
1100
0000
0202
0000
0000
0303
0000
,
1001
0000
0000
0110
0000
0000
0000
1010
,
0000
0101
0000
2200
0000
0000
3300
0000
,
0001
0001
0100
0100
,
1000
1000
0010
0010
,
0001
0000
0000
1000
0000
0000
0001
0000
,
0010
0000
0100
0010
0100
0000
0002
0000
,
1003
0001
0010
0000
0100
2000
0000
3002
,
0000
0103
0010
0000
1000
0001
0200
0000
,
1300
0200
0000
0302
0000
0023
0000
0130
,
1000
0001
0100
0000
0010
0000
1000
0100
,
0010
0000
0010
0001
0100
0000
0100
0010
,
1000
0000
1000
0001
0100
0000
1000
0000
,
0000
0100
0001
0000
0000
1000
1001
0000
,
0110
1001
0110
0000
;

//---------------dance-single - ----------------
#NOTES:
     dance-single:
     :
     Challenge:
     10:
     0.570,0.681,1.000,0.376,0.000:
0000
0000
0000
0000
,
0000
0000
0000
0000
,
0000
0000
0000
0000
,
0000
0000
0000
0000
,
0000
0000
0000
0000
,
1010
1010
0101
1010
,
1100
0101
1100
0101
,
0110
MMMM
1001
MMMM
,
0110
1001
0110
MMMM
,
2010
0010
0100
3010
,
MMMM
0101
MMMM
1100
,
1001
1001
0101
0101
,
1001
1100
1001
MMMM
,
0012
0010
0100
0013
,
MMMM
1100
MMMM
0101
,
1001
MMMM
0110
MMMM
,
1001
0110
1001
MMMM
,
1020
1000
0100
1030
,
MMMM
0101
MMMM
1100
,
1001
1001
1100
1100
,
1001
0101
1001
MMMM
,
0021
0001
0100
0031
,
MMMM
1100
MMMM
0101
,
1001
1001
0101
0101
,
0011
1010
1100
0101
,
MMMM
1001
MMMM
0011
,
MMMM
1001
MMMM
1010
,
MMMM
1001
MMMM
1100
,
1001
0110
1001
0110
,
MMMM
1001
MMMM
1100
,
MMMM
1001
MMMM
0101
,
1001
MMMM
0110
MMMM
,
1001
0110
1001
MMMM
,
1010
1010
1100
1100
,
1010
1100
1010
1100
,
MMMM
0011
MMMM
1100
,
0101
1100
0101
MMMM
,
0110
0110
1010
0110
,
0101
0101
0110
0101
,
0011
0011
1010
1010
,
1100
0101
1100
MMMM
,
0011
0011
0101
0101
,
0011
0101
0011
0101
,
MMMM
1010
MMMM
0101
,
1100
0101
1100
MMMM
,
0120
0100
0001
0130
,
1200
1000
0010
1300
,
1001
MMMM
0110
MMMM
,
1001
0110
1001
MMMM
,
0002
0000
0200
0003
,
2000
0300
0020
3000
,
2000
0030
0200
3000
,
0002
0300
0020
0003
,
0002
0030
0020
0003
,
0200
0030
2000
0300
,
0002
3000
0200
0003
,
0020
0300
2000
0030
,
3002
0100
1000
0100
,
0013
0100
0010
MMMM
,
2000
0100
0001
0100
,
3010
0100
0010
MMMM
,
0001
0010
1000
0100
,
0001
0100
1000
0010
,
1001
MMMM
0110
MMMM
,
1001
0110
1001
MMMM
,
2000
0000
3000
0001
0200
0000
0300
1010
,
0000
0101
0000
2200
0000
0000
3300
0000
,
2002
0000
3003
0220
0000
0330
0000
0011
,
0000
1100
0000
0202
0000
0000
0303
0000
,
1000
0100
1000
0100
,
0010
0001
0010
0001
,
2000
0000
0000
3002
0000
0000
2003
0000
,
3020
0030
0110
1010
,
1010
1100
1100
1010
,
1100
1010
1100
MMMM
,
0011
MMMM
1100
0101
,
1100
0101
MMMM
0120
,
0100
1000
0130
0201
,
0010
0001
0310
1001
,
MMMM
0110
MMMM
1001
,
0110
1001
0110
0000
;

//---------------dance-double - ----------------
#NOTES:
     dance-double:
     :
     Easy:
     4:
     0.227,0.303,0.019,0.113,0.000:
00000000
00000000
00000000
00000000
,
00000000
00000000
00000000
00000000
,
00000000
00000000
00000000
00000000
,
00000000
00000000
00000000
00000000
,
00000000
00000000
00000000
00000000
,
00000000
00000100
00000000
00000100
,
00000000
00000001
00000000
00000001
,
00000000
00001000
00000000
00001000
,
00000000
00000010
00010000
00000000
,
00001000
00010000
00001000
00000000
,
00200000
00000000
00000000
00300000
,
01000000
00000000
01000000
00000000
,
10000000
00000000
00010000
00000000
,
01000000
00100000
01000000
00000000
,
00002000
00000000
00000000
00003000
,
00010000
00000000
00001000
00000000
,
00010000
00001000
00010000
00000000
,
00001000
00001000
00000100
00000000
,
00000020
00000000
00000000
00000030
,
00001000
00000000
00000001
00000000
,
00000010
00000000
00000100
00000000
,
00010000
00010000
00001000
00000000
,
02000000
00000000
00000000
03000000
,
00100000
00000000
01000000
00000000
,
00010000
00010000
00010000
00010000
,
10000000
00000000
10000000
00000000
,
01000000
00000000
01000000
00000000
,
00010000
00000000
00010000
00000000
,
00001000
00010000
00001000
00010000
,
00000010
00000000
00000010
00000000
,
00001000
00000000
00001000
00000000
,
00000100
00000000
00000010
00000000
,
00000001
00001000
00000001
00000000
,
00001000
00000001
00000010
00000000
,
00000100
00000000
00000100
00000000
,
00010000
00000000
00001000
00000000
,
00100000
00010000
10000000
00000000
,
00100000
00000000
10000000
00000000
,
01000000
00000000
00010000
00000000
,
00001000
00000000
00000010
00000000
,
00000001
00001000
00000001
00000000
,
00000100
00000010
00001000
00000000
,
00000100
00000000
00000100
00000000
,
00010000
00000000
00001000
00000000
,
00100000
00000000
00010000
00000000
,
20000000
00000000
00000000
30000000
,
00020000
00000000
00000000
00030000
,
00100000
00000000
01000000
00000000
,
00010000
00001000
00010000
00001000
,
00000000
00000000
00000100
00000000
,
00000000
00000000
00000001
00000000
,
00000000
00000000
00000010
00000000
,
00000000
00000000
00001000
00000000
,
00000000
00000000
00010000
00000000
,
00000000
00000000
00100000
00000000
,
00000000
00000000
10000000
00000000
,
00000000
00000000
00010000
00000000
,
00000000
10000000
00000000
10000000
,
00000000
01000000
00000000
00010000
,
00000000
00001000
00000000
00001000
,
00000000
00000100
00000000
00000001
,
00000000
00000010
00000000
00000010
,
00000000
00000100
00000000
00000100
,
00010000
00000000
00001000
00000000
,
00010000
00001000
00010000
00000000
,
00000020
00000000
00000000
00000000
00000030
00000000
00000000
00001000
,
00000000
00001000
00000000
00001000
00000000
00000000
00000000
00000000
,
00200000
00000000
00000000
00000000
00300000
00000000
00000000
00010000
,
00000000
00010000
00000000
00010000
00000000
00000000
00000000
00000000
,
10000000
00000000
10000000
00000000
,
01000000
00000000
01000000
00000000
,
00010000
00000000
00001000
00000000
,
00022000
00000000
00033000
00010000
,
00000010
00001000
00000000
00000001
,
00000000
00000001
00000000
00000100
,
00000000
00001000
00000000
00010000
,
00000000
00100000
00000000
20000000
,
00000000
00000000
30000000
00020000
,
00000000
00000000
00030000
10000000
,
00000000
01000000
00000000
00010000
,
00001000
00010000
00011000
00000000
;

//---------------dance-double - ----------------
#NOTES:
     dance-double:
     :
     Medium:
     8:
     0.451,0.567,0.348,0.122,0.000:
00000000
00000000
00000000
00000000
,
00000000
00000000
00000000
00000000
,
00000000
00000000
00000000
00000000
,
00000000
00000000
00000000
00000000
,
00000000
00000000
00000000
00000000
,
00010000
01000000
10000000
01000000
,
00010000
00001000
00010000
00000000
00001000
00000000
00000010
00000000
,
00000001
00000100
00001000
00000100
,
00000001
00001000
00000001
00001001
,
00000010
00000000
00010000
00000000
00001000
00010000
00001000
00000000
,
00200000
00010000
01000000
00310000
,
10000000
01000000
00010000
00001000
,
00000010
00000001
00001001
00000000
,
00000100
00000000
00001000
00000000
00010000
00001000
00010000
00000000
,
02000000
00100000
00010000
03100000
,
01000000
00000000
10010000
00000000
,
00100000
00001000
00011000
00000000
,
00000100
00000000
00000001
00000000
00001000
00000001
00001000
00000000
,
00000200
00000010
00001000
00000310
,
00000001
00000100
00001000
00010000
,
00100000
01000000
01100000
00000000
,
00100000
00000000
10000000
00000000
00010000
01000000
00010000
00000000
,
00200000
01000000
00010000
01300000
,
00010000
00000000
00001000
00000000
,
00000010
00000001
00000100
00001001
,
00000010
00000000
00000100
00000010
00000000
00010000
00001000
00000000
,
01000000
00000000
00100000
10000000
00000000
00010000
01000000
00000000
,
00001000
00000000
00100000
00010000
00000000
10000000
01000000
00000000
,
10000000
00010000
00001000
00000001
,
00000010
00000000
00000100
00001000
00000000
00000100
00000010
00000000
,
00000001
00001000
00010000
10000000
,
00100000
00000000
00000000
01000000
00100000
00000000
00000000
10000000
,
00010000
10000000
00010000
10010000
,
10000000
01000000
00010000
00001000
,
00110000
00011000
00110000
00011000
,
00000020
00000100
00020030
00000100
,
00030010
00000001
00001000
00000000
,
00000001
00000100
00000010
00000000
00000100
00000000
00000100
00000000
,
00001000
00010000
00001000
00000000
00100000
00000000
00100000
00000000
,
01000000
10000000
00100000
00010000
,
01000000
00000000
00001000
00010000
00001000
00000000
00011000
00000000
,
00000100
00000001
00000010
00000100
,
00001100
00000101
00001100
00000101
,
00000020
00000100
00002030
00000100
,
00003010
00010000
00100000
00000000
,
10000000
01000000
00100000
00000000
01000000
00000000
01000000
00000000
,
00010000
00001000
00010000
00000000
00000100
00000000
00000100
00000000
,
00001001
00000000
00000110
00000000
,
00001001
00000110
00001001
00000110
,
00000001
00000100
00001000
00000000
,
00000010
00010000
00001000
00000000
,
00100000
00010000
10000000
00000000
,
01000000
00010000
10000000
00000000
,
00100000
00000000
10000000
00000000
,
00010000
00000000
00001000
00000000
,
00000001
00000000
00000010
00000000
,
00000100
00000000
00001000
00000000
,
00000001
00000100
00001000
00000100
,
00001000
00000000
00010000
00000000
00100000
10000000
00010000
00000000
,
10000000
01000000
00010000
01000000
,
00010000
00000000
00001000
00000000
00000010
00000100
00010000
00000000
,
00001000
02000000
00100000
03002000
,
00100000
02003000
00100000
03001000
,
00011000
00000000
00110000
00000000
,
11000000
01010000
10010000
00000000
,
00010000
00000000
00000000
10000000
01000000
00000000
00000000
00010000
,
00000000
00001000
00000000
00011000
00000000
00000000
00000000
00000000
,
00000010
00000000
00000000
00000001
00000000
00000000
00000000
00001000
,
00000000
00000010
00000000
00000101
00000000
00000000
00000000
00000000
,
00000001
00000001
00000100
00000100
,
00001000
00001000
00010000
00010000
,
00100000
00000000
00000000
10000000
00000000
00000000
00010000
00000000
,
00100000
01000000
01100000
01000000
,
10000000
00100000
01000000
01010000
,
00011000
01010000
00011000
00200000
,
01000000
00320000
01000000
00130000
,
00001000
00000000
00000010
00000000
00000000
00000000
00000001
00000100
,
00000010
00000000
00000100
00000000
00000100
00000000
00001000
00010000
,
00001000
01000000
01000000
10010000
,
00000000
01100000
00000000
00100000
,
00001000
00000010
00001001
00000000
;

//---------------dance-double - ----------------
#NOTES:
     dance-double:
     :
     Hard:
     11:
     0.562,0.567,0.357,0.235,0.000:
00000000
00000000
00000000
00000000
,
00000000
00000000
00000000
00000000
,
00000000
00000000
00000000
00000000
,
00000000
00000000
00000000
00000000
,
00000000
00000000
00000000
00000000
,
00001000
00000001
00000100
00001000
00000000
00010000
00001000
00010000
,
00000000
01000000
10000000
00010000
01000000
00000000
00100000
00000000
,
10000000
00100000
00010000
00100000
00000000
00010000
00001000
00010000
,
00000000
00001000
00000010
00000100
00001000
00000000
00000001
00000000
,
00001000
00000010
00000100
00000001
00000000
00001100
00000000
00011000
,
00000000
00100000
00001000
01000000
00000000
00010000
01000000
00100000
,
10000000
00000000
00010000
01000000
00000000
11000000
00000000
10100000
,
00000000
00110000
00000000
00001000
00010000
00000000
00000100
00000000
,
00000010
00000100
00001000
00000001
00000000
00000101
00000000
00001100
,
00000000
00000010
00000100
00010000
00000000
00001000
00100000
00010000
,
00110000
00000000
11000000
00000000
,
01100000
10010000
01100000
00000000
,
10000000
01000000
00100000
02000000
00000000
03020000
00000000
00032000
,
00000000
00003010
00000001
00000010
00000000
00000100
00000010
00000001
,
00000100
00000000
00000010
00020000
00000000
00032000
00000000
02003000
,
00000000
03100000
00000000
10000000
00010000
00000000
10000000
00000000
,
00010000
01000000
00100000
02000000
00000000
03002000
00000000
00203000
,
00000000
01300000
00010000
01000000
00000000
00010000
00001000
00000010
,
00000100
00000000
00000010
00000000
,
00000001
00001000
00010000
10000000
,
00010000
00000000
01000000
00100000
00000000
00010000
00001000
00000100
,
00000010
00000000
00001000
00000100
00000000
00000010
00001000
00010000
,
01000000
00000000
10000000
00010000
00000000
01000000
00100000
10000000
,
00020000
00230000
00302000
00003020
,
00000031
00000000
00001000
00000100
00000000
00000010
00000001
00000010
,
00000100
00001000
00010000
01000000
,
01100000
00000000
00000000
10000000
00010000
00000000
00000000
00100000
,
01000000
00000000
00100000
00001000
00000000
00010000
00000100
00000010
,
00000001
00000000
00001000
00000001
00000010
00000000
00000100
00001000
,
00000000
00011000
00000000
00000100
00000010
00000000
00010000
00001000
,
00100000
00000000
01000000
10000000
00000000
00010000
00000000
01000000
,
00000000
00100000
10000000
01000000
00100000
00000000
01000000
00000000
,
00010000
00001000
00100000
00001000
00000000
00000100
00000010
00001000
,
00000001
00000010
00000100
00010000
00000000
00001000
00000010
00000001
,
00001000
00000000
00000000
00000001
00000100
00001000
00010000
00100000
,
10000000
00000000
00010000
10000000
00010000
00000000
01100000
00000000
,
10000000
00000000
00010000
10000000
00100000
00000000
01000000
00010000
,
00000000
00011000
00000000
01000000
00100000
00000000
00001000
00010000
,
00000010
00000000
00000100
00000001
00000000
00001000
00000000
00000100
,
00000000
00000010
00000001
00000100
00000010
00000000
00000100
00000000
,
00001000
00010000
00001000
00000000
01000000
00010000
01000000
00000000
,
00100000
10000000
01000000
00000000
00100000
00010000
01000000
00000000
,
00100000
00000000
00000000
00010000
00001000
00000000
00000000
00001000
,
00101000
00011000
00001010
00011000
,
00001000
00000100
00000001
00000000
,
00000001
00000010
00001000
00000000
,
00010000
00100000
10000000
00000000
,
10000000
01000000
00010000
00000000
,
00002000
00000000
00203000
00000000
,
02300000
00000000
03200000
00000000
,
00302000
00000000
00003200
00000000
,
00000302
00000000
00000023
00000000
,
00000031
00001000
00000100
00000000
00000010
00000100
00001000
00000000
,
00000001
00000100
00001000
00010000
00000000
00100000
01000000
00010000
,
00100000
00010000
01000000
00000000
00100000
10000000
01000000
00000000
,
00010000
00001000
00000010
00000100
00000000
00001000
00000001
00000100
,
00000010
00010000
00000100
00010000
,
00000010
00001000
00010000
01000000
,
01100000
00000000
10010000
00000000
,
01100000
10010000
01100000
00000000
,
10000000
00000000
00000000
00010000
01000000
00000000
00000000
01010000
,
00000000
00011000
00000000
00002200
00000000
00000000
00003300
00000000
,
00000110
00000000
00000000
00001001
00000000
00000000
00000000
00000011
,
00000000
00001100
00000000
00022000
00000000
00000000
00033000
00000000
,
01000000
01000000
10000000
10000000
,
00100000
00100000
00010000
00010000
,
00001000
00000000
00000000
00010000
00000000
00000000
00001000
00000000
,
00000010
00000000
00000100
00000010
00000100
00000000
00000001
00000000
,
00001000
00000001
00000010
00000000
00000100
00001000
00000000
00011000
,
00000000
00000100
00000010
00000000
00010000
00001000
00100000
00000000
,
01000000
10000000
00000000
00010000
00000000
01000000
00000000
00100000
,
10000000
01000000
00100000
00000000
01000000
00000000
00010000
00001000
,
00010000
00000000
00000100
00001000
00000100
00000000
00000010
00000001
,
00000100
00000000
00000010
00001000
00000100
00000000
00000010
00000000
,
00000000
00001000
00010000
00000000
00000000
00010000
00010010
00000000
,
00011000
00110000
10010000
00000000
;

//---------------dance-double - ----------------
#NOTES:
     dance-double:
     :
     Challenge:
     11:
     0.556,0.681,1.000,0.385,0.000:
00000000
00000000
00000000
00000000
,
00000000
00000000
00000000
00000000
,
00000000
00000000
00000000
00000000
,
00000000
00000000
00000000
00000000
,
00000000
00000000
00000000
00000000
,
10100000
10100000
01010000
10100000
,
11000000
01010000
11000000
01010000
,
01100000
MMMMMMMM
00011000
MMMMMMMM
,
00000110
00001001
00000110
MMMMMMMM
,
00002010
00000010
00000001
00003010
,
MMMMMMMM
00001100
MMMMMMMM
00011000
,
01010000
01010000
11000000
11000000
,
01100000
10010000
01100000
MMMMMMMM
,
00120000
00100000
10000000
00130000
,
MMMMMMMM
01010000
MMMMMMMM
00011000
,
00010010
MMMMMMMM
00010100
MMMMMMMM
,
00001001
00000110
00001001
MMMMMMMM
,
00000021
00000001
00000100
00000031
,
MMMMMMMM
00001100
MMMMMMMM
00011000
,
00101000
00101000
01001000
01001000
,
01010000
10010000
11000000
MMMMMMMM
,
10200000
10000000
01000000
10300000
,
MMMMMMMM
01010000
MMMMMMMM
00011000
,
00010010
00010010
00010100
00010100
,
00001010
00001100
00000101
00000011
,
MMMMMMMM
00000110
MMMMMMMM
00011000
,
MMMMMMMM
00110000
MMMMMMMM
11000000
,
MMMMMMMM
10010000
MMMMMMMM
01100000
,
00101000
00011000
00101000
00110000
,
MMMMMMMM
01010000
MMMMMMMM
00011000
,
MMMMMMMM
00001010
MMMMMMMM
00000101
,
00001001
MMMMMMMM
00000110
MMMMMMMM
,
00001001
00000110
00001001
MMMMMMMM
,
00000012
00000010
00001000
00000013
,
00000101
00001100
00011000
00110000
,
MMMMMMMM
00101000
MMMMMMMM
01001000
,
01010000
11000000
01010000
MMMMMMMM
,
01100000
01100000
00101000
00011000
,
00000110
00000110
00010010
00011000
,
00101000
00101000
00110000
00110000
,
11000000
01010000
11000000
MMMMMMMM
,
20100000
00100000
00010000
30100000
,
11000000
01010000
00011000
00001010
,
MMMMMMMM
00010010
MMMMMMMM
00010100
,
00001100
00000101
00001100
MMMMMMMM
,
00000120
00000100
00000001
00000130
,
00021000
00001000
00000010
00031000
,
01100000
MMMMMMMM
10010000
MMMMMMMM
,
01100000
10010000
01100000
MMMMMMMM
,
20000000
00000000
02000000
30000000
,
00020000
03000000
00002000
00030000
,
00000200
00003000
00000002
00000300
,
00000020
00000003
00002000
00000030
,
00020000
00003000
00000020
00030000
,
00000002
00000030
00000020
00000003
,
00020000
00000030
00200000
00030000
,
20000000
00300000
00020000
30000000
,
00130000
01000000
10000000
01000000
,
00010000
00001000
00000100
00000001
,
00000010
00000100
00000001
00000100
,
00001000
00010000
01000000
10000000
,
MMMMMMMM
00010000
MMMMMMMM
10000000
,
MMMMMMMM
00010000
MMMMMMMM
10000000
,
01100000
MMMMMMMM
00011000
MMMMMMMM
,
00000110
00001001
00000110
MMMMMMMM
,
00000002
00000000
00000003
00000100
00002000
00000000
00003000
00011000
,
00000000
00101000
00000000
00220000
00000000
00000000
00330000
00000000
,
20020000
00000000
30030000
02200000
00000000
03300000
00000000
01010000
,
00000000
01001000
00000000
00022000
00000000
00000000
00033000
00000000
,
00001000
00000100
00001000
00000100
,
00000001
00000100
00000001
00000100
,
00002000
00000000
00000000
00003020
00000000
00000030
00020000
00000000
,
00032000
00003000
00011000
00000012
,
00000010
00001000
00000013
00000101
,
00001100
00011000
00110000
MMMMMMMM
,
00101000
MMMMMMMM
01001000
01010000
,
11000000
01010000
MMMMMMMM
01200000
,
01000000
10000000
01300000
00002000
,
00010000
00100000
00013000
00000110
,
MMMMMMMM
00001001
MMMMMMMM
00000101
,
00001001
00001100
00011000
00000000
;

//---------------dance-single - ----------------
#NOTES:
     dance-single:
     :
     Edit:
     15:
     0.913,0.881,0.695,0.395,0.301:
0000
0000
0000
0000
,
0000
0000
0000
0000
,
0000
0000
0000
0000
,
0000
0000
0000
0000
,
0000
0000
0000
0000
,
1000
0100
0010
0100
1000
0010
0100
0001
,
0010
1000
0001
0100
1100
0000
0011
0000
,
0010
1000
0010
0001
0100
0010
1000
0010
,
0100
0000
1000
0000
0001
0000
0010
0000
1010
0000
0000
0000
0101
0000
1000
0001
,
1000
0010
0100
0001
0000
1001
0000
0120
,
0000
1030
0001
0100
1000
0100
0010
0001
,
0010
1000
0001
0010
0000
1001
0000
0110
,
0000
1100
0000
0101
0011
0001
1000
0000
,
0010
1000
0001
0010
0100
1000
0000
0201
,
0000
0310
0100
0010
1000
0100
0001
0010
,
0100
0000
0010
1000
0001
0000
0000
0000
1000
0000
0100
0010
0001
0000
0000
0000
,
1000
0000
0100
0000
0010
0000
0001
0000
1010
0000
0000
0000
0011
0000
0001
0010
,
0001
1000
0010
0200
0001
0302
0010
0023
,
0100
0130
1000
0100
1000
0010
0100
0001
,
0010
0001
0100
0002
1000
2003
0100
3200
,
0010
0301
0010
0001
1000
0100
0010
0001
,
1000
0100
0001
0200
1000
2300
0001
3002
,
0100
0103
0010
0100
0010
0001
1000
0001
,
0110
0000
0100
0010
0200
0000
0300
0000
0110
0000
0010
0100
0020
0000
0030
0000
,
0010
0100
0001
0100
1000
0100
0010
0000
,
0001
0100
0010
1000
0100
0001
0110
0000
,
1000
0010
0001
0010
0100
0001
0110
0000
,
0001
0000
0010
0000
0001
0000
1000
0000
0010
0000
0100
0000
0011
0000
0000
0002
,
0100
0000
0003
0200
0010
0000
0300
0020
1000
0000
0030
2000
0001
0000
3000
0001
,
0010
1000
0100
0001
1000
0010
1000
0010
,
0100
0000
0001
0000
0010
0000
1000
0000
0001
0000
0010
0000
0001
0000
1000
0010
,
0100
0000
0001
0000
1000
0000
0010
0100
0001
0000
1000
0000
0001
0000
0001
0100
,
1000
0000
0010
0100
0001
0000
1000
0001
0100
0000
1000
0000
0001
1000
0001
0000
,
0101
0001
1001
0000
0110
0100
1100
0000
,
0110
0000
0001
1000
0001
0000
0100
0010
0100
0000
0010
1000
0010
0000
1000
0001
,
1000
0001
0100
0001
0100
0010
1000
0001
,
1000
0000
0010
0100
0001
0000
0010
0000
1100
0000
0000
0000
0011
0000
0000
0000
,
1000
0100
0010
0110
0000
0100
0010
0001
,
1000
0010
0100
1001
0000
0100
1000
0001
,
2010
0000
3000
0001
1000
0100
0010
0001
,
1001
0000
0000
0000
0001
0000
0100
0000
1000
0000
0001
0010
0100
0010
0100
1000
,
0001
0000
0100
0000
0010
0000
1000
0100
0010
0000
0000
0000
0101
0000
0002
0000
,
0000
0000
2003
0000
0000
0000
3100
0001
0010
0000
1000
0010
1000
0000
0001
0100
,
0001
0000
0000
0000
0001
0000
0200
1000
0000
0000
2300
0010
0000
0000
3020
0100
,
0000
0000
0130
0001
1000
0000
1000
0000
0110
0000
0000
0000
1001
0000
0000
0000
,
0001
0000
0100
1000
0100
0000
0001
0000
1000
0000
0100
0000
1000
0000
0010
0000
,
0100
0000
0010
0001
0010
0000
0100
0000
0001
0000
1000
0000
0100
0000
0010
0001
,
0010
0000
0000
0000
0010
0000
0100
1000
0010
0000
0000
0000
0001
0000
0010
1000
,
0001
0000
1000
0010
0100
0000
0001
0100
0010
0000
0000
0000
1001
0000
0000
0000
,
0011
0010
0010
0000
0101
0000
0000
1100
,
1000
0010
0100
0001
0011
0000
1000
0100
,
1100
0100
0100
0000
1010
0000
0000
1001
,
0001
1000
0010
0100
0110
0000
0001
1000
,
0012
0010
0010
0000
0020
0000
0033
0000
,
2100
0100
0100
0000
0200
0000
3300
0000
,
0011
0001
0101
0000
1001
1000
1010
0000
,
1000
0000
0100
1000
0010
0000
0100
0001
0010
0000
1000
0100
0010
0001
0100
0010
,
0100
0001
0101
0000
1001
1000
1010
0000
,
0001
0000
1000
0010
1000
0000
0100
0000
0010
0000
0001
0000
1000
0000
0100
0000
,
0010
0001
0100
0000
0011
0010
0110
0000
,
1000
0000
0010
0001
0010
0000
1000
0000
0010
0000
0001
0000
0100
0010
0100
0000
,
1000
0010
0001
0010
1000
0001
0100
0010
,
1000
0001
1000
0100
1010
0000
0101
0000
,
0001
0000
0100
0010
1000
0000
0000
0000
1000
0000
0010
0100
0001
0000
0000
0000
,
1100
0100
0110
0010
0011
0001
1001
1000
,
0002
0000
0000
1000
0103
0000
0000
0011
,
0000
1100
0000
0100
0120
0000
0001
0001
,
0031
0000
1000
0110
0000
0011
0000
1010
,
0000
0000
0101
0000
0000
0000
1000
0000
0100
0000
0010
0000
0001
0000
1000
0001
,
1000
0100
0001
0100
1000
0010
0100
0001
,
0010
0001
1000
0001
0110
0000
1001
0000
,
0020
0000
0000
1000
2030
0000
0001
0000
,
3010
0000
0000
0000
0000
0000
0000
0000
0000
0000
0000
0000
0000
0000
0000
0000
0100
0000
0000
0000
0000
0000
0000
0000
0010
0000
0000
0000
0000
0000
0000
0000
0220
0330
0000
0000
0000
0000
0000
0000
0000
0000
0000
0000
0000
0000
0000
0000
1002
0000
0000
0000
0000
0000
0000
0000
0000
0000
0000
0000
0000
0000
0000
0000
,
1003
0001
0010
0000
0100
2001
0000
3002
,
0000
0000
1003
0010
0100
0000
0001
0100
0010
0000
1000
0000
1200
0000
0000
0000
,
1300
0000
0200
0001
0000
0000
0302
0010
0000
0000
0023
0100
0000
0000
0130
1000
,
0001
0010
0100
0000
0001
1001
1000
0010
,
0100
0001
0010
0001
0100
1000
0100
0010
,
1000
0000
0010
0000
0100
0000
1000
0010
1000
0000
0001
0100
0001
0000
0000
0000
,
0010
0000
0100
0001
1000
0000
0000
0000
1001
0000
1000
0100
0010
0000
1000
0001
,
0100
0000
0010
0001
1000
0000
0001
0200
0020
0000
0000
0000
0000
0000
0000
0000
,
0000
0000
0330
0000
;

//---------------dance-double - ----------------
#NOTES:
     dance-double:
     :
     Edit:
     15:
     0.903,0.919,0.677,0.395,0.310: // measure 1
00000000
00000000
00000000
00000000
,  // measure 2
00000000
00000000
00000000
00000000
,  // measure 3
00000000
00000000
00000000
00000000
,  // measure 4
00000000
00000000
00000000
00000000
,  // measure 5
00000000
00000000
00000000
00000000
,  // measure 6
00000001
00000100
00000010
00001000
00000000
00010000
00001000
00100000
,  // measure 7
00010000
00001000
00010000
00100000
00110000
00000000
11000000
00000000
,  // measure 8
01000000
00100000
10000000
00010000
00001000
00000100
00010000
00000100
,  // measure 9
00001000
00000000
00000010
00000000
00000002
00000000
00000000
00000000
00000203
00000000
00000000
00000000
00010300
00000000
00001000
00010000
,  // measure 10
00001000
00100000
01000000
10000000
00000000
00110000
00000000
00100000
,  // measure 11
00000000
01000000
10000000
00100000
00010000
00001000
00000100
00000001
,  // measure 12
00000100
00000010
00001000
00000200
00000000
00010000
00000000
00010300
,  // measure 13
00000000
00000000
00110000
00000000
00000000
00000000
10010000
00000000
10010000
00000000
00000000
00000000
01000000
00010000
00100000
00010000
,  // measure 14
10000000
00010000
00100000
00001000
00010000
00001000
00000000
00010100
,  // measure 15
00000000
00000100
00001000
00000001
00000100
00000010
00001000
00000100
,  // measure 16
00001000
00000000
00010000
00001000
00020000
00000000
00000000
00000000
10030000
00000000
01000000
00100000
00010000
00000000
00000000
00000000
,  // measure 17
00010000
00000000
01000000
00000000
00100000
00000000
10000000
00000000
10100000
00000000
00000000
00000000
00011000
00000000
00010000
00000100
,  // measure 18
00010000
00000200
00000010
00000310
00000002
00001000
00001003
00020000
,  // measure 19
00100000
00130000
10000000
01000000
10000000
00100000
01000000
00010000
,  // measure 20
00100000
00002000
00010000
00013000
00000200
00001000
00001300
00000020
,  // measure 21
00000001
00000031
00000100
00000010
00001000
00000100
00010000
00001000
,  // measure 22
00010000
01000000
00100000
02000000
10000000
23000000
00010000
30020000
,  // measure 23
01000000
01030000
00100000
01000000
00100000
00010000
10000000
00010000
,  // measure 24
00001000
00000000
00000100
00010000
00002000
00000000
00000000
00000000
00003100
00000000
00000001
00000010
00002000
00000000
00000000
00000000
,  // measure 25
00003100
00000000
00000010
00000000
00000100
00000000
00000001
00000000
00000010
00000000
00000100
00000000
00001100
00000000
00000000
00001000
,  // measure 26
00010000
00001000
00100000
00010000
01000000
00010000
10010000
00000000
,  // measure 27
00010000
00001000
00100000
00010000
00001000
00000100
00001010
00000000
,  // measure 28
00000001
00000000
00000100
00000000
00000010
00000000
00001000
00000000
00000100
00000000
00001000
00000000
00010000
00000000
00000000
00020000
,  // measure 29
01000000
00000000
00030000
02000000
00100000
00000000
03000000
00200000
10000000
00000000
00300000
20000000
00010000
00000000
30000000
00010000
,  // measure 30
00100000
00001000
00000100
00000001
00000100
00001000
00000010
00000001
,  // measure 31
00001000
00000100
00000001
00001000
00010000
00100000
01000000
00010000
,  // measure 32
10000000
00000000
01000000
00000000
10000000
00000000
00100000
01000000
00010000
00000000
00100000
00000000
01000000
00000000
00100000
00010000
,  // measure 33
00001000
00000000
00000100
00000010
00000001
00000000
00000100
00001000
00000010
00000000
00000100
00000000
00001000
00000000
00010000
00000000
,  // measure 34
00011000
00001000
00021000
00030000
01100000
01000000
21000000
30000000
,  // measure 35
00100000
00000000
00010000
00001000
00020000
00000000
00030100
00010000
00000100
00000000
00010000
00001000
00010000
00000000
00001000
00000010
,  // measure 36
00001000
00000001
00000100
00000010
00001000
00000001
00000100
00001000
,  // measure 37
00010000
00100000
01000000
00010000
00100000
00110000
10010000
00000000
,  // measure 38
00001000
00000100
00001000
00001200
00000000
00000301
00000010
00000100
,  // measure 39
00001000
00000100
00010000
00012000
00000000
01003000
10000000
00010000
,  // measure 40
20100000
00000000
30000000
00010000
01000000
00010000
00100000
00001000
,  // measure 41
00012000
00000000
00000000
00000000
00003100
00000000
00000001
00000000
00000010
00000000
00000100
00001000
00010000
00100000
00010000
00100000
,  // measure 42
01000000
00000000
10000000
00000000
00100000
00000000
00010000
00001000
00000100
00000000
00000000
00000000
00001001
00000000
00000011
00000000
,  // measure 43
00000000
00000000
00001100
00000000
00000000
00000000
00010000
00100000
10000000
00000000
10000000
00100000
01000000
00000000
00010000
00100000
,  // measure 44
00001000
00000000
00000000
00000000
00001100
00000000
00000200
00001000
00000000
00000000
00002300
00000010
00000000
00000000
00003020
00000100
,  // measure 45
00000000
00000000
00000130
00000001
00001000
00000000
00010000
00000000
01100000
00000000
00000000
00000000
10010000
00000000
00000000
00000000
,  // measure 46
00010000
00000000
01000000
10000000
01000000
00000000
00010000
00000000
00100000
00000000
01000000
00000000
00010000
00000000
00001000
00000000
,  // measure 47
00000100
00000000
00001000
00000100
00000001
00000000
00000010
00000000
00000100
00000000
00001000
00000000
00000100
00000000
00001000
00010000
,  // measure 48
00001000
00000000
00000000
00000000
00100000
00000000
01000000
10000000
00100000
00000000
00000000
00000000
00010000
00000000
00100000
10000000
,  // measure 49
00010000
00000000
00001000
00010000
00001000
00000000
00000100
00001000
00000010
00000000
00000000
00000000
00001001
00000000
00000000
00000000
,  // measure 50
00011000
00000000
00010000
00000000
00101000
00000000
00000000
11000000
,  // measure 51
10000000
00100000
01000000
00010000
00110000
00000000
00011000
00011000
,  // measure 52
00011000
00000000
00001000
00000000
00010100
00000000
00000000
00001001
,  // measure 53
00000001
00001000
00000010
00000100
00000110
00000000
00001000
00010000
,  // measure 54
00021000
00100000
00200000
00030000
,  // measure 55
20300000
01000000
02000000
33000000
,  // measure 56
00010010
00011000
00100100
00001000
,  // measure 57
00010000
00000000
01000000
10000000
00100000
00000000
01000000
00010000
00100000
00000000
00001000
00010000
00001000
00010000
00000100
00010000
,  // measure 58
00001000
00001010
00001001
00000000
00001000
00001010
00001100
00000000
,  // measure 59
00010000
00000000
10000000
00100000
10000000
00000000
00010000
00000000
01000000
00000000
00100000
00000000
00010000
00000000
00000100
00000000
,  // measure 60
00010000
00000100
00001000
00000000
00011000
00011000
00011000
00000000
,  // measure 61
10000000
00000000
00100000
01000000
00010000
00000000
10000000
00000000
00100000
00000000
00010000
00000000
00001000
00010000
00000100
00000000
,  // measure 62
00000001
00000100
00000010
00000100
00000010
00001000
00000100
00001000
,  // measure 63
00010000
00001000
00100000
00010000
10010000
00000000
11000000
00000000
,  // measure 64
00100000
00000000
00010000
00100000
00001000
00000000
00000000
00000000
00001000
00000000
00000100
00000010
00000001
00000000
00000000
00000000
,  // measure 65
00001100
00000100
00000110
00000010
00000011
00000001
00001001
00001000
,  // measure 66
00021000
00000000
00000000
00001000
00031000
00000000
00000000
00110000
,  // measure 67
00000000
11000000
00000000
00010000
00210000
00000000
01300000
01000000
,  // measure 68
00010000
00000000
00001000
00010100
00000000
00001100
00000000
00000011
,  // measure 69
00000000
00000000
00001001
00000000
00000000
00000000
00001000
00010000
00001000
00000000
00010000
00100000
00010000
00000000
10000000
00010000
,  // measure 70
10000000
01000000
00010000
01000000
00100000
00001000
00010000
00001000
,  // measure 71
00000100
00000010
00000001
00001000
00001001
00000000
00001100
00000000
,  // measure 72
00011000
00000000
00000000
00100000
00010000
00000000
10010000
00000000
,  // measure 73
11000000
00000000
00000000
00000000
00000000
00000000
00000000
00000000
00000000
00000000
00000000
00000000
00000000
00000000
00000000
00000000
00010000
00000000
00000000
00000000
00000000
00000000
00000000
00000000
00001000
00000000
00000000
00000000
00000000
00000000
00000000
00000000
00022000
00033000
00000000
00000000
00000000
00000000
00000000
00000000
00000000
00000000
00000000
00000000
00000000
00000000
00000000
00000000
00000001
00000000
00000000
00000000
00000000
00000000
00000000
00000000
00000000
00000000
00000000
00000000
00000000
00000000
00000000
00000000
,  // measure 74
00000010
00000100
00001000
00000000
00010000
00100000
00000000
01000000
,  // measure 75
00000000
00000000
10000000
00100000
01000000
00000000
00010000
01000000
00100000
00000000
00001000
00000000
00010000
00000000
00000000
00000000
,  // measure 76
00001000
00000000
00000200
00000001
00000000
00000000
00000302
00000010
00000000
00000000
00000023
00000100
00000000
00000000
00000130
00001000
,  // measure 77
00010000
00100000
01000000
00000000
10000000
10010000
00010000
00100000
,  // measure 78
01000000
00010000
00001000
00100000
00001000
00000100
00001000
00000100
,  // measure 79
00000001
00000000
00000100
00000000
00000010
00000000
00001000
00000100
00010000
00000000
00001000
00010000
00100000
00000000
00000000
00000000
,  // measure 80
10000000
00000000
01000000
00010000
00100000
00000000
00000000
00000000
10010000
00000000
10000000
01000000
00100000
00000000
01000000
00100000
,  // measure 81
00010000
00000000
00100000
00010000
00001000
00000000
00010000
00002000
00020000
00000000
00000000
00000000
00000000
00000000
00000000
00000000
,  // measure 82
00000000
00000000
00033000
00000000
;
