#TITLE:たまごの物理化学的 及び調理特性に関しての調査、そしてその考察;
#SUBTITLE:;
#ARTIST:大日本鉄倶楽部;
#TITLETRANSLIT:Tamago no butsuri kagakuteki oyobi chouri tokusei ni kanshite no chousa, soshite sono kousatsu;
#SUBTITLETRANSLIT:;
#ARTISTTRANSLIT:DAINIPPON TETSUKURABU;
#GENRE:;
#CREDIT:;
#MENUCOLOR:;
#METERTYPE:DDR;
#BANNER:Tamago.png;
#BACKGROUND:Tamago-bg.png;
#LYRICSPATH:;
#CDTITLE:./CDTITLES/GITADORA.PNG;
#MUSIC:Tamago.ogg;
#OFFSET:0.000;
#SAMPLESTART:79.500;
#SAMPLELENGTH:15.000;
#SELECTABLE:YES;
#LISTSORT:;
#BPMS:0.000=160.000,282.000=106.500;
#STOPS:210.000=0.375
;
#BGCHANGES:;
#ATTACKS:;

//---------------dance-single - ----------------
#NOTES:
     dance-single:
     :
     Beginner:
     3:
     0.117,0.147,0.000,0.000,0.000:
0000
0000
0000
0000
,
0000
0000
0000
0000
,
0000
0000
0000
0000
,
0000
0000
0000
0000
,
0000
0000
0000
0000
,
0001
0000
0000
0000
,
1000
0000
0000
0000
,
0010
0000
0000
0000
,
0100
0000
0000
0000
,
0010
0000
0000
0010
,
0010
0000
0000
0000
,
0100
0000
0000
0100
,
0100
0000
0000
0000
,
0001
0000
0000
0001
,
0001
0000
0000
1000
,
1000
0000
0000
0000
,
0010
0000
0000
0000
,
0100
0000
0000
0100
,
0100
0000
0000
0010
,
0010
0000
0000
0000
,
1000
0000
0000
0000
,
0001
0000
0001
0000
,
0001
0000
0000
0000
,
1000
0000
1000
0000
,
1000
0000
0000
0000
,
0010
0000
0010
0000
,
0010
0000
0000
0000
,
0100
0000
0100
0000
,
0100
0000
0000
0000
,
0001
0000
1000
0000
,
0001
0000
0000
0000
,
1000
0000
0001
0000
,
1000
0000
0000
0000
,
0010
0000
0000
0000
,
0000
0010
0010
0000
,
0100
0000
0000
0000
,
0100
0000
0000
0000
,
0001
0000
0000
0000
,
0000
1000
1000
0000
,
1000
0000
0000
0000
,
0001
0000
0000
0000
,
1000
0000
0000
0000
,
0100
0000
0000
0000
,
0010
0000
0000
0000
,
0001
0000
0000
0000
,
0010
0000
0000
0000
,
0100
0000
0000
0000
,
1000
0000
1000
0000
,
0001
0000
0001
0000
,
0100
0000
0100
0000
,
0010
0000
0010
0000
,
1000
0000
0001
0000
,
1000
0000
0001
0000
,
0000
0000
0001
0001
,
0000
0000
1000
1000
,
0000
0000
0000
0010
,
0000
0100
0000
0010
,
0000
0000
0100
0100
,
0000
0000
0001
0001
,
0000
0000
0000
1000
,
0000
0000
0001
0001
,
0000
0000
0010
0010
,
0000
0000
0100
0100
,
0000
0000
0000
1000
,
0000
0000
1000
1000
,
0000
0000
0010
0010
,
0000
0010
0000
0100
,
0000
0100
0000
0001
,
0000
0001
0000
1000
,
1000
1000
0000
0000
,
0000
0000
0000
0000
,
0000
0000
0000
0000
,
0000
0000
0000
0001
0000
0000
0000
1000
,
0000
0000
0000
0010
0000
0000
0000
0100
;

//---------------dance-single - ----------------
#NOTES:
     dance-single:
     :
     Easy:
     7:
     0.336,0.386,0.104,0.239,0.000:
0000
0000
0000
0000
,
0000
0000
0000
0000
,
0000
0000
0000
0000
,
0000
0000
0000
0000
,
0000
0000
0000
0000
,
0010
1000
0001
0100
,
0001
0010
0100
0110
,
0010
0001
1000
0010
,
0100
0010
1000
1001
,
2000
0100
0000
3100
,
0002
0100
0000
0103
,
2000
0010
0000
3010
,
0001
0010
0100
1000
,
1001
0010
0100
0010
,
1010
1000
0100
0010
,
0011
0001
0100
0010
,
2000
0100
0000
3100
,
1100
0010
0001
0100
,
0101
0001
0010
0100
,
0110
0010
0001
1000
,
0020
0100
0000
0130
,
0002
0010
0000
0010
,
1000
0010
0000
0013
,
2000
0100
0000
3100
,
0001
0100
0010
1000
,
0001
0010
0001
1000
,
1000
0010
1000
0001
,
0200
0310
2000
3100
,
0010
0001
0200
0310
,
1000
0010
1000
0100
,
0010
0001
1000
0001
,
0100
0010
1000
0010
,
0200
0001
0000
0310
,
2000
0100
0000
0010
,
0100
0001
0000
3100
,
0010
0010
0001
0100
,
0001
0010
0100
1000
,
0002
0100
0000
0010
,
1000
0010
0000
0103
,
0020
1000
0000
0130
,
2000
3100
0002
0103
,
2000
0000
0000
3000
,
0002
0000
0000
0003
,
0200
0000
0000
0300
,
0020
0000
0000
0030
,
1010
0000
0001
0000
,
1000
0100
0010
0001
,
2000
0100
0000
3100
,
0002
0100
0000
0103
,
2000
0010
0000
3010
,
0002
0010
0000
0013
,
2000
0001
0000
3100
,
0010
0100
0101
1100
,
0001
0000
0010
0001
1000
0000
0001
0000
,
0100
0000
0010
1000
0001
0000
1000
0000
,
0100
0000
1000
0001
0100
0000
0010
0000
,
0010
1000
0001
0010
,
0001
0000
1000
0001
0010
0000
0001
0000
,
1000
0000
0010
1000
0001
0000
0100
0000
,
0100
0010
0010
2000
,
0000
0000
3000
0000
0001
0000
0010
0001
,
0010
0000
0001
0100
0001
0000
1000
0000
,
1000
0000
0010
0100
0010
0000
1000
0100
,
1000
0000
0002
0000
0103
0000
0010
1000
,
0010
0000
1000
0001
1000
0000
0010
0100
,
0010
0000
1000
0001
1000
0000
0001
0001
,
0001
0000
0100
0000
0100
0000
0010
0010
,
0010
0000
1000
0000
1000
0000
0100
0100
,
0100
0010
0010
0001
,
1001
0220
0000
0000
,
0000
0000
0330
0000
0000
0100
0000
0000
,
0000
1000
0000
0000
0000
0001
0000
0000
,
0000
0100
0000
0100
0000
0100
0000
0010
,
0000
0010
0000
1000
0000
0001
0000
1000
,
0000
0100
0000
0020
0000
0030
0000
0000
;

//---------------dance-single - ----------------
#NOTES:
     dance-single:
     :
     Medium:
     10:
     0.489,0.446,0.064,0.183,0.072: // measure 1
0000
0000
0000
0000
,  // measure 2
0000
0000
0000
0000
,  // measure 3
0000
0000
0000
0000
,  // measure 4
0000
0000
0000
0000
,  // measure 5
0000
0000
0000
0000
,  // measure 6
1000
0000
0010
0000
1000
0000
0000
0000
0001
0000
0000
0100
0000
0000
0001
0000
,  // measure 7
0010
0000
0001
0000
0010
0000
0000
0000
0001
0000
0000
1000
0000
0000
0001
0000
,  // measure 8
0100
0000
0010
0000
0100
0000
0000
0000
0010
0000
0000
1000
0000
0000
0010
0000
,  // measure 9
0100
0010
0100
0000
0001
1000
0100
0000
,  // measure 10
1000
0010
1000
0000
0001
0010
0001
0010
,  // measure 11
0001
1000
0001
0000
0100
0001
0100
0001
,  // measure 12
0100
0010
0100
0000
0010
1000
0001
1000
,  // measure 13
0010
0000
0000
0010
0000
0000
0010
0000
0000
0010
0000
0000
1000
0000
0001
0000
,  // measure 14
0100
0010
1000
0100
1000
0001
0001
0000
,  // measure 15
1000
0010
0100
0001
1000
0010
0010
0000
,  // measure 16
0100
0010
1000
0001
0100
0001
0001
0000
,  // measure 17
0010
0000
0000
0100
0000
0000
1000
0000
0000
0100
0000
0000
0010
0000
0001
0000
,  // measure 18
1000
0010
0100
0001
1000
0100
0100
0000
,  // measure 19
1000
0010
0100
0001
0010
0001
0001
0000
,  // measure 20
0100
0010
1000
0000
0001
1000
0100
0000
,  // measure 21
0010
0000
0000
0001
0000
0000
0100
0000
0000
0001
0000
0000
0010
0000
0001
0000
,  // measure 22
1000
0010
1000
0010
0001
0010
0001
0010
,  // measure 23
0100
0000
0010
0000
1000
0001
0100
0001
,  // measure 24
1000
0100
1000
0100
0001
0100
0001
0100
,  // measure 25
0010
0000
0000
0001
0000
0000
1000
0000
0002
0000
0000
0000
0103
0000
0000
0000
,  // measure 26
0010
1000
0100
0000
0010
0001
0100
0000
,  // measure 27
0010
1000
0001
0000
0100
0001
1000
0000
,  // measure 28
0001
0010
0100
0000
1000
0010
0100
0000
,  // measure 29
0010
0000
0000
0100
0000
0000
0001
0000
0020
0000
0000
0000
0031
0000
0000
0000
,  // measure 30
1000
0010
1000
0000
0001
0010
0100
0000
,  // measure 31
0010
0001
0010
0000
0001
1000
0100
0000
,  // measure 32
1000
0000
0010
0000
0100
0000
0000
0000
0010
0000
0000
1000
0000
0000
0001
0000
,  // measure 33
1000
0000
0000
0100
0000
0000
1000
0000
0020
0000
0000
0000
0130
0000
0000
0000
,  // measure 34
0010
1000
0010
1000
0001
0100
0001
0100
,  // measure 35
0001
0010
0100
1000
,  // measure 36
0001
0000
0000
0100
0000
0000
0001
0000
0010
0000
0000
0000
0011
0000
0000
0000
,  // measure 37
1000
0000
0000
0100
0000
0000
1000
0000
0010
0000
0000
0000
1010
0000
0000
0000
,  // measure 38
1000
0001
1000
0001
0100
0010
0100
0010
,  // measure 39
0100
0000
0010
0000
1000
0001
0100
0000
,  // measure 40
0001
0010
0100
0000
1000
0010
0100
0000
,  // measure 41
0010
1000
0001
0000
0100
0001
1000
0000
,  // measure 42
0002
0010
0000
0103
,  // measure 43
2000
0010
0000
3100
,  // measure 44
0020
0100
0000
0031
,  // measure 45
0200
1000
0000
0310
,  // measure 46
1000
0100
1000
0000
0220
0000
0330
0000
,  // measure 47
0001
0100
0001
0000
2002
0000
3003
0000
,  // measure 48
2000
0000
3100
0001
0000
0100
1000
0000
,  // measure 49
0002
0000
0013
1000
0000
0010
0001
0000
,  // measure 50
0200
0000
0301
0010
0100
1000
0001
0000
,  // measure 51
0200
0000
0310
1000
0001
0010
0001
0000
,  // measure 52
2000
0000
3001
0010
0100
0010
0001
0000
,  // measure 53
1000
0000
0000
0001
0000
0000
0100
0000
0010
0000
0000
0000
1001
0000
0000
0000
,  // measure 54
0100
0000
0010
1000
0100
1000
0010
0000
,  // measure 55
0100
0000
0001
0010
0100
0010
0001
0000
,  // measure 56
1000
0000
0000
0000
0001
0000
1000
0000
0010
0000
1000
0000
0100
0000
0000
0100
,  // measure 57
0000
0010
0100
0000
0010
0000
1001
0000
,  // measure 58
0010
0000
0100
0010
1000
0001
0010
0000
,  // measure 59
0001
0000
0010
0001
1000
0010
0100
0010
,  // measure 60
1000
0000
0001
0010
0100
0000
0020
0000
,  // measure 61
0000
0000
0000
0031
0001
0000
1000
0100
,  // measure 62
1000
0000
0010
0100
0010
0000
0001
0010
,  // measure 63
0100
0000
0010
0000
0001
0000
1000
0000
0100
0000
0000
0000
1000
0000
0000
0010
,  // measure 64
0000
0100
0002
0000
1003
0000
0001
0010
,  // measure 65
0100
1000
0001
0010
0100
0000
1000
0100
,  // measure 66
0010
0001
1000
0100
0010
0000
0001
0010
,  // measure 67
0010
0000
0001
1000
0100
0000
1000
0010
,  // measure 68
0010
0000
1000
0001
0100
0000
0010
0010
,  // measure 69
0010
0000
0100
0100
0100
0100
0001
0000
,  // measure 70
1001
0220
0000
0000
,  // measure 71
0000
0000
0330
0000
1000
0010
1000
0000
,  // measure 72
0001
0010
0001
0000
1000
0100
1000
0000
,  // measure 73
0001
0100
0010
1000
0001
0000
1000
0010
,  // measure 74
0100
0000
0001
0010
0100
1000
0001
0200
,  // measure 75
0000
0320
0000
2030
0000
3000
0000
0000
;

//---------------dance-single - ----------------
#NOTES:
     dance-single:
     :
     Hard:
     15:
     0.686,0.743,0.653,0.167,0.267:
0000
0000
0000
0000
,
0000
0000
0000
0000
,
0000
0000
0000
0000
,
0000
0000
0000
0000
,
0000
0000
0000
0000
,
0001
0000
0010
0000
0100
0000
1000
0000
0001
0000
0000
0100
0000
0000
0001
0000
,
1000
0000
0010
0000
0100
0000
0001
0000
1000
0000
0000
1100
0000
0000
1000
0000
,
0010
0000
0100
0000
0001
0000
1000
0000
0010
0000
0000
0100
0000
0000
0010
0000
,
1000
0100
0001
0100
1000
0001
1002
0000
,
1003
0000
0010
0100
0000
0000
0001
0000
0010
0000
0100
0000
0010
0000
0001
0000
,
0100
0000
0010
0100
0000
0000
0010
0000
1000
0000
0001
0000
1000
0000
0010
0000
,
1010
0000
0010
1000
0000
0000
0001
0000
0100
0000
0001
0000
1000
0000
0100
0000
,
0011
0000
0000
1100
0000
0000
0101
0000
0000
1100
0000
0000
0001
0000
1000
0000
,
0110
0000
0001
0000
0100
0000
0010
1000
0000
0000
1100
0000
0010
0000
1000
0000
,
0010
0000
0100
0000
0001
0000
0100
0010
0000
0000
0101
0000
0010
0000
1000
0000
,
0010
0000
0100
0000
0001
0000
1000
0001
0000
0000
0011
0000
0100
0000
1000
0000
,
0010
0000
0000
0110
0000
0000
0101
0000
0000
0000
0001
0000
1000
0000
0100
0000
,
0011
0000
0100
0000
1000
0000
0001
1000
0000
0000
0110
0000
0001
0000
1000
0001
,
0010
0000
0100
0000
1000
0000
0010
0100
0000
0000
0110
0000
1000
0000
0001
1000
,
0010
0000
0100
0000
0001
0000
1000
0100
0010
0000
0100
0000
1000
0000
0001
0000
,
0110
0000
0000
1010
0000
0000
0101
0000
0000
0000
0001
1000
0100
0000
0010
0000
,
1001
0001
0100
1000
0100
0001
0020
1000
,
0031
1000
0100
0001
0100
1000
0010
0110
,
1001
0010
1000
0010
0001
0100
1000
0100
,
1100
0000
0000
0011
0000
0000
1001
0000
0120
0000
0000
0000
0130
0000
0000
0000
,
0010
0000
1000
0100
0010
0000
0100
0000
1000
0000
0010
0000
0100
0000
0001
0000
,
0010
0000
0001
0010
0100
0000
0010
0000
0001
0000
1000
0000
0010
0000
0100
0000
,
0001
0000
1000
0001
0100
0000
0001
0000
1000
0000
0100
0000
0010
0000
0100
0000
,
1000
0000
0000
1100
0000
0000
0001
0000
0100
0000
0000
0000
1010
0000
0000
0000
,
1001
0000
0001
0010
0100
0000
0010
0000
0001
0000
1000
0000
0100
0000
0010
0000
,
0100
0000
1000
0010
0100
0000
0010
0000
1000
0000
0001
0000
0100
0000
0001
0000
,
1000
0000
0100
0010
0001
0000
0010
0000
0100
0000
1000
0010
0100
0000
0010
0000
,
1000
0000
0000
1001
0000
0000
0101
0000
2100
0000
0000
0000
3010
0100
0010
0100
,
0010
1000
0010
1000
0100
0001
0100
0001
,
0100
1100
0011
1001
,
0110
0000
0000
0101
0000
0000
1010
0000
0001
0000
0100
0000
0010
1000
0001
0000
,
0110
0000
0000
1100
0000
0000
0101
0000
2000
0000
0000
0000
3002
0000
0000
0000
,
1003
0100
1000
0100
0001
0100
1000
0010
,
0001
0100
1000
0000
0110
0000
1001
0000
,
0101
0010
1000
0000
1100
0010
0001
0000
,
1000
0000
0000
1001
0000
0000
0101
0000
0010
1000
0010
1000
0001
0000
1000
0000
,
0200
1000
0010
0301
,
0020
0001
0100
1030
,
0002
0010
1000
0103
,
2000
0010
3100
1001
,
0200
0010
0010
0310
,
2000
0001
0001
3001
,
1001
0000
0000
0000
0100
0000
0010
0000
0100
0000
0010
0000
0100
0000
0010
1000
,
0001
0000
0000
0000
1000
0000
0100
0000
1000
0000
0010
0000
1000
0000
0001
0100
,
0010
0000
0000
0000
0100
0000
0001
0000
0010
0000
1000
0000
0010
0000
0001
1000
,
0100
0000
1000
0010
0100
0001
1000
0000
,
2001
0000
0000
0000
3010
0000
0000
0000
1000
0000
1000
0000
0001
1000
0001
1000
,
0001
0000
0000
1100
0000
0000
0101
0000
2001
0000
0000
0000
3010
0000
0100
0000
,
0001
0000
0010
0001
0000
0000
1100
0000
0010
0000
1001
0000
0010
0000
1000
0000
,
0100
0000
1000
0010
0000
0000
0101
0000
0010
0000
1001
0000
0010
0000
0100
0000
,
1000
0000
0100
1000
0000
0001
1000
0000
0010
0000
0100
0000
0001
0000
0000
0101
,
0000
1100
2010
0000
3001
0000
1100
0010
,
0001
0000
0100
0001
0000
0000
0101
0000
0010
0000
1001
0000
0010
0000
0100
0000
,
1000
0000
0010
1000
0000
0000
0110
0000
0001
0000
1001
0000
1000
0000
0100
0000
,
0001
0100
1000
0010
0001
0010
2000
0000
,
0000
0000
0000
0000
0000
0000
3001
0010
0001
0000
1000
0000
0010
0000
0100
0001
,
0000
1000
0100
0000
1000
0000
0010
1000
0000
0001
0100
0000
0001
0000
0020
0000
,
0000
0000
0031
1000
0001
0000
1000
0000
0100
1000
0010
0000
0100
0000
0000
0110
,
0000
0000
1001
0000
2100
0000
0000
0000
3001
0000
0000
0000
1000
0100
1000
0100
,
0010
0000
0010
0000
0001
0100
0001
0100
0010
0000
0010
0000
1000
0001
0100
0010
,
0100
0000
0001
0000
1000
0100
0010
0001
1000
0000
0010
0000
0101
0000
0010
0000
,
0101
0010
0100
0100
0001
0001
1100
0010
,
1100
0010
0100
0100
1000
1000
0110
0110
,
0110
0000
0101
0000
0101
0000
0101
0000
0001
1000
0100
0000
0110
0000
0000
0000
,
1001
0220
0000
0000
,
0000
0000
0330
0000
1000
0100
1000
0000
,
0001
0100
0001
0000
1000
0010
1000
0000
,
0001
0010
0100
1000
0001
0100
0010
0000
,
0010
0100
0001
0000
1000
0100
0001
1100
,
0001
0010
0100
2000
0000
3000
0000
0000
;

//---------------dance-single - ----------------
#NOTES:
     dance-single:
     :
     Challenge:
     17:
     0.911,0.981,0.183,0.183,1.000:
0000
0000
0000
0000
,
0000
0000
0000
0000
,
0000
0000
0000
0000
,
0000
0000
0000
0000
,
0000
0000
0000
0000
,
0010
0000
0100
0000
0001
0100
0010
0100
0001
0000
0010
0001
0000
0001
1000
0000
,
0001
0000
0010
0000
0100
1000
0001
1000
0010
0000
1000
0001
0000
0001
0100
0000
,
0010
0000
1000
0000
0100
1000
0010
0100
0010
0000
1000
0010
0000
0010
0100
0000
,
0001
0010
0001
1000
0010
1000
0001
0100
0001
1000
0100
1000
0001
0010
0100
1000
,
0001
0000
1000
0000
0001
0100
0001
0100
0010
0000
0100
0001
0000
0001
1000
0000
,
0010
0000
1000
0000
0100
0010
0100
0010
0100
0000
1000
0010
0000
0010
1000
0000
,
0001
0000
0100
0000
0010
1000
0001
1000
0100
0000
0010
0100
0000
0100
1000
0000
,
0001
0000
0010
1000
0000
0010
0001
0000
1000
0100
0000
0001
0100
1000
0001
1000
,
0001
0000
0100
0001
0100
0000
0001
0010
0000
0010
0100
1000
0001
0000
1000
0000
,
0010
0000
1000
0010
1000
0000
0010
0100
0000
0100
0001
1000
0001
0000
0010
0000
,
0001
0000
0100
0010
0100
0000
0001
0010
0000
0010
0100
1000
0001
0000
1000
0000
,
0010
1000
0010
0100
0001
0100
0001
0010
0001
1000
0010
1000
0001
0010
0100
1000
,
0001
0000
1000
0100
1000
0000
0001
0010
0000
0010
0001
1000
0001
0000
0100
0000
,
0010
0000
1000
0010
1000
0000
0001
0100
0000
0100
0001
1000
0001
0000
0100
0000
,
0010
0000
1000
0100
0010
0000
0001
0100
0010
0000
1000
0001
0100
0000
0001
0000
,
1001
0000
0000
0101
0000
0000
2010
0000
0000
0000
3001
0010
0100
0000
1000
0000
,
0001
0100
0001
0100
0010
0100
0010
0100
0001
0100
0001
0100
0020
0000
1030
0000
,
0100
1000
0100
1000
0010
0100
0010
0100
0001
0010
0001
0010
0002
0000
1003
0000
,
0001
0010
0001
0010
0100
0010
0100
0010
0001
1000
0001
1000
0020
0000
0130
0000
,
0010
1000
0010
0100
0001
0100
0001
1000
0002
0000
1003
0000
0001
0010
0100
1000
,
0001
0000
0100
0000
0010
1000
0100
1000
0010
0000
1000
0000
0001
1000
0100
0000
,
1000
0000
0001
0000
0100
0001
0010
0001
0100
0000
0001
0000
1000
0001
0100
0000
,
0010
0000
0100
0000
0001
0010
0100
0010
0001
0000
1000
0000
0100
1000
0010
0000
,
1000
0100
1000
0001
0010
0001
1000
0010
1000
0001
0100
0001
1000
0001
0100
0001
,
1000
0000
0100
0000
0010
0100
1000
0100
0010
0000
0001
0000
0100
0001
1000
0000
,
0001
0000
0010
0000
0100
0010
0001
0010
0100
0000
0010
0000
0001
1000
0100
0000
,
1000
0000
0010
0000
0100
0001
1000
0001
0010
0000
0001
0000
1000
0001
0100
0000
,
0011
0000
0000
1001
0000
0000
0101
0000
2100
0000
0000
0000
3001
1000
0001
1000
,
0001
0010
0001
0010
0001
0100
0001
0100
0001
1000
0001
1000
0001
0010
0001
0010
,
0001
0000
0100
0000
0010
1000
0010
0000
1000
0000
0100
0000
0010
0001
0010
0000
,
0001
0100
0001
1000
0100
1000
0001
0010
0001
1000
0010
1000
0001
0010
0100
1000
,
0001
1000
0100
1000
0001
0100
0001
1000
0010
1000
0001
0010
0100
0010
0001
1000
,
0001
0100
0001
0100
0010
0100
0010
0100
0001
0100
0001
0100
1000
0100
1000
0100
,
0010
0100
0010
0100
0001
0010
0001
0010
0100
1000
0100
1000
0001
1000
0001
1000
,
0010
0000
0100
0001
0010
0001
1000
0010
1000
0000
0001
1000
0100
1000
0001
0010
,
0001
0100
0001
1000
0100
1000
0001
0010
0001
0100
0010
1000
0001
0010
0100
1000
,
0002
0000
0000
0000
0010
0000
0000
0000
1003
0000
0000
0100
0010
0000
1000
0000
,
2000
0000
0000
0000
0010
0000
0000
0000
3001
0000
0000
0100
0010
0000
0100
0000
,
0200
0000
0000
0000
0010
0000
0000
0000
1300
0000
0000
0010
0100
0000
0010
0000
,
0020
0000
0000
0000
1000
0000
0000
0000
0031
0000
0000
1000
0010
0000
1000
0000
,
2000
0000
3100
1000
0002
0000
0103
0000
,
0020
0000
0000
0000
1030
0000
0001
0000
0010
0000
0001
0000
1000
0001
1000
0000
,
2001
0000
3100
1000
0100
0100
0001
0100
,
2000
0000
3010
1000
0010
0010
1000
0010
,
0200
0000
0301
0010
1000
1000
0010
0001
,
1000
0000
0010
0100
0001
0100
0010
0000
1000
0001
0100
0001
1000
0000
0001
1000
,
0002
0000
0000
0000
0013
0000
0001
0000
0010
0000
0011
0000
0011
0000
0001
1000
,
0100
0000
0000
1100
0000
0000
0101
0000
2002
3003
0000
0000
1010
0000
0001
0100
,
0001
0000
0010
0001
0000
1000
0001
0100
0001
0000
1000
0000
0001
0000
0010
0001
,
0010
0000
0001
1000
0000
0010
1000
0010
0100
0000
0010
0000
1000
0000
0100
1000
,
0100
0000
1000
0001
0000
0100
0001
0100
0010
0000
1000
0000
0001
0010
0001
1000
,
0010
1000
0001
0100
0001
1000
0100
1000
0001
0010
0100
1000
0001
0000
0010
0100
,
0010
0000
0001
1000
0000
0010
0100
0010
1000
0000
0010
0000
1000
0000
0100
0010
,
0100
0000
1000
0001
0000
0100
0001
0100
0010
0000
0100
0000
0010
1000
0010
1000
,
0001
0000
0010
0001
0010
0001
1000
0000
0001
0010
0100
1000
0020
0000
0000
0000
,
0000
0000
0000
0000
0000
0000
1030
0000
0000
0000
1000
0010
0100
0000
0001
0100
,
0000
0001
0010
0000
0001
0000
1000
0001
0000
1000
0010
0000
1000
0010
0100
0001
,
1000
0000
0001
0010
0000
0010
0001
0000
1000
0001
0100
0000
0001
0010
0100
1000
,
0001
0000
0010
0001
1000
0000
0001
1000
0001
1000
0001
1000
0001
0010
0100
1000
,
0100
0000
0010
0001
1000
0001
0010
0000
0001
0000
1001
0000
1000
0010
0100
0001
,
0100
0000
0010
1000
0001
1000
0010
0000
1000
0000
1001
0000
1000
0000
0100
1000
,
0100
0000
1000
0000
1100
0000
1000
0000
1001
0000
1000
0000
0001
0000
0100
0001
,
0100
0000
0001
0000
0101
0000
0001
0000
1001
0000
1000
0000
0010
0100
0010
0100
,
0010
0000
1000
0001
0100
0001
1000
0000
0001
0010
0100
1000
0010
0000
0000
0000
,
1010
0220
0000
0000
,
0000
0000
0330
0000
1000
0100
1000
0001
,
1000
0001
0010
0001
1000
0001
0100
0010
,
1000
0000
0001
0000
0010
0000
0001
0100
0010
1000
0001
0000
1000
0000
0001
0010
,
0100
1000
0001
0000
1000
0000
0100
1000
0001
1000
0010
0000
0100
0000
0011
0000
,
1000
0100
0001
0020
0000
0030
0000
0000
;
